  0
SECTION
  2
HEADER
  9
$ACADVER
  1
AC1015
  9
$ACADMAINTVER
 70
     6
  9
$DWGCODEPAGE
  3
ANSI_932
  9
$INSBASE
 10
0.0
 20
0.0
 30
0.0
  9
$EXTMIN
 10
1320.098155341647
 20
2035.786817898503
 30
0.0
  9
$EXTMAX
 10
4456.508800093223
 20
3607.383094469913
 30
0.0
  9
$LIMMIN
 10
0.0
 20
0.0
  9
$LIMMAX
 10
4200.0
 20
2970.0
  9
$ORTHOMODE
 70
     1
  9
$REGENMODE
 70
     1
  9
$FILLMODE
 70
     1
  9
$QTEXTMODE
 70
     0
  9
$MIRRTEXT
 70
     1
  9
$LTSCALE
 40
10.0
  9
$ATTMODE
 70
     2
  9
$TEXTSIZE
 40
5.0
  9
$TRACEWID
 40
1.0
  9
$TEXTSTYLE
  7
MSP明朝1
  9
$CLAYER
  8
sunpo
  9
$CELTYPE
  6
BYLAYER
  9
$CECOLOR
 62
   256
  9
$CELTSCALE
 40
1.0
  9
$DISPSILH
 70
     0
  9
$DIMSCALE
 40
0.5
  9
$DIMASZ
 40
2.0
  9
$DIMEXO
 40
0.0
  9
$DIMDLI
 40
3.0
  9
$DIMRND
 40
0.0
  9
$DIMDLE
 40
0.0
  9
$DIMEXE
 40
0.7
  9
$DIMTP
 40
0.0
  9
$DIMTM
 40
0.0
  9
$DIMTXT
 40
2.5
  9
$DIMCEN
 40
1.5
  9
$DIMTSZ
 40
0.0
  9
$DIMTOL
 70
     0
  9
$DIMLIM
 70
     0
  9
$DIMTIH
 70
     0
  9
$DIMTOH
 70
     0
  9
$DIMSE1
 70
     0
  9
$DIMSE2
 70
     0
  9
$DIMTAD
 70
     1
  9
$DIMZIN
 70
     8
  9
$DIMBLK
  1

  9
$DIMASO
 70
     1
  9
$DIMSHO
 70
     1
  9
$DIMPOST
  1

  9
$DIMAPOST
  1

  9
$DIMALT
 70
     0
  9
$DIMALTD
 70
     4
  9
$DIMALTF
 40
0.0394
  9
$DIMLFAC
 40
1.0
  9
$DIMTOFL
 70
     1
  9
$DIMTVP
 40
0.0
  9
$DIMTIX
 70
     0
  9
$DIMSOXD
 70
     0
  9
$DIMSAH
 70
     1
  9
$DIMBLK1
  1
OPEN30
  9
$DIMBLK2
  1
OPEN30
  9
$DIMSTYLE
  2
MSP明朝寸法2_1
  9
$DIMCLRD
 70
     3
  9
$DIMCLRE
 70
     3
  9
$DIMCLRT
 70
     3
  9
$DIMTFAC
 40
1.0
  9
$DIMGAP
 40
1.0
  9
$DIMJUST
 70
     0
  9
$DIMSD1
 70
     0
  9
$DIMSD2
 70
     0
  9
$DIMTOLJ
 70
     1
  9
$DIMTZIN
 70
     0
  9
$DIMALTZ
 70
     0
  9
$DIMALTTZ
 70
     0
  9
$DIMUPT
 70
     0
  9
$DIMDEC
 70
     2
  9
$DIMTDEC
 70
     2
  9
$DIMALTU
 70
     8
  9
$DIMALTTD
 70
     4
  9
$DIMTXSTY
  7
MSP明朝W1
  9
$DIMAUNIT
 70
     0
  9
$DIMADEC
 70
     0
  9
$DIMALTRND
 40
0.0
  9
$DIMAZIN
 70
     0
  9
$DIMDSEP
 70
    46
  9
$DIMATFIT
 70
     3
  9
$DIMFRAC
 70
     0
  9
$DIMLDRBLK
  1
OPEN30
  9
$DIMLUNIT
 70
     2
  9
$DIMLWD
 70
    -2
  9
$DIMLWE
 70
    -2
  9
$DIMTMOVE
 70
     0
  9
$LUNITS
 70
     2
  9
$LUPREC
 70
     3
  9
$SKETCHINC
 40
1.0
  9
$FILLETRAD
 40
100.0
  9
$AUNITS
 70
     0
  9
$AUPREC
 70
     3
  9
$MENU
  1
acad
  9
$ELEVATION
 40
0.0
  9
$PELEVATION
 40
0.0
  9
$THICKNESS
 40
0.0
  9
$LIMCHECK
 70
     0
  9
$CHAMFERA
 40
100.0
  9
$CHAMFERB
 40
100.0
  9
$CHAMFERC
 40
200.0
  9
$CHAMFERD
 40
0.0
  9
$SKPOLY
 70
     0
  9
$TDCREATE
 40
2451337.667237268
  9
$TDUCREATE
 40
2451337.292237268
  9
$TDUPDATE
 40
2456127.694055440
  9
$TDUUPDATE
 40
2456127.319055439
  9
$TDINDWG
 40
1.0348381481
  9
$TDUSRTIMER
 40
1.0348381481
  9
$USRTIMER
 70
     1
  9
$ANGBASE
 50
0.0
  9
$ANGDIR
 70
     0
  9
$PDMODE
 70
     0
  9
$PDSIZE
 40
0.0
  9
$PLINEWID
 40
0.0
  9
$SPLFRAME
 70
     0
  9
$SPLINETYPE
 70
     6
  9
$SPLINESEGS
 70
     8
  9
$HANDSEED
  5
3C29
  9
$SURFTAB1
 70
     6
  9
$SURFTAB2
 70
     6
  9
$SURFTYPE
 70
     6
  9
$SURFU
 70
     6
  9
$SURFV
 70
     6
  9
$UCSBASE
  2

  9
$UCSNAME
  2

  9
$UCSORG
 10
1000.0
 20
1000.0
 30
0.0
  9
$UCSXDIR
 10
1.0
 20
0.0
 30
0.0
  9
$UCSYDIR
 10
0.0
 20
1.0
 30
0.0
  9
$UCSORTHOREF
  2

  9
$UCSORTHOVIEW
 70
     0
  9
$UCSORGTOP
 10
0.0
 20
0.0
 30
0.0
  9
$UCSORGBOTTOM
 10
0.0
 20
0.0
 30
0.0
  9
$UCSORGLEFT
 10
0.0
 20
0.0
 30
0.0
  9
$UCSORGRIGHT
 10
0.0
 20
0.0
 30
0.0
  9
$UCSORGFRONT
 10
0.0
 20
0.0
 30
0.0
  9
$UCSORGBACK
 10
0.0
 20
0.0
 30
0.0
  9
$PUCSBASE
  2

  9
$PUCSNAME
  2

  9
$PUCSORG
 10
0.0
 20
0.0
 30
0.0
  9
$PUCSXDIR
 10
1.0
 20
0.0
 30
0.0
  9
$PUCSYDIR
 10
0.0
 20
1.0
 30
0.0
  9
$PUCSORTHOREF
  2

  9
$PUCSORTHOVIEW
 70
     0
  9
$PUCSORGTOP
 10
0.0
 20
0.0
 30
0.0
  9
$PUCSORGBOTTOM
 10
0.0
 20
0.0
 30
0.0
  9
$PUCSORGLEFT
 10
0.0
 20
0.0
 30
0.0
  9
$PUCSORGRIGHT
 10
0.0
 20
0.0
 30
0.0
  9
$PUCSORGFRONT
 10
0.0
 20
0.0
 30
0.0
  9
$PUCSORGBACK
 10
0.0
 20
0.0
 30
0.0
  9
$USERI1
 70
     0
  9
$USERI2
 70
     0
  9
$USERI3
 70
     0
  9
$USERI4
 70
     0
  9
$USERI5
 70
     0
  9
$USERR1
 40
0.0
  9
$USERR2
 40
0.0
  9
$USERR3
 40
0.0
  9
$USERR4
 40
0.0
  9
$USERR5
 40
0.0
  9
$WORLDVIEW
 70
     1
  9
$SHADEDGE
 70
     3
  9
$SHADEDIF
 70
    70
  9
$TILEMODE
 70
     0
  9
$MAXACTVP
 70
    48
  9
$PINSBASE
 10
0.0
 20
0.0
 30
0.0
  9
$PLIMCHECK
 70
     0
  9
$PEXTMIN
 10
20.1301837250387
 20
5.039659291835846
 30
0.0
  9
$PEXTMAX
 10
406.1301837250387
 20
285.0396592918358
 30
0.0
  9
$PLIMMIN
 10
-3.17498779296875
 20
-3.174999952316284
  9
$PLIMMAX
 10
416.9833374023437
 20
293.856829881668
  9
$UNITMODE
 70
     0
  9
$VISRETAIN
 70
     1
  9
$PLINEGEN
 70
     0
  9
$PSLTSCALE
 70
     1
  9
$TREEDEPTH
 70
  3020
  9
$CMLSTYLE
  2
STANDARD
  9
$CMLJUST
 70
     0
  9
$CMLSCALE
 40
20.0
  9
$PROXYGRAPHICS
 70
     1
  9
$MEASUREMENT
 70
     1
  9
$CELWEIGHT
370
    -1
  9
$ENDCAPS
280
     0
  9
$JOINSTYLE
280
     0
  9
$LWDISPLAY
290
     0
  9
$INSUNITS
 70
     0
  9
$HYPERLINKBASE
  1

  9
$STYLESHEET
  1

  9
$XEDIT
290
     1
  9
$CEPSNTYPE
380
     0
  9
$PSTYLEMODE
290
     1
  9
$FINGERPRINTGUID
  2
{D3B74364-3C9E-480E-8F61-38460B5A8E02}
  9
$VERSIONGUID
  2
{CBADA74C-5B57-4E3C-ADCF-E0E03EDEE86B}
  9
$EXTNAMES
290
     1
  9
$PSVPSCALE
 40
0.0
  9
$OLESTARTUP
290
     0
  0
ENDSEC
  0
SECTION
  2
CLASSES
  0
CLASS
  1
DICTIONARYVAR
  2
AcDbDictionaryVar
  3
AutoCAD 2000
 90
        0
280
     0
281
     0
  0
CLASS
  1
HATCH
  2
AcDbHatch
  3
AutoCAD 2000
 90
    32768
280
     0
281
     1
  0
CLASS
  1
ACDBDICTIONARYWDFLT
  2
AcDbDictionaryWithDefault
  3
AutoCAD 2000
 90
        0
280
     0
281
     0
  0
CLASS
  1
ACDBPLACEHOLDER
  2
AcDbPlaceHolder
  3
AutoCAD 2000
 90
        0
280
     0
281
     0
  0
CLASS
  1
LAYOUT
  2
AcDbLayout
  3
AutoCAD 2000
 90
        0
280
     0
281
     0
  0
CLASS
  1
LONG_TRANSACTION
  2
AcDbLongTransaction
  3
AutoCAD 2000
 90
    32768
280
     0
281
     0
  0
CLASS
  1
LWPOLYLINE
  2
AcDbPolyline
  3
AutoCAD 2000
 90
    32768
280
     0
281
     1
  0
CLASS
  1
HATCH
  2
AcDbHatch
  3
AutoCAD 2000
 90
    32768
280
     0
281
     1
  0
CLASS
  1
XRECORD
  2
AcDbXrecord
  3
AutoCAD 2000
 90
    32768
280
     0
281
     0
  0
ENDSEC
  0
SECTION
  2
TABLES
  0
TABLE
  2
VPORT
  5
8
330
0
100
AcDbSymbolTable
 70
     1
  0
VPORT
  5
3C1C
330
8
100
AcDbSymbolTableRecord
100
AcDbViewportTableRecord
  2
*Active
 70
     0
 10
0.0
 20
0.0
 11
1.0
 21
1.0
 12
2999.463249711835
 22
2686.917734905349
 13
0.0
 23
0.0
 14
10.0
 24
10.0
 15
10.0
 25
10.0
 16
0.0
 26
0.0
 36
1.0
 17
0.0
 27
0.0
 37
0.0
 40
1877.110383528965
 41
2.024813895781637
 42
50.0
 43
0.0
 44
0.0
 50
0.0
 51
0.0
 71
     0
 72
   100
 73
     1
 74
     1
 75
     0
 76
     0
 77
     0
 78
     0
281
     0
 65
     1
110
1000.0
120
1000.0
130
0.0
111
1.0
121
0.0
131
0.0
112
0.0
122
1.0
132
0.0
 79
     0
146
0.0
  0
ENDTAB
  0
TABLE
  2
LTYPE
  5
5
330
0
100
AcDbSymbolTable
 70
     2
  0
LTYPE
  5
12
330
5
100
AcDbSymbolTableRecord
100
AcDbLinetypeTableRecord
  2
BYBLOCK
 70
     0
  3

 72
    65
 73
     0
 40
0.0
  0
LTYPE
  5
13
330
5
100
AcDbSymbolTableRecord
100
AcDbLinetypeTableRecord
  2
BYLAYER
 70
     0
  3

 72
    65
 73
     0
 40
0.0
  0
LTYPE
  5
14
330
5
100
AcDbSymbolTableRecord
100
AcDbLinetypeTableRecord
  2
CONTINUOUS
 70
     0
  3
Solid line
 72
    65
 73
     0
 40
0.0
  0
LTYPE
  5
173
330
5
100
AcDbSymbolTableRecord
100
AcDbLinetypeTableRecord
  2
HIDDEN
 70
     0
  3
_ _ _ _ _ _ _ _ _ _ _ _ _ _ _ _ _ _ _ _ _ _ _
 72
    65
 73
     2
 40
0.375
 49
0.25
 74
     0
 49
-0.125
 74
     0
  0
ENDTAB
  0
TABLE
  2
LAYER
  5
2
102
{ACAD_XDICTIONARY
360
1F07
102
}
330
0
100
AcDbSymbolTable
 70
     8
  0
LAYER
  5
E
330
2
100
AcDbSymbolTableRecord
100
AcDbLayerTableRecord
  2
0
 70
     0
 62
     7
  6
CONTINUOUS
370
    -3
390
19D1
  0
LAYER
  5
176
330
2
100
AcDbSymbolTableRecord
100
AcDbLayerTableRecord
  2
ﾃｷｽﾄ
 70
     0
 62
     3
  6
CONTINUOUS
370
    -3
390
19D1
  0
LAYER
  5
177
330
2
100
AcDbSymbolTableRecord
100
AcDbLayerTableRecord
  2
ﾀｲﾄﾙ枠
 70
     0
 62
     5
  6
CONTINUOUS
370
    -3
390
19D1
  0
LAYER
  5
7B2
330
2
100
AcDbSymbolTableRecord
100
AcDbLayerTableRecord
  2
DEFPOINTS
 70
     0
 62
     7
  6
CONTINUOUS
290
     0
370
    -3
390
19D1
  0
LAYER
  5
136E
330
2
100
AcDbSymbolTableRecord
100
AcDbLayerTableRecord
  2
VEW枠1
 70
     0
 62
    -9
  6
CONTINUOUS
370
    -3
390
19D1
  0
LAYER
  5
136F
330
2
100
AcDbSymbolTableRecord
100
AcDbLayerTableRecord
  2
VEW枠2
 70
     0
 62
    -9
  6
CONTINUOUS
370
    -3
390
19D1
  0
LAYER
  5
211F
330
2
100
AcDbSymbolTableRecord
100
AcDbLayerTableRecord
  2
sunpo
 70
     0
 62
     3
  6
CONTINUOUS
370
    15
390
19D1
  0
LAYER
  5
2120
330
2
100
AcDbSymbolTableRecord
100
AcDbLayerTableRecord
  2
sen-h
 70
     0
 62
     6
  6
CONTINUOUS
370
    13
390
19D1
  0
ENDTAB
  0
TABLE
  2
STYLE
  5
3
330
0
100
AcDbSymbolTable
 70
     6
  0
STYLE
  5
F
330
3
100
AcDbSymbolTableRecord
100
AcDbTextStyleTableRecord
  2
STANDARD
 70
     0
 40
0.0
 41
1.0
 50
0.0
 71
     0
 42
25.0
  3
txt
  4

  0
STYLE
  5
179
330
3
100
AcDbSymbolTableRecord
100
AcDbTextStyleTableRecord
  2
BIGFONT
 70
     0
 40
1.0
 41
1.0
 50
0.0
 71
     0
 42
1.0
  3
txt.shx
  4
bigfont
  0
STYLE
  5
84E
330
3
100
AcDbSymbolTableRecord
100
AcDbTextStyleTableRecord
  2
TYPE1
 70
     0
 40
0.0
 41
0.7
 50
0.0
 71
     0
 42
25.0
  3
txt.shx
  4

  0
STYLE
  5
105B
330
3
100
AcDbSymbolTableRecord
100
AcDbTextStyleTableRecord
  2
MSP明朝1
 70
     0
 40
0.0
 41
0.7
 50
0.0
 71
     0
 42
5.0
  3
MS PMincho.ttf
  4

1001
ACAD
1000
MS PMincho
1071
    32786
  0
STYLE
  5
105D
330
3
100
AcDbSymbolTableRecord
100
AcDbTextStyleTableRecord
  2
MSP明朝W1
 70
     0
 40
0.0
 41
1.0
 50
0.0
 71
     0
 42
25.0
  3
MS PMincho.ttf
  4

1001
ACAD
1000
MS PMincho
1071
    32786
  0
STYLE
  5
19DC
330
3
100
AcDbSymbolTableRecord
100
AcDbTextStyleTableRecord
  2
明朝TATE
 70
     0
 40
0.0
 41
1.0
 50
0.0
 71
     0
 42
2.5
  3
@MS PMincho.ttf
  4

1001
ACAD
1000
@MS PMincho
1071
    32786
  0
ENDTAB
  0
TABLE
  2
VIEW
  5
6
330
0
100
AcDbSymbolTable
 70
     0
  0
ENDTAB
  0
TABLE
  2
UCS
  5
7
330
0
100
AcDbSymbolTable
 70
     0
  0
ENDTAB
  0
TABLE
  2
APPID
  5
9
330
0
100
AcDbSymbolTable
 70
     5
  0
APPID
  5
10
330
9
100
AcDbSymbolTableRecord
100
AcDbRegAppTableRecord
  2
ACAD
 70
     0
  0
APPID
  5
24
330
9
100
AcDbSymbolTableRecord
100
AcDbRegAppTableRecord
  2
CONTENTTABDATA
 70
     0
  0
APPID
  5
25
330
9
100
AcDbSymbolTableRecord
100
AcDbRegAppTableRecord
  2
CONTENTCURRENTTAB
 70
     0
  0
APPID
  5
17B
330
9
100
AcDbSymbolTableRecord
100
AcDbRegAppTableRecord
  2
CONTENTBLOCKDESCRIPTION
 70
     0
  0
APPID
  5
17C
330
9
100
AcDbSymbolTableRecord
100
AcDbRegAppTableRecord
  2
CONTENTBLOCKICON
 70
     0
  0
ENDTAB
  0
TABLE
  2
DIMSTYLE
  5
A
330
0
100
AcDbSymbolTable
 70
     7
100
AcDbDimStyleTable
 71
     3
340
10C0
340
2EBA
340
1D
  0
DIMSTYLE
105
1D
330
A
100
AcDbSymbolTableRecord
100
AcDbDimStyleTableRecord
  2
STANDARD
 70
     0
340
F
  0
DIMSTYLE
105
10C0
102
{ACAD_REACTORS
330
171C
330
1734
330
1429
330
142A
330
1437
330
143B
330
1D79
330
1D87
330
1DA8
330
26B2
330
1430
330
141E
330
25C0
330
25E7
330
2640
330
143F
330
286B
330
2678
330
26E0
330
1DC0
330
143E
330
266B
102
}
330
A
100
AcDbSymbolTableRecord
100
AcDbDimStyleTableRecord
  2
MSP明朝寸法1
 70
     0
 41
2.0
 42
0.0
 43
3.0
 44
0.7
 73
     0
 74
     0
 77
     1
 78
     8
140
2.5
141
1.5
143
0.0394
147
1.0
171
     4
172
     1
173
     1
176
     3
177
     3
178
     3
271
     2
272
     2
273
     8
274
     4
340
105D
341
33A
343
33A
344
33A
  0
DIMSTYLE
105
2EBA
330
A
100
AcDbSymbolTableRecord
100
AcDbDimStyleTableRecord
  2
MSP明朝寸法2_1
 70
     0
 40
0.5
 41
2.0
 42
0.0
 43
3.0
 44
0.7
 73
     0
 74
     0
 77
     1
 78
     8
140
2.5
141
1.5
143
0.0394
147
1.0
171
     4
172
     1
173
     1
176
     3
177
     3
178
     3
271
     2
272
     2
273
     8
274
     4
340
105D
341
33A
343
33A
344
33A
  0
DIMSTYLE
105
3339
330
A
100
AcDbSymbolTableRecord
100
AcDbDimStyleTableRecord
  2
MSP明朝寸6
 70
     0
 40
6.0
 41
2.5
 42
0.7
 43
3.75
 44
0.7
 73
     0
 74
     0
 77
     1
 78
     8
140
3.0
141
0.0
143
0.03937007874016
147
0.7
171
     3
172
     1
176
   256
177
   256
178
   256
271
     2
272
     2
274
     3
283
     0
284
     8
340
105D
341
33A
342
33A
371
    -1
372
    -1
  0
DIMSTYLE
105
333A
330
A
100
AcDbSymbolTableRecord
100
AcDbDimStyleTableRecord
  2
MSP明朝寸7
 70
     0
 40
7.0
 41
2.5
 42
0.7
 43
3.75
 44
0.7
 73
     0
 74
     0
 77
     1
 78
     8
140
3.0
141
0.0
143
0.03937007874016
147
0.7
171
     3
172
     1
176
   256
177
   256
178
   256
271
     2
272
     2
274
     3
283
     0
284
     8
340
105D
341
33A
342
33A
371
    -1
372
    -1
  0
DIMSTYLE
105
333B
330
A
100
AcDbSymbolTableRecord
100
AcDbDimStyleTableRecord
  2
MSP明朝寸1-5
 70
     0
 40
4.5
 41
1.0
 42
0.7
 43
3.75
 44
0.7
 73
     0
 74
     0
 77
     1
 78
     8
140
3.0
141
0.0
143
0.03937007874016
147
0.7
171
     3
172
     1
176
   256
177
   256
178
   256
271
     2
272
     2
274
     3
283
     0
284
     8
340
105D
341
33A
342
3335
371
    -1
372
    -1
  0
DIMSTYLE
105
333C
330
A
100
AcDbSymbolTableRecord
100
AcDbDimStyleTableRecord
  2
MSP明朝寸1-2
 70
     0
 40
1.8
 41
1.0
 42
0.7
 43
3.75
 44
0.7
 73
     0
 74
     0
 77
     1
 78
     8
140
3.0
141
0.0
143
0.03937007874016
147
0.7
171
     3
172
     1
176
   256
177
   256
178
   256
271
     2
272
     2
274
     3
283
     0
284
     8
340
105D
341
33A
342
3335
371
    -1
372
    -1
  0
ENDTAB
  0
TABLE
  2
BLOCK_RECORD
  5
1
330
0
100
AcDbSymbolTable
 70
    25
  0
BLOCK_RECORD
  5
18
102
{ACAD_XDICTIONARY
360
1CC6
102
}
330
1
100
AcDbSymbolTableRecord
100
AcDbBlockTableRecord
  2
*MODEL_SPACE
340
19D4
  0
BLOCK_RECORD
  5
15
102
{ACAD_XDICTIONARY
360
1CC4
102
}
330
1
100
AcDbSymbolTableRecord
100
AcDbBlockTableRecord
  2
*PAPER_SPACE
340
19D5
  0
BLOCK_RECORD
  5
33A
330
1
100
AcDbSymbolTableRecord
100
AcDbBlockTableRecord
  2
_OPEN30
340
0
102
{BLKREFS
331
3938
331
3939
331
3946
331
3947
331
3971
331
3972
331
39A1
331
39A2
331
39AC
331
39AD
331
39B5
331
39B6
331
39C5
331
39C6
331
39D0
331
39D1
331
39DB
331
39DC
331
39E4
331
39E5
331
39ED
331
39EE
331
3A03
331
3A0E
331
3A18
331
3A19
331
3A21
331
3A22
331
3B68
331
3B69
331
3B7A
331
3B7B
331
3B83
331
3B84
331
3B8C
331
3B8D
331
3B95
331
3B96
331
3BF4
331
3BF5
331
3C16
331
3C17
102
}
  0
BLOCK_RECORD
  5
1443
330
1
100
AcDbSymbolTableRecord
100
AcDbBlockTableRecord
  2
*D1
340
0
  0
BLOCK_RECORD
  5
145F
330
1
100
AcDbSymbolTableRecord
100
AcDbBlockTableRecord
  2
*D2
340
0
  0
BLOCK_RECORD
  5
146B
330
1
100
AcDbSymbolTableRecord
100
AcDbBlockTableRecord
  2
*D3
340
0
  0
BLOCK_RECORD
  5
14AB
330
1
100
AcDbSymbolTableRecord
100
AcDbBlockTableRecord
  2
*D4
340
0
  0
BLOCK_RECORD
  5
14E1
330
1
100
AcDbSymbolTableRecord
100
AcDbBlockTableRecord
  2
*D5
340
0
  0
BLOCK_RECORD
  5
1511
330
1
100
AcDbSymbolTableRecord
100
AcDbBlockTableRecord
  2
*D6
340
0
  0
BLOCK_RECORD
  5
1531
330
1
100
AcDbSymbolTableRecord
100
AcDbBlockTableRecord
  2
*D7
340
0
  0
BLOCK_RECORD
  5
153D
330
1
100
AcDbSymbolTableRecord
100
AcDbBlockTableRecord
  2
*D8
340
0
  0
BLOCK_RECORD
  5
1710
330
1
100
AcDbSymbolTableRecord
100
AcDbBlockTableRecord
  2
*D9
340
0
  0
BLOCK_RECORD
  5
1728
330
1
100
AcDbSymbolTableRecord
100
AcDbBlockTableRecord
  2
*D10
340
0
  0
BLOCK_RECORD
  5
1D7A
330
1
100
AcDbSymbolTableRecord
100
AcDbBlockTableRecord
  2
*D11
340
0
  0
BLOCK_RECORD
  5
1D88
330
1
100
AcDbSymbolTableRecord
100
AcDbBlockTableRecord
  2
*D12
340
0
  0
BLOCK_RECORD
  5
1DA9
330
1
100
AcDbSymbolTableRecord
100
AcDbBlockTableRecord
  2
*D13
340
0
  0
BLOCK_RECORD
  5
1DC1
330
1
100
AcDbSymbolTableRecord
100
AcDbBlockTableRecord
  2
*D14
340
0
  0
BLOCK_RECORD
  5
1E11
330
1
100
AcDbSymbolTableRecord
100
AcDbBlockTableRecord
  2
_DotSmall
340
0
102
{BLKREFS
331
3A02
331
3A0D
102
}
  0
BLOCK_RECORD
  5
25C1
330
1
100
AcDbSymbolTableRecord
100
AcDbBlockTableRecord
  2
*D16
340
0
  0
BLOCK_RECORD
  5
25E8
330
1
100
AcDbSymbolTableRecord
100
AcDbBlockTableRecord
  2
*D17
340
0
  0
BLOCK_RECORD
  5
2641
330
1
100
AcDbSymbolTableRecord
100
AcDbBlockTableRecord
  2
*D18
340
0
  0
BLOCK_RECORD
  5
266C
330
1
100
AcDbSymbolTableRecord
100
AcDbBlockTableRecord
  2
*D19
340
0
  0
BLOCK_RECORD
  5
2679
330
1
100
AcDbSymbolTableRecord
100
AcDbBlockTableRecord
  2
*D20
340
0
  0
BLOCK_RECORD
  5
26B3
330
1
100
AcDbSymbolTableRecord
100
AcDbBlockTableRecord
  2
*D21
340
0
  0
BLOCK_RECORD
  5
26E1
330
1
100
AcDbSymbolTableRecord
100
AcDbBlockTableRecord
  2
*D22
340
0
  0
BLOCK_RECORD
  5
286C
330
1
100
AcDbSymbolTableRecord
100
AcDbBlockTableRecord
  2
*D23
340
0
  0
BLOCK_RECORD
  5
3335
330
1
100
AcDbSymbolTableRecord
100
AcDbBlockTableRecord
  2
VW_FILLEDARROW
340
0
  0
ENDTAB
  0
ENDSEC
  0
SECTION
  2
BLOCKS
  0
BLOCK
  5
19
330
18
100
AcDbEntity
  8
0
100
AcDbBlockBegin
  2
*MODEL_SPACE
 70
     0
 10
0.0
 20
0.0
 30
0.0
  3
*MODEL_SPACE
  1

  0
ENDBLK
  5
1A
330
18
100
AcDbEntity
  8
0
100
AcDbBlockEnd
  0
BLOCK
  5
16
330
15
100
AcDbEntity
 67
     1
  8
0
100
AcDbBlockBegin
  2
*PAPER_SPACE
 70
     0
 10
0.0
 20
0.0
 30
0.0
  3
*PAPER_SPACE
  1

  0
ENDBLK
  5
17
330
15
100
AcDbEntity
 67
     1
  8
0
100
AcDbBlockEnd
  0
BLOCK
  5
33B
330
33A
100
AcDbEntity
  8
0
100
AcDbBlockBegin
  2
_OPEN30
 70
     0
 10
0.0
 20
0.0
 30
0.0
  3
_OPEN30
  1

  0
LINE
  5
33C
330
33A
100
AcDbEntity
  8
0
  6
ByBlock
 62
     0
100
AcDbLine
 10
-1.0
 20
0.26794919
 30
0.0
 11
0.0
 21
0.0
 31
0.0
  0
LINE
  5
33D
330
33A
100
AcDbEntity
  8
0
  6
ByBlock
 62
     0
100
AcDbLine
 10
0.0
 20
0.0
 30
0.0
 11
-1.0
 21
-0.26794919
 31
0.0
  0
LINE
  5
33E
330
33A
100
AcDbEntity
  8
0
  6
ByBlock
 62
     0
100
AcDbLine
 10
0.0
 20
0.0
 30
0.0
 11
-1.0
 21
0.0
 31
0.0
  0
ENDBLK
  5
33F
330
33A
100
AcDbEntity
  8
0
100
AcDbBlockEnd
  0
BLOCK
  5
17D0
330
1443
100
AcDbEntity
  8
0
100
AcDbBlockBegin
  2
*D1
 70
     1
 10
0.0
 20
0.0
 30
0.0
  3
*D1
  1

  0
LINE
  5
39B2
330
1443
100
AcDbEntity
  8
sunpo
 62
     3
370
    -2
100
AcDbLine
 10
2260.444416080748
 20
2094.358092018519
 30
0.0
 11
2260.444416080748
 21
2108.21646078925
 31
0.0
  0
LINE
  5
39B3
330
1443
100
AcDbEntity
  8
sunpo
 62
     3
370
    -2
100
AcDbLine
 10
2268.444416080748
 20
2096.565198799706
 30
0.0
 11
2268.444416080748
 21
2108.21646078925
 31
0.0
  0
LINE
  5
39B4
330
1443
100
AcDbEntity
  8
sunpo
 62
     3
370
    -2
100
AcDbLine
 10
2262.444416080748
 20
2107.51646078925
 30
0.0
 11
2266.444416080748
 21
2107.51646078925
 31
0.0
  0
INSERT
  5
39B5
330
1443
100
AcDbEntity
  8
sunpo
 62
     3
370
    -2
100
AcDbBlockReference
  2
_OPEN30
 10
2260.444416080748
 20
2107.51646078925
 30
0.0
 41
2.0
 42
2.0
 43
2.0
 50
180.0
  0
INSERT
  5
39B6
330
1443
100
AcDbEntity
  8
sunpo
 62
     3
370
    -2
100
AcDbBlockReference
  2
_OPEN30
 10
2268.444416080748
 20
2107.51646078925
 30
0.0
 41
2.0
 42
2.0
 43
2.0
  0
MTEXT
  5
39B7
330
1443
100
AcDbEntity
  8
sunpo
 62
     3
100
AcDbMText
 10
2264.444416080748
 20
2109.76646078925
 30
0.0
 40
2.5
 41
0.0
 71
     5
 72
     1
  1
\A1;8
  7
MSP明朝W1
 73
     1
 44
1.0
  0
POINT
  5
39B8
330
1443
100
AcDbEntity
  8
DEFPOINTS
 62
     0
100
AcDbPoint
 10
2260.444416080748
 20
2094.358092018519
 30
0.0
  0
POINT
  5
39B9
330
1443
100
AcDbEntity
  8
DEFPOINTS
 62
     0
100
AcDbPoint
 10
2268.444416080748
 20
2096.565198799706
 30
0.0
  0
POINT
  5
39BA
330
1443
100
AcDbEntity
  8
DEFPOINTS
 62
     0
100
AcDbPoint
 10
2268.444416080748
 20
2107.51646078925
 30
0.0
  0
ENDBLK
  5
17DA
330
1443
100
AcDbEntity
  8
0
100
AcDbBlockEnd
  0
BLOCK
  5
1774
330
145F
100
AcDbEntity
  8
0
100
AcDbBlockBegin
  2
*D2
 70
     1
 10
0.0
 20
0.0
 30
0.0
  3
*D2
  1

  0
LINE
  5
3A1E
330
145F
100
AcDbEntity
  8
sunpo
 62
     3
370
    -2
100
AcDbLine
 10
2555.444416080748
 20
2124.565198799706
 30
0.0
 11
2555.444416080748
 21
2142.862615010512
 31
0.0
  0
LINE
  5
3A1F
330
145F
100
AcDbEntity
  8
sunpo
 62
     3
370
    -2
100
AcDbLine
 10
2543.444416080749
 20
2124.565198799706
 30
0.0
 11
2543.444416080749
 21
2142.862615010512
 31
0.0
  0
LINE
  5
3A20
330
145F
100
AcDbEntity
  8
sunpo
 62
     3
370
    -2
100
AcDbLine
 10
2553.444416080748
 20
2142.162615010512
 30
0.0
 11
2545.444416080749
 21
2142.162615010512
 31
0.0
  0
INSERT
  5
3A21
330
145F
100
AcDbEntity
  8
sunpo
 62
     3
370
    -2
100
AcDbBlockReference
  2
_OPEN30
 10
2555.444416080748
 20
2142.162615010512
 30
0.0
 41
2.0
 42
2.0
 43
2.0
  0
INSERT
  5
3A22
330
145F
100
AcDbEntity
  8
sunpo
 62
     3
370
    -2
100
AcDbBlockReference
  2
_OPEN30
 10
2543.444416080749
 20
2142.162615010512
 30
0.0
 41
2.0
 42
2.0
 43
2.0
 50
180.0
  0
MTEXT
  5
3A23
330
145F
100
AcDbEntity
  8
sunpo
 62
     3
100
AcDbMText
 10
2549.444416080749
 20
2144.412615010512
 30
0.0
 40
2.5
 41
0.0
 71
     5
 72
     1
  1
\A1;12
  7
MSP明朝W1
 73
     1
 44
1.0
  0
POINT
  5
3A24
330
145F
100
AcDbEntity
  8
DEFPOINTS
 62
     0
100
AcDbPoint
 10
2555.444416080748
 20
2124.565198799706
 30
0.0
  0
POINT
  5
3A25
330
145F
100
AcDbEntity
  8
DEFPOINTS
 62
     0
100
AcDbPoint
 10
2543.444416080749
 20
2124.565198799706
 30
0.0
  0
POINT
  5
3A26
330
145F
100
AcDbEntity
  8
DEFPOINTS
 62
     0
100
AcDbPoint
 10
2543.444416080749
 20
2142.162615010512
 30
0.0
  0
ENDBLK
  5
177E
330
145F
100
AcDbEntity
  8
0
100
AcDbBlockEnd
  0
BLOCK
  5
17A4
330
146B
100
AcDbEntity
  8
0
100
AcDbBlockBegin
  2
*D3
 70
     1
 10
0.0
 20
0.0
 30
0.0
  3
*D3
  1

  0
LINE
  5
39E1
330
146B
100
AcDbEntity
  8
sunpo
 62
     3
370
    -2
100
AcDbLine
 10
2543.559743803949
 20
2124.565198799706
 30
0.0
 11
2514.075608242329
 21
2124.565198799706
 31
0.0
  0
LINE
  5
39E2
330
146B
100
AcDbEntity
  8
sunpo
 62
     3
370
    -2
100
AcDbLine
 10
2514.775608242328
 20
2094.565198799706
 30
0.0
 11
2514.075608242329
 21
2094.565198799706
 31
0.0
  0
LINE
  5
39E3
330
146B
100
AcDbEntity
  8
sunpo
 62
     3
370
    -2
100
AcDbLine
 10
2514.775608242328
 20
2122.565198799706
 30
0.0
 11
2514.775608242328
 21
2096.565198799706
 31
0.0
  0
INSERT
  5
39E4
330
146B
100
AcDbEntity
  8
sunpo
 62
     3
370
    -2
100
AcDbBlockReference
  2
_OPEN30
 10
2514.775608242328
 20
2124.565198799706
 30
0.0
 41
2.0
 42
2.0
 43
2.0
 50
90.0
  0
INSERT
  5
39E5
330
146B
100
AcDbEntity
  8
sunpo
 62
     3
370
    -2
100
AcDbBlockReference
  2
_OPEN30
 10
2514.775608242328
 20
2094.565198799706
 30
0.0
 41
2.0
 42
2.0
 43
2.0
 50
270.0
  0
MTEXT
  5
39E6
330
146B
100
AcDbEntity
  8
sunpo
 62
     3
100
AcDbMText
 10
2512.525608242328
 20
2109.565198799706
 30
0.0
 40
2.5
 41
0.0
 71
     5
 72
     1
  1
\A1;30
  7
MSP明朝W1
 11
0.0000000000000001
 21
1.0
 31
0.0
 73
     1
 44
1.0
  0
POINT
  5
39E7
330
146B
100
AcDbEntity
  8
DEFPOINTS
 62
     0
100
AcDbPoint
 10
2543.559743803949
 20
2124.565198799706
 30
0.0
  0
POINT
  5
39E8
330
146B
100
AcDbEntity
  8
DEFPOINTS
 62
     0
100
AcDbPoint
 10
2514.775608242328
 20
2094.565198799706
 30
0.0
  0
POINT
  5
39E9
330
146B
100
AcDbEntity
  8
DEFPOINTS
 62
     0
100
AcDbPoint
 10
2514.775608242328
 20
2094.565198799706
 30
0.0
  0
ENDBLK
  5
17AE
330
146B
100
AcDbEntity
  8
0
100
AcDbBlockEnd
  0
BLOCK
  5
17DB
330
14AB
100
AcDbEntity
  8
0
100
AcDbBlockBegin
  2
*D4
 70
     1
 10
0.0
 20
0.0
 30
0.0
  3
*D4
  1

  0
LINE
  5
39C0
330
14AB
100
AcDbEntity
  8
sunpo
 62
     3
370
    -2
100
AcDbLine
 10
2268.444416080748
 20
2096.565198799706
 30
0.0
 11
2300.261678011616
 21
2096.565198799706
 31
0.0
  0
LINE
  5
39C1
330
14AB
100
AcDbEntity
  8
sunpo
 62
     3
370
    -2
100
AcDbLine
 10
2292.456754923957
 20
2094.565198799706
 30
0.0
 11
2300.261678011616
 21
2094.565198799706
 31
0.0
  0
LINE
  5
39C2
330
14AB
100
AcDbEntity
  8
sunpo
 62
     3
370
    -2
100
AcDbLine
 10
2299.561678011616
 20
2092.565198799706
 30
0.0
 11
2299.561678011616
 21
2090.565198799706
 31
0.0
  0
LINE
  5
39C3
330
14AB
100
AcDbEntity
  8
sunpo
 62
     3
370
    -2
100
AcDbLine
 10
2299.561678011616
 20
2098.565198799706
 30
0.0
 11
2299.561678011616
 21
2103.955648237908
 31
0.0
  0
LINE
  5
39C4
330
14AB
100
AcDbEntity
  8
sunpo
 62
     3
370
    -2
100
AcDbLine
 10
2299.561678011616
 20
2094.565198799706
 30
0.0
 11
2299.561678011616
 21
2096.565198799706
 31
0.0
  0
INSERT
  5
39C5
330
14AB
100
AcDbEntity
  8
sunpo
 62
     3
370
    -2
100
AcDbBlockReference
  2
_OPEN30
 10
2299.561678011616
 20
2094.565198799706
 30
0.0
 41
2.0
 42
2.0
 43
2.0
 50
90.0
  0
INSERT
  5
39C6
330
14AB
100
AcDbEntity
  8
sunpo
 62
     3
370
    -2
100
AcDbBlockReference
  2
_OPEN30
 10
2299.561678011616
 20
2096.565198799706
 30
0.0
 41
2.0
 42
2.0
 43
2.0
 50
270.0
  0
MTEXT
  5
39C7
330
14AB
100
AcDbEntity
  8
sunpo
 62
     3
100
AcDbMText
 10
2297.311678011615
 20
2102.260423518808
 30
0.0
 40
2.5
 41
0.0
 71
     5
 72
     1
  1
\A1;2
  7
MSP明朝W1
 11
0.0000000000000001
 21
1.0
 31
0.0
 73
     1
 44
1.0
  0
POINT
  5
39C8
330
14AB
100
AcDbEntity
  8
DEFPOINTS
 62
     0
100
AcDbPoint
 10
2268.444416080748
 20
2096.565198799706
 30
0.0
  0
POINT
  5
39C9
330
14AB
100
AcDbEntity
  8
DEFPOINTS
 62
     0
100
AcDbPoint
 10
2292.456754923957
 20
2094.565198799706
 30
0.0
  0
POINT
  5
39CA
330
14AB
100
AcDbEntity
  8
DEFPOINTS
 62
     0
100
AcDbPoint
 10
2299.561678011616
 20
2094.565198799706
 30
0.0
  0
ENDBLK
  5
17E7
330
14AB
100
AcDbEntity
  8
0
100
AcDbBlockEnd
  0
BLOCK
  5
1740
330
14E1
100
AcDbEntity
  8
0
100
AcDbBlockBegin
  2
*D5
 70
     1
 10
0.0
 20
0.0
 30
0.0
  3
*D5
  1

  0
LINE
  5
3A13
330
14E1
100
AcDbEntity
  8
sunpo
 62
     3
370
    -2
100
AcDbLine
 10
2555.444416080748
 20
2115.565198799706
 30
0.0
 11
2555.444416080748
 21
2105.218865592229
 31
0.0
  0
LINE
  5
3A14
330
14E1
100
AcDbEntity
  8
sunpo
 62
     3
370
    -2
100
AcDbLine
 10
2549.444416080749
 20
2109.565198799706
 30
0.0
 11
2549.444416080749
 21
2105.218865592229
 31
0.0
  0
LINE
  5
3A15
330
14E1
100
AcDbEntity
  8
sunpo
 62
     3
370
    -2
100
AcDbLine
 10
2557.444416080748
 20
2105.918865592229
 30
0.0
 11
2559.444416080748
 21
2105.918865592229
 31
0.0
  0
LINE
  5
3A16
330
14E1
100
AcDbEntity
  8
sunpo
 62
     3
370
    -2
100
AcDbLine
 10
2547.444416080749
 20
2105.918865592229
 30
0.0
 11
2545.444416080749
 21
2105.918865592229
 31
0.0
  0
LINE
  5
3A17
330
14E1
100
AcDbEntity
  8
sunpo
 62
     3
370
    -2
100
AcDbLine
 10
2555.444416080748
 20
2105.918865592229
 30
0.0
 11
2549.444416080749
 21
2105.918865592229
 31
0.0
  0
INSERT
  5
3A18
330
14E1
100
AcDbEntity
  8
sunpo
 62
     3
370
    -2
100
AcDbBlockReference
  2
_OPEN30
 10
2555.444416080748
 20
2105.918865592229
 30
0.0
 41
2.0
 42
2.0
 43
2.0
 50
180.0
  0
INSERT
  5
3A19
330
14E1
100
AcDbEntity
  8
sunpo
 62
     3
370
    -2
100
AcDbBlockReference
  2
_OPEN30
 10
2549.444416080749
 20
2105.918865592229
 30
0.0
 41
2.0
 42
2.0
 43
2.0
  0
MTEXT
  5
3A1A
330
14E1
100
AcDbEntity
  8
sunpo
 62
     3
100
AcDbMText
 10
2552.444416080749
 20
2108.168865592229
 30
0.0
 40
2.5
 41
0.0
 71
     5
 72
     1
  1
\A1;6
  7
MSP明朝W1
 73
     1
 44
1.0
  0
POINT
  5
3A1B
330
14E1
100
AcDbEntity
  8
DEFPOINTS
 62
     0
100
AcDbPoint
 10
2555.444416080748
 20
2115.565198799706
 30
0.0
  0
POINT
  5
3A1C
330
14E1
100
AcDbEntity
  8
DEFPOINTS
 62
     0
100
AcDbPoint
 10
2549.444416080749
 20
2109.565198799706
 30
0.0
  0
POINT
  5
3A1D
330
14E1
100
AcDbEntity
  8
DEFPOINTS
 62
     0
100
AcDbPoint
 10
2549.444416080749
 20
2105.918865592229
 30
0.0
  0
ENDBLK
  5
174A
330
14E1
100
AcDbEntity
  8
0
100
AcDbBlockEnd
  0
BLOCK
  5
1735
330
1511
100
AcDbEntity
  8
0
100
AcDbBlockBegin
  2
*D6
 70
     1
 10
0.0
 20
0.0
 30
0.0
  3
*D6
  1

  0
LINE
  5
3B89
330
1511
100
AcDbEntity
  8
sunpo
 62
     3
370
    -2
100
AcDbLine
 10
2555.444416080748
 20
2124.565198799706
 30
0.0
 11
2582.144416080748
 21
2124.565198799706
 31
0.0
  0
LINE
  5
3B8A
330
1511
100
AcDbEntity
  8
sunpo
 62
     3
370
    -2
100
AcDbLine
 10
2265.444416080748
 20
2054.565198799706
 30
0.0
 11
2582.144416080748
 21
2054.565198799706
 31
0.0
  0
LINE
  5
3B8B
330
1511
100
AcDbEntity
  8
sunpo
 62
     3
370
    -2
100
AcDbLine
 10
2581.444416080748
 20
2122.565198799706
 30
0.0
 11
2581.444416080748
 21
2056.565198799706
 31
0.0
  0
INSERT
  5
3B8C
330
1511
100
AcDbEntity
  8
sunpo
 62
     3
370
    -2
100
AcDbBlockReference
  2
_OPEN30
 10
2581.444416080748
 20
2124.565198799706
 30
0.0
 41
2.0
 42
2.0
 43
2.0
 50
90.0
  0
INSERT
  5
3B8D
330
1511
100
AcDbEntity
  8
sunpo
 62
     3
370
    -2
100
AcDbBlockReference
  2
_OPEN30
 10
2581.444416080748
 20
2054.565198799706
 30
0.0
 41
2.0
 42
2.0
 43
2.0
 50
270.0
  0
MTEXT
  5
3B8E
330
1511
100
AcDbEntity
  8
sunpo
 62
     3
100
AcDbMText
 10
2579.194416080747
 20
2089.565198799706
 30
0.0
 40
2.5
 41
0.0
 71
     5
 72
     1
  1
\A1;70
  7
MSP明朝W1
 11
0.0000000000000001
 21
1.0
 31
0.0
 73
     1
 44
1.0
  0
POINT
  5
3B8F
330
1511
100
AcDbEntity
  8
DEFPOINTS
 62
     0
100
AcDbPoint
 10
2555.444416080748
 20
2124.565198799706
 30
0.0
  0
POINT
  5
3B90
330
1511
100
AcDbEntity
  8
DEFPOINTS
 62
     0
100
AcDbPoint
 10
2265.444416080748
 20
2054.565198799706
 30
0.0
  0
POINT
  5
3B91
330
1511
100
AcDbEntity
  8
DEFPOINTS
 62
     0
100
AcDbPoint
 10
2581.444416080748
 20
2054.565198799706
 30
0.0
  0
ENDBLK
  5
173F
330
1511
100
AcDbEntity
  8
0
100
AcDbBlockEnd
  0
BLOCK
  5
178E
330
1531
100
AcDbEntity
  8
0
100
AcDbBlockBegin
  2
*D7
 70
     1
 10
0.0
 20
0.0
 30
0.0
  3
*D7
  1

  0
LINE
  5
3B80
330
1531
100
AcDbEntity
  8
sunpo
 62
     3
370
    -2
100
AcDbLine
 10
2260.444416080748
 20
2054.565198799706
 30
0.0
 11
2260.444416080748
 21
2035.786817898503
 31
0.0
  0
LINE
  5
3B81
330
1531
100
AcDbEntity
  8
sunpo
 62
     3
370
    -2
100
AcDbLine
 10
2555.444416080748
 20
2118.565198799706
 30
0.0
 11
2555.444416080748
 21
2035.786817898503
 31
0.0
  0
LINE
  5
3B82
330
1531
100
AcDbEntity
  8
sunpo
 62
     3
370
    -2
100
AcDbLine
 10
2262.444416080748
 20
2036.486817898503
 30
0.0
 11
2553.444416080748
 21
2036.486817898503
 31
0.0
  0
INSERT
  5
3B83
330
1531
100
AcDbEntity
  8
sunpo
 62
     3
370
    -2
100
AcDbBlockReference
  2
_OPEN30
 10
2260.444416080748
 20
2036.486817898503
 30
0.0
 41
2.0
 42
2.0
 43
2.0
 50
180.0
  0
INSERT
  5
3B84
330
1531
100
AcDbEntity
  8
sunpo
 62
     3
370
    -2
100
AcDbBlockReference
  2
_OPEN30
 10
2555.444416080748
 20
2036.486817898503
 30
0.0
 41
2.0
 42
2.0
 43
2.0
  0
MTEXT
  5
3B85
330
1531
100
AcDbEntity
  8
sunpo
 62
     3
100
AcDbMText
 10
2407.944416080748
 20
2038.736817898503
 30
0.0
 40
2.5
 41
0.0
 71
     5
 72
     1
  1
\A1;650
  7
MSP明朝W1
 73
     1
 44
1.0
  0
POINT
  5
3B86
330
1531
100
AcDbEntity
  8
DEFPOINTS
 62
     0
100
AcDbPoint
 10
2260.444416080748
 20
2054.565198799706
 30
0.0
  0
POINT
  5
3B87
330
1531
100
AcDbEntity
  8
DEFPOINTS
 62
     0
100
AcDbPoint
 10
2555.444416080748
 20
2118.565198799706
 30
0.0
  0
POINT
  5
3B88
330
1531
100
AcDbEntity
  8
DEFPOINTS
 62
     0
100
AcDbPoint
 10
2555.444416080748
 20
2036.486817898503
 30
0.0
  0
ENDBLK
  5
1798
330
1531
100
AcDbEntity
  8
0
100
AcDbBlockEnd
  0
BLOCK
  5
1810
330
153D
100
AcDbEntity
  8
0
100
AcDbBlockBegin
  2
*D8
 70
     1
 10
0.0
 20
0.0
 30
0.0
  3
*D8
  1

  0
LINE
  5
3B77
330
153D
100
AcDbEntity
  8
sunpo
 62
     3
370
    -2
100
AcDbLine
 10
2262.651522861934
 20
2096.565198799706
 30
0.0
 11
2245.446846996306
 21
2096.565198799706
 31
0.0
  0
LINE
  5
3B78
330
153D
100
AcDbEntity
  8
sunpo
 62
     3
370
    -2
100
AcDbLine
 10
2260.444416080748
 20
2054.565198799706
 30
0.0
 11
2245.446846996306
 21
2054.565198799706
 31
0.0
  0
LINE
  5
3B79
330
153D
100
AcDbEntity
  8
sunpo
 62
     3
370
    -2
100
AcDbLine
 10
2246.146846996306
 20
2094.565198799706
 30
0.0
 11
2246.146846996306
 21
2056.565198799706
 31
0.0
  0
INSERT
  5
3B7A
330
153D
100
AcDbEntity
  8
sunpo
 62
     3
370
    -2
100
AcDbBlockReference
  2
_OPEN30
 10
2246.146846996306
 20
2096.565198799706
 30
0.0
 41
2.0
 42
2.0
 43
2.0
 50
90.0
  0
INSERT
  5
3B7B
330
153D
100
AcDbEntity
  8
sunpo
 62
     3
370
    -2
100
AcDbBlockReference
  2
_OPEN30
 10
2246.146846996306
 20
2054.565198799706
 30
0.0
 41
2.0
 42
2.0
 43
2.0
 50
270.0
  0
MTEXT
  5
3B7C
330
153D
100
AcDbEntity
  8
sunpo
 62
     3
100
AcDbMText
 10
2243.896846996306
 20
2075.565198799706
 30
0.0
 40
2.5
 41
0.0
 71
     5
 72
     1
  1
\A1;42
  7
MSP明朝W1
 11
0.0000000000000001
 21
1.0
 31
0.0
 73
     1
 44
1.0
  0
POINT
  5
3B7D
330
153D
100
AcDbEntity
  8
DEFPOINTS
 62
     0
100
AcDbPoint
 10
2262.651522861934
 20
2096.565198799706
 30
0.0
  0
POINT
  5
3B7E
330
153D
100
AcDbEntity
  8
DEFPOINTS
 62
     0
100
AcDbPoint
 10
2260.444416080748
 20
2054.565198799706
 30
0.0
  0
POINT
  5
3B7F
330
153D
100
AcDbEntity
  8
DEFPOINTS
 62
     0
100
AcDbPoint
 10
2246.146846996306
 20
2054.565198799706
 30
0.0
  0
ENDBLK
  5
181A
330
153D
100
AcDbEntity
  8
0
100
AcDbBlockEnd
  0
BLOCK
  5
171D
330
1710
100
AcDbEntity
  8
0
100
AcDbBlockBegin
  2
*D9
 70
     1
 10
0.0
 20
0.0
 30
0.0
  3
*D9
  1

  0
LINE
  5
3BF1
330
1710
100
AcDbEntity
  8
sunpo
 62
     3
370
    -2
100
AcDbLine
 10
1440.997031746142
 20
2927.383094469913
 30
0.0
 11
1440.997031746142
 21
2770.383094469913
 31
0.0
  0
LINE
  5
3BF2
330
1710
100
AcDbEntity
  8
sunpo
 62
     3
370
    -2
100
AcDbLine
 10
4240.997031746142
 20
2927.383094469913
 30
0.0
 11
4240.997031746142
 21
2770.383094469913
 31
0.0
  0
LINE
  5
3BF3
330
1710
100
AcDbEntity
  8
sunpo
 62
     3
370
    -2
100
AcDbLine
 10
1460.997031746142
 20
2777.383094469913
 30
0.0
 11
4220.997031746142
 21
2777.383094469913
 31
0.0
  0
INSERT
  5
3BF4
330
1710
100
AcDbEntity
  8
sunpo
 62
     3
370
    -2
100
AcDbBlockReference
  2
_OPEN30
 10
1440.997031746142
 20
2777.383094469913
 30
0.0
 41
20.0
 42
20.0
 43
20.0
 50
180.0
  0
INSERT
  5
3BF5
330
1710
100
AcDbEntity
  8
sunpo
 62
     3
370
    -2
100
AcDbBlockReference
  2
_OPEN30
 10
4240.997031746142
 20
2777.383094469913
 30
0.0
 41
20.0
 42
20.0
 43
20.0
  0
MTEXT
  5
3BF6
330
1710
100
AcDbEntity
  8
sunpo
 62
     3
100
AcDbMText
 10
2840.997031746142
 20
2799.883094469914
 30
0.0
 40
25.0
 41
0.0
 71
     5
 72
     1
  1
\A1;3600
  7
MSP明朝W1
 73
     1
 44
1.0
  0
POINT
  5
3BF7
330
1710
100
AcDbEntity
  8
DEFPOINTS
 62
     0
100
AcDbPoint
 10
1440.997031746142
 20
2927.383094469913
 30
0.0
  0
POINT
  5
3BF8
330
1710
100
AcDbEntity
  8
DEFPOINTS
 62
     0
100
AcDbPoint
 10
4240.997031746142
 20
2927.383094469913
 30
0.0
  0
POINT
  5
3BF9
330
1710
100
AcDbEntity
  8
DEFPOINTS
 62
     0
100
AcDbPoint
 10
4240.997031746142
 20
2777.383094469913
 30
0.0
  0
ENDBLK
  5
1727
330
1710
100
AcDbEntity
  8
0
100
AcDbBlockEnd
  0
BLOCK
  5
1729
330
1728
100
AcDbEntity
  8
0
100
AcDbBlockBegin
  2
*D10
 70
     1
 10
0.0
 20
0.0
 30
0.0
  3
*D10
  1

  0
LINE
  5
3935
330
1728
100
AcDbEntity
  8
sunpo
 62
     3
370
    -2
100
AcDbLine
 10
1440.997031746142
 20
3577.383094469913
 30
0.0
 11
1353.997031746142
 21
3577.383094469913
 31
0.0
  0
LINE
  5
3936
330
1728
100
AcDbEntity
  8
sunpo
 62
     3
370
    -2
100
AcDbLine
 10
1440.997031746142
 20
2927.383094469913
 30
0.0
 11
1353.997031746142
 21
2927.383094469913
 31
0.0
  0
LINE
  5
3937
330
1728
100
AcDbEntity
  8
sunpo
 62
     3
370
    -2
100
AcDbLine
 10
1360.997031746142
 20
3557.383094469913
 30
0.0
 11
1360.997031746142
 21
2947.383094469913
 31
0.0
  0
INSERT
  5
3938
330
1728
100
AcDbEntity
  8
sunpo
 62
     3
370
    -2
100
AcDbBlockReference
  2
_OPEN30
 10
1360.997031746142
 20
3577.383094469913
 30
0.0
 41
20.0
 42
20.0
 43
20.0
 50
90.0
  0
INSERT
  5
3939
330
1728
100
AcDbEntity
  8
sunpo
 62
     3
370
    -2
100
AcDbBlockReference
  2
_OPEN30
 10
1360.997031746142
 20
2927.383094469913
 30
0.0
 41
20.0
 42
20.0
 43
20.0
 50
270.0
  0
MTEXT
  5
393A
330
1728
100
AcDbEntity
  8
sunpo
 62
     3
100
AcDbMText
 10
1338.497031746141
 20
3252.383094469914
 30
0.0
 40
25.0
 41
0.0
 71
     5
 72
     1
  1
\A1;650
  7
MSP明朝W1
 11
0.0000000000000001
 21
1.0
 31
0.0
 73
     1
 44
1.0
  0
POINT
  5
393B
330
1728
100
AcDbEntity
  8
DEFPOINTS
 62
     0
100
AcDbPoint
 10
1440.997031746142
 20
3577.383094469913
 30
0.0
  0
POINT
  5
393C
330
1728
100
AcDbEntity
  8
DEFPOINTS
 62
     0
100
AcDbPoint
 10
1440.997031746142
 20
2927.383094469913
 30
0.0
  0
POINT
  5
393D
330
1728
100
AcDbEntity
  8
DEFPOINTS
 62
     0
100
AcDbPoint
 10
1360.997031746142
 20
2927.383094469913
 30
0.0
  0
ENDBLK
  5
1733
330
1728
100
AcDbEntity
  8
0
100
AcDbBlockEnd
  0
BLOCK
  5
1D85
330
1D7A
100
AcDbEntity
  8
0
100
AcDbBlockBegin
  2
*D11
 70
     1
 10
0.0
 20
0.0
 30
0.0
  3
*D11
  1

  0
LINE
  5
3A08
330
1D7A
100
AcDbEntity
  8
sunpo
 62
     3
370
    -2
100
AcDbLine
 10
2543.444416080749
 20
2124.565198799706
 30
0.0
 11
2543.444416080749
 21
2136.787233099693
 31
0.0
  0
LINE
  5
3A09
330
1D7A
100
AcDbEntity
  8
sunpo
 62
     3
370
    -2
100
AcDbLine
 10
2545.444416080749
 20
2124.565198799706
 30
0.0
 11
2545.444416080749
 21
2136.787233099693
 31
0.0
  0
LINE
  5
3A0A
330
1D7A
100
AcDbEntity
  8
sunpo
 62
     3
370
    -2
100
AcDbLine
 10
2543.444416080749
 20
2136.087233099694
 30
0.0
 11
2541.444416080748
 21
2136.087233099694
 31
0.0
  0
LINE
  5
3A0B
330
1D7A
100
AcDbEntity
  8
sunpo
 62
     3
370
    -2
100
AcDbLine
 10
2547.444416080749
 20
2136.087233099694
 30
0.0
 11
2549.444416080749
 21
2136.087233099694
 31
0.0
  0
LINE
  5
3A0C
330
1D7A
100
AcDbEntity
  8
sunpo
 62
     3
370
    -2
100
AcDbLine
 10
2543.444416080749
 20
2136.087233099694
 30
0.0
 11
2545.444416080749
 21
2136.087233099694
 31
0.0
  0
INSERT
  5
3A0D
330
1D7A
100
AcDbEntity
  8
sunpo
 62
     3
370
    -2
100
AcDbBlockReference
  2
_DotSmall
 10
2543.444416080749
 20
2136.087233099694
 30
0.0
 41
2.0
 42
2.0
 43
2.0
  0
INSERT
  5
3A0E
330
1D7A
100
AcDbEntity
  8
sunpo
 62
     3
370
    -2
100
AcDbBlockReference
  2
_OPEN30
 10
2545.444416080749
 20
2136.087233099694
 30
0.0
 41
2.0
 42
2.0
 43
2.0
 50
180.0
  0
MTEXT
  5
3A0F
330
1D7A
100
AcDbEntity
  8
sunpo
 62
     3
100
AcDbMText
 10
2544.444416080748
 20
2138.337233099694
 30
0.0
 40
2.5
 41
0.0
 71
     5
 72
     1
  1
\A1;2
  7
MSP明朝W1
 73
     1
 44
1.0
  0
POINT
  5
3A10
330
1D7A
100
AcDbEntity
  8
DEFPOINTS
 62
     0
100
AcDbPoint
 10
2543.444416080749
 20
2124.565198799706
 30
0.0
  0
POINT
  5
3A11
330
1D7A
100
AcDbEntity
  8
DEFPOINTS
 62
     0
100
AcDbPoint
 10
2545.444416080749
 20
2124.565198799706
 30
0.0
  0
POINT
  5
3A12
330
1D7A
100
AcDbEntity
  8
DEFPOINTS
 62
     0
100
AcDbPoint
 10
2545.444416080749
 20
2136.087233099694
 30
0.0
  0
ENDBLK
  5
1D86
330
1D7A
100
AcDbEntity
  8
0
100
AcDbBlockEnd
  0
BLOCK
  5
1D93
330
1D88
100
AcDbEntity
  8
0
100
AcDbBlockBegin
  2
*D12
 70
     1
 10
0.0
 20
0.0
 30
0.0
  3
*D12
  1

  0
LINE
  5
39D6
330
1D88
100
AcDbEntity
  8
sunpo
 62
     3
370
    -2
100
AcDbLine
 10
2545.444416080749
 20
2124.565198799706
 30
0.0
 11
2530.060012161539
 21
2124.565198799706
 31
0.0
  0
LINE
  5
39D7
330
1D88
100
AcDbEntity
  8
sunpo
 62
     3
370
    -2
100
AcDbLine
 10
2543.392008301466
 20
2123.565198799706
 30
0.0
 11
2530.060012161539
 21
2123.565198799706
 31
0.0
  0
LINE
  5
39D8
330
1D88
100
AcDbEntity
  8
sunpo
 62
     3
370
    -2
100
AcDbLine
 10
2530.760012161538
 20
2121.565198799706
 30
0.0
 11
2530.760012161538
 21
2119.565198799706
 31
0.0
  0
LINE
  5
39D9
330
1D88
100
AcDbEntity
  8
sunpo
 62
     3
370
    -2
100
AcDbLine
 10
2530.760012161538
 20
2126.565198799706
 30
0.0
 11
2530.760012161538
 21
2131.590479698582
 31
0.0
  0
LINE
  5
39DA
330
1D88
100
AcDbEntity
  8
sunpo
 62
     3
370
    -2
100
AcDbLine
 10
2530.760012161538
 20
2123.565198799706
 30
0.0
 11
2530.760012161538
 21
2124.565198799706
 31
0.0
  0
INSERT
  5
39DB
330
1D88
100
AcDbEntity
  8
sunpo
 62
     3
370
    -2
100
AcDbBlockReference
  2
_OPEN30
 10
2530.760012161538
 20
2123.565198799706
 30
0.0
 41
2.0
 42
2.0
 43
2.0
 50
90.0
  0
INSERT
  5
39DC
330
1D88
100
AcDbEntity
  8
sunpo
 62
     3
370
    -2
100
AcDbBlockReference
  2
_OPEN30
 10
2530.760012161538
 20
2124.565198799706
 30
0.0
 41
2.0
 42
2.0
 43
2.0
 50
270.0
  0
MTEXT
  5
39DD
330
1D88
100
AcDbEntity
  8
sunpo
 62
     3
100
AcDbMText
 10
2528.510012161538
 20
2130.077839249144
 30
0.0
 40
2.5
 41
0.0
 71
     5
 72
     1
  1
\A1;1
  7
MSP明朝W1
 11
0.0000000000000001
 21
1.0
 31
0.0
 73
     1
 44
1.0
  0
POINT
  5
39DE
330
1D88
100
AcDbEntity
  8
DEFPOINTS
 62
     0
100
AcDbPoint
 10
2545.444416080749
 20
2124.565198799706
 30
0.0
  0
POINT
  5
39DF
330
1D88
100
AcDbEntity
  8
DEFPOINTS
 62
     0
100
AcDbPoint
 10
2543.392008301466
 20
2123.565198799706
 30
0.0
  0
POINT
  5
39E0
330
1D88
100
AcDbEntity
  8
DEFPOINTS
 62
     0
100
AcDbPoint
 10
2530.760012161538
 20
2123.565198799706
 30
0.0
  0
ENDBLK
  5
1D94
330
1D88
100
AcDbEntity
  8
0
100
AcDbBlockEnd
  0
BLOCK
  5
1DB4
330
1DA9
100
AcDbEntity
  8
0
100
AcDbBlockBegin
  2
*D13
 70
     1
 10
0.0
 20
0.0
 30
0.0
  3
*D13
  1

  0
LINE
  5
39FE
330
1DA9
100
AcDbEntity
  8
sunpo
 62
     3
370
    -2
100
AcDbLine
 10
2539.444416080749
 20
2094.565198799706
 30
0.0
 11
2539.444416080749
 21
2130.787233099693
 31
0.0
  0
LINE
  5
39FF
330
1DA9
100
AcDbEntity
  8
sunpo
 62
     3
370
    -2
100
AcDbLine
 10
2543.444416080749
 20
2114.565198799706
 30
0.0
 11
2543.444416080749
 21
2130.787233099693
 31
0.0
  0
LINE
  5
3A00
330
1DA9
100
AcDbEntity
  8
sunpo
 62
     3
370
    -2
100
AcDbLine
 10
2543.444416080749
 20
2130.087233099694
 30
0.0
 11
2541.444416080748
 21
2130.087233099694
 31
0.0
  0
LINE
  5
3A01
330
1DA9
100
AcDbEntity
  8
sunpo
 62
     3
370
    -2
100
AcDbLine
 10
2539.444416080749
 20
2130.087233099694
 30
0.0
 11
2532.024472260523
 21
2130.087233099694
 31
0.0
  0
INSERT
  5
3A02
330
1DA9
100
AcDbEntity
  8
sunpo
 62
     3
370
    -2
100
AcDbBlockReference
  2
_DotSmall
 10
2543.444416080749
 20
2130.087233099694
 30
0.0
 41
2.0
 42
2.0
 43
2.0
  0
INSERT
  5
3A03
330
1DA9
100
AcDbEntity
  8
sunpo
 62
     3
370
    -2
100
AcDbBlockReference
  2
_OPEN30
 10
2539.444416080749
 20
2130.087233099694
 30
0.0
 41
2.0
 42
2.0
 43
2.0
 50
180.0
  0
MTEXT
  5
3A04
330
1DA9
100
AcDbEntity
  8
sunpo
 62
     3
100
AcDbMText
 10
2533.796944170636
 20
2132.337233099693
 30
0.0
 40
2.5
 41
0.0
 71
     5
 72
     1
  1
\A1;4
  7
MSP明朝W1
 73
     1
 44
1.0
  0
POINT
  5
3A05
330
1DA9
100
AcDbEntity
  8
DEFPOINTS
 62
     0
100
AcDbPoint
 10
2539.444416080749
 20
2094.565198799706
 30
0.0
  0
POINT
  5
3A06
330
1DA9
100
AcDbEntity
  8
DEFPOINTS
 62
     0
100
AcDbPoint
 10
2543.444416080749
 20
2114.565198799706
 30
0.0
  0
POINT
  5
3A07
330
1DA9
100
AcDbEntity
  8
DEFPOINTS
 62
     0
100
AcDbPoint
 10
2543.444416080749
 20
2130.087233099694
 30
0.0
  0
ENDBLK
  5
1DB5
330
1DA9
100
AcDbEntity
  8
0
100
AcDbBlockEnd
  0
BLOCK
  5
1DCC
330
1DC1
100
AcDbEntity
  8
0
100
AcDbBlockBegin
  2
*D14
 70
     1
 10
0.0
 20
0.0
 30
0.0
  3
*D14
  1

  0
LINE
  5
39CB
330
1DC1
100
AcDbEntity
  8
sunpo
 62
     3
370
    -2
100
AcDbLine
 10
2542.553483832937
 20
2097.565198799706
 30
0.0
 11
2528.961444289297
 21
2097.565198799706
 31
0.0
  0
LINE
  5
39CC
330
1DC1
100
AcDbEntity
  8
sunpo
 62
     3
370
    -2
100
AcDbLine
 10
2535.275672133335
 20
2094.565198799706
 30
0.0
 11
2528.961444289297
 21
2094.565198799706
 31
0.0
  0
LINE
  5
39CD
330
1DC1
100
AcDbEntity
  8
sunpo
 62
     3
370
    -2
100
AcDbLine
 10
2529.661444289297
 20
2099.565198799706
 30
0.0
 11
2529.661444289297
 21
2101.565198799706
 31
0.0
  0
LINE
  5
39CE
330
1DC1
100
AcDbEntity
  8
sunpo
 62
     3
370
    -2
100
AcDbLine
 10
2529.661444289297
 20
2092.565198799706
 30
0.0
 11
2529.661444289297
 21
2090.565198799706
 31
0.0
  0
LINE
  5
39CF
330
1DC1
100
AcDbEntity
  8
sunpo
 62
     3
370
    -2
100
AcDbLine
 10
2529.661444289297
 20
2097.565198799706
 30
0.0
 11
2529.661444289297
 21
2094.565198799706
 31
0.0
  0
INSERT
  5
39D0
330
1DC1
100
AcDbEntity
  8
sunpo
 62
     3
370
    -2
100
AcDbBlockReference
  2
_OPEN30
 10
2529.661444289297
 20
2097.565198799706
 30
0.0
 41
2.0
 42
2.0
 43
2.0
 50
270.0
  0
INSERT
  5
39D1
330
1DC1
100
AcDbEntity
  8
sunpo
 62
     3
370
    -2
100
AcDbBlockReference
  2
_OPEN30
 10
2529.661444289297
 20
2094.565198799706
 30
0.0
 41
2.0
 42
2.0
 43
2.0
 50
90.0
  0
MTEXT
  5
39D2
330
1DC1
100
AcDbEntity
  8
sunpo
 62
     3
100
AcDbMText
 10
2527.411444289297
 20
2096.065198799706
 30
0.0
 40
2.5
 41
0.0
 71
     5
 72
     1
  1
\A1;3
  7
MSP明朝W1
 11
0.0000000000000001
 21
1.0
 31
0.0
 73
     1
 44
1.0
  0
POINT
  5
39D3
330
1DC1
100
AcDbEntity
  8
DEFPOINTS
 62
     0
100
AcDbPoint
 10
2542.553483832937
 20
2097.565198799706
 30
0.0
  0
POINT
  5
39D4
330
1DC1
100
AcDbEntity
  8
DEFPOINTS
 62
     0
100
AcDbPoint
 10
2535.275672133335
 20
2094.565198799706
 30
0.0
  0
POINT
  5
39D5
330
1DC1
100
AcDbEntity
  8
DEFPOINTS
 62
     0
100
AcDbPoint
 10
2529.661444289297
 20
2094.565198799706
 30
0.0
  0
ENDBLK
  5
1DCD
330
1DC1
100
AcDbEntity
  8
0
100
AcDbBlockEnd
  0
BLOCK
  5
1E13
330
1E11
100
AcDbEntity
  8
0
100
AcDbBlockBegin
  2
_DotSmall
 70
     0
 10
0.0
 20
0.0
 30
0.0
  3
_DotSmall
  1

  0
LWPOLYLINE
  5
1E12
330
1E11
100
AcDbEntity
  8
0
 62
     0
100
AcDbPolyline
 90
        2
 70
     1
 43
0.5
 10
-0.0625
 20
0.0
 42
1.0
 10
0.0625
 20
0.0
 42
1.0
  0
ENDBLK
  5
1E14
330
1E11
100
AcDbEntity
  8
0
100
AcDbBlockEnd
  0
BLOCK
  5
25CC
330
25C1
100
AcDbEntity
  8
0
100
AcDbBlockBegin
  2
*D16
 70
     1
 10
0.0
 20
0.0
 30
0.0
  3
*D16
  1

  0
LINE
  5
39A7
330
25C1
100
AcDbEntity
  8
sunpo
 62
     3
370
    -2
100
AcDbLine
 10
2268.444416080748
 20
2096.565198799706
 30
0.0
 11
2251.94839302136
 21
2096.565198799706
 31
0.0
  0
LINE
  5
39A8
330
25C1
100
AcDbEntity
  8
sunpo
 62
     3
370
    -2
100
AcDbLine
 10
2260.444416080748
 20
2093.565198799706
 30
0.0
 11
2251.94839302136
 21
2093.565198799706
 31
0.0
  0
LINE
  5
39A9
330
25C1
100
AcDbEntity
  8
sunpo
 62
     3
370
    -2
100
AcDbLine
 10
2252.64839302136
 20
2098.565198799706
 30
0.0
 11
2252.64839302136
 21
2100.565198799706
 31
0.0
  0
LINE
  5
39AA
330
25C1
100
AcDbEntity
  8
sunpo
 62
     3
370
    -2
100
AcDbLine
 10
2252.64839302136
 20
2091.565198799706
 30
0.0
 11
2252.64839302136
 21
2089.565198799706
 31
0.0
  0
LINE
  5
39AB
330
25C1
100
AcDbEntity
  8
sunpo
 62
     3
370
    -2
100
AcDbLine
 10
2252.64839302136
 20
2096.565198799706
 30
0.0
 11
2252.64839302136
 21
2093.565198799706
 31
0.0
  0
INSERT
  5
39AC
330
25C1
100
AcDbEntity
  8
sunpo
 62
     3
370
    -2
100
AcDbBlockReference
  2
_OPEN30
 10
2252.64839302136
 20
2096.565198799706
 30
0.0
 41
2.0
 42
2.0
 43
2.0
 50
270.0
  0
INSERT
  5
39AD
330
25C1
100
AcDbEntity
  8
sunpo
 62
     3
370
    -2
100
AcDbBlockReference
  2
_OPEN30
 10
2252.64839302136
 20
2093.565198799706
 30
0.0
 41
2.0
 42
2.0
 43
2.0
 50
90.0
  0
MTEXT
  5
39AE
330
25C1
100
AcDbEntity
  8
sunpo
 62
     3
100
AcDbMText
 10
2250.39839302136
 20
2095.065198799706
 30
0.0
 40
2.5
 41
0.0
 71
     5
 72
     1
  1
\A1;3
  7
MSP明朝W1
 11
0.0000000000000001
 21
1.0
 31
0.0
 73
     1
 44
1.0
  0
POINT
  5
39AF
330
25C1
100
AcDbEntity
  8
DEFPOINTS
 62
     0
100
AcDbPoint
 10
2268.444416080748
 20
2096.565198799706
 30
0.0
  0
POINT
  5
39B0
330
25C1
100
AcDbEntity
  8
DEFPOINTS
 62
     0
100
AcDbPoint
 10
2260.444416080748
 20
2093.565198799706
 30
0.0
  0
POINT
  5
39B1
330
25C1
100
AcDbEntity
  8
DEFPOINTS
 62
     0
100
AcDbPoint
 10
2252.64839302136
 20
2093.565198799706
 30
0.0
  0
ENDBLK
  5
25CD
330
25C1
100
AcDbEntity
  8
0
100
AcDbBlockEnd
  0
BLOCK
  5
25F2
330
25E8
100
AcDbEntity
  8
0
100
AcDbBlockBegin
  2
*D17
 70
     1
 10
0.0
 20
0.0
 30
0.0
  3
*D17
  1

  0
LINE
  5
399E
330
25E8
100
AcDbEntity
  8
sunpo
 62
     3
370
    -2
100
AcDbLine
 10
2260.444416080748
 20
2093.218698565624
 30
0.0
 11
2260.444416080748
 21
2114.189400057623
 31
0.0
  0
LINE
  5
399F
330
25E8
100
AcDbEntity
  8
sunpo
 62
     3
370
    -2
100
AcDbLine
 10
2285.444416080748
 20
2093.652216529004
 30
0.0
 11
2285.444416080748
 21
2114.189400057623
 31
0.0
  0
LINE
  5
39A0
330
25E8
100
AcDbEntity
  8
sunpo
 62
     3
370
    -2
100
AcDbLine
 10
2262.444416080748
 20
2113.489400057623
 30
0.0
 11
2283.444416080748
 21
2113.489400057623
 31
0.0
  0
INSERT
  5
39A1
330
25E8
100
AcDbEntity
  8
sunpo
 62
     3
370
    -2
100
AcDbBlockReference
  2
_OPEN30
 10
2260.444416080748
 20
2113.489400057623
 30
0.0
 41
2.0
 42
2.0
 43
2.0
 50
180.0
  0
INSERT
  5
39A2
330
25E8
100
AcDbEntity
  8
sunpo
 62
     3
370
    -2
100
AcDbBlockReference
  2
_OPEN30
 10
2285.444416080748
 20
2113.489400057623
 30
0.0
 41
2.0
 42
2.0
 43
2.0
  0
MTEXT
  5
39A3
330
25E8
100
AcDbEntity
  8
sunpo
 62
     3
100
AcDbMText
 10
2272.944416080748
 20
2115.739400057623
 30
0.0
 40
2.5
 41
0.0
 71
     5
 72
     1
  1
\A1;25
  7
MSP明朝W1
 73
     1
 44
1.0
  0
POINT
  5
39A4
330
25E8
100
AcDbEntity
  8
DEFPOINTS
 62
     0
100
AcDbPoint
 10
2260.444416080748
 20
2093.218698565624
 30
0.0
  0
POINT
  5
39A5
330
25E8
100
AcDbEntity
  8
DEFPOINTS
 62
     0
100
AcDbPoint
 10
2285.444416080748
 20
2093.652216529004
 30
0.0
  0
POINT
  5
39A6
330
25E8
100
AcDbEntity
  8
DEFPOINTS
 62
     0
100
AcDbPoint
 10
2285.444416080748
 20
2113.489400057623
 30
0.0
  0
ENDBLK
  5
25F3
330
25E8
100
AcDbEntity
  8
0
100
AcDbBlockEnd
  0
BLOCK
  5
264C
330
2641
100
AcDbEntity
  8
0
100
AcDbBlockBegin
  2
*D18
 70
     1
 10
0.0
 20
0.0
 30
0.0
  3
*D18
  1

  0
LINE
  5
3B63
330
2641
100
AcDbEntity
  8
sunpo
 62
     3
370
    -2
100
AcDbLine
 10
2260.444416080748
 20
2054.565198799706
 30
0.0
 11
2260.444416080748
 21
2044.244992058471
 31
0.0
  0
LINE
  5
3B64
330
2641
100
AcDbEntity
  8
sunpo
 62
     3
370
    -2
100
AcDbLine
 10
2266.444416080748
 20
2055.565198799706
 30
0.0
 11
2266.444416080748
 21
2044.244992058471
 31
0.0
  0
LINE
  5
3B65
330
2641
100
AcDbEntity
  8
sunpo
 62
     3
370
    -2
100
AcDbLine
 10
2258.444416080748
 20
2044.944992058471
 30
0.0
 11
2256.444416080748
 21
2044.944992058471
 31
0.0
  0
LINE
  5
3B66
330
2641
100
AcDbEntity
  8
sunpo
 62
     3
370
    -2
100
AcDbLine
 10
2268.444416080748
 20
2044.944992058471
 30
0.0
 11
2270.444416080749
 21
2044.944992058471
 31
0.0
  0
LINE
  5
3B67
330
2641
100
AcDbEntity
  8
sunpo
 62
     3
370
    -2
100
AcDbLine
 10
2260.444416080748
 20
2044.944992058471
 30
0.0
 11
2266.444416080748
 21
2044.944992058471
 31
0.0
  0
INSERT
  5
3B68
330
2641
100
AcDbEntity
  8
sunpo
 62
     3
370
    -2
100
AcDbBlockReference
  2
_OPEN30
 10
2260.444416080748
 20
2044.944992058471
 30
0.0
 41
2.0
 42
2.0
 43
2.0
  0
INSERT
  5
3B69
330
2641
100
AcDbEntity
  8
sunpo
 62
     3
370
    -2
100
AcDbBlockReference
  2
_OPEN30
 10
2266.444416080748
 20
2044.944992058471
 30
0.0
 41
2.0
 42
2.0
 43
2.0
 50
180.0
  0
MTEXT
  5
3B6A
330
2641
100
AcDbEntity
  8
sunpo
 62
     3
100
AcDbMText
 10
2263.194416080748
 20
2047.194992058471
 30
0.0
 40
2.5
 41
0.0
 71
     5
 72
     1
  1
\A1;6
  7
MSP明朝W1
 73
     1
 44
1.0
  0
POINT
  5
3B6B
330
2641
100
AcDbEntity
  8
DEFPOINTS
 62
     0
100
AcDbPoint
 10
2260.444416080748
 20
2054.565198799706
 30
0.0
  0
POINT
  5
3B6C
330
2641
100
AcDbEntity
  8
DEFPOINTS
 62
     0
100
AcDbPoint
 10
2266.444416080748
 20
2055.565198799706
 30
0.0
  0
POINT
  5
3B6D
330
2641
100
AcDbEntity
  8
DEFPOINTS
 62
     0
100
AcDbPoint
 10
2266.444416080748
 20
2044.944992058471
 30
0.0
  0
ENDBLK
  5
264D
330
2641
100
AcDbEntity
  8
0
100
AcDbBlockEnd
  0
BLOCK
  5
2676
330
266C
100
AcDbEntity
  8
0
100
AcDbBlockBegin
  2
*D19
 70
     1
 10
0.0
 20
0.0
 30
0.0
  3
*D19
  1

  0
LINE
  5
3C13
330
266C
100
AcDbEntity
  8
sunpo
 62
     3
370
    -2
100
AcDbLine
 10
2538.655799958622
 20
2088.565198799706
 30
0.0
 11
2573.966286578709
 21
2088.565198799706
 31
0.0
  0
LINE
  5
3C14
330
266C
100
AcDbEntity
  8
sunpo
 62
     3
370
    -2
100
AcDbLine
 10
2555.444416080748
 20
2054.565198799706
 30
0.0
 11
2573.966286578709
 21
2054.565198799706
 31
0.0
  0
LINE
  5
3C15
330
266C
100
AcDbEntity
  8
sunpo
 62
     3
370
    -2
100
AcDbLine
 10
2573.266286578709
 20
2086.565198799706
 30
0.0
 11
2573.266286578709
 21
2056.565198799706
 31
0.0
  0
INSERT
  5
3C16
330
266C
100
AcDbEntity
  8
sunpo
 62
     3
370
    -2
100
AcDbBlockReference
  2
_OPEN30
 10
2573.266286578709
 20
2088.565198799706
 30
0.0
 41
2.0
 42
2.0
 43
2.0
 50
90.0
  0
INSERT
  5
3C17
330
266C
100
AcDbEntity
  8
sunpo
 62
     3
370
    -2
100
AcDbBlockReference
  2
_OPEN30
 10
2573.266286578709
 20
2054.565198799706
 30
0.0
 41
2.0
 42
2.0
 43
2.0
 50
270.0
  0
MTEXT
  5
3C18
330
266C
100
AcDbEntity
  8
sunpo
 62
     3
100
AcDbMText
 10
2571.016286578708
 20
2071.565198799706
 30
0.0
 40
2.5
 41
0.0
 71
     5
 72
     1
  1
\A1;34
  7
MSP明朝W1
 11
0.0000000000000001
 21
1.0
 31
0.0
 73
     1
 44
1.0
  0
POINT
  5
3C19
330
266C
100
AcDbEntity
  8
DEFPOINTS
 62
     0
100
AcDbPoint
 10
2538.655799958622
 20
2088.565198799706
 30
0.0
  0
POINT
  5
3C1A
330
266C
100
AcDbEntity
  8
DEFPOINTS
 62
     0
100
AcDbPoint
 10
2555.444416080748
 20
2054.565198799706
 30
0.0
  0
POINT
  5
3C1B
330
266C
100
AcDbEntity
  8
DEFPOINTS
 62
     0
100
AcDbPoint
 10
2573.266286578709
 20
2054.565198799706
 30
0.0
  0
ENDBLK
  5
2677
330
266C
100
AcDbEntity
  8
0
100
AcDbBlockEnd
  0
BLOCK
  5
2683
330
2679
100
AcDbEntity
  8
0
100
AcDbBlockBegin
  2
*D20
 70
     1
 10
0.0
 20
0.0
 30
0.0
  3
*D20
  1

  0
LINE
  5
3943
330
2679
100
AcDbEntity
  8
sunpo
 62
     3
370
    -2
100
AcDbLine
 10
2555.444416080748
 20
2124.565198799706
 30
0.0
 11
2573.966286578708
 21
2124.565198799706
 31
0.0
  0
LINE
  5
3944
330
2679
100
AcDbEntity
  8
sunpo
 62
     3
370
    -2
100
AcDbLine
 10
2555.444416080748
 20
2088.565198799706
 30
0.0
 11
2573.966286578708
 21
2088.565198799706
 31
0.0
  0
LINE
  5
3945
330
2679
100
AcDbEntity
  8
sunpo
 62
     3
370
    -2
100
AcDbLine
 10
2573.266286578708
 20
2122.565198799706
 30
0.0
 11
2573.266286578708
 21
2090.565198799706
 31
0.0
  0
INSERT
  5
3946
330
2679
100
AcDbEntity
  8
sunpo
 62
     3
370
    -2
100
AcDbBlockReference
  2
_OPEN30
 10
2573.266286578708
 20
2124.565198799706
 30
0.0
 41
2.0
 42
2.0
 43
2.0
 50
90.0
  0
INSERT
  5
3947
330
2679
100
AcDbEntity
  8
sunpo
 62
     3
370
    -2
100
AcDbBlockReference
  2
_OPEN30
 10
2573.266286578708
 20
2088.565198799706
 30
0.0
 41
2.0
 42
2.0
 43
2.0
 50
270.0
  0
MTEXT
  5
3948
330
2679
100
AcDbEntity
  8
sunpo
 62
     3
100
AcDbMText
 10
2571.016286578708
 20
2100.561962853905
 30
0.0
 40
2.5
 41
0.0
 71
     5
 72
     1
  1
\A1;36
  7
MSP明朝W1
 11
0.0000000000000001
 21
1.0
 31
0.0
 73
     1
 44
1.0
  0
POINT
  5
3949
330
2679
100
AcDbEntity
  8
DEFPOINTS
 62
     0
100
AcDbPoint
 10
2555.444416080748
 20
2124.565198799706
 30
0.0
  0
POINT
  5
394A
330
2679
100
AcDbEntity
  8
DEFPOINTS
 62
     0
100
AcDbPoint
 10
2555.444416080748
 20
2088.565198799706
 30
0.0
  0
POINT
  5
394B
330
2679
100
AcDbEntity
  8
DEFPOINTS
 62
     0
100
AcDbPoint
 10
2573.266286578708
 20
2088.565198799706
 30
0.0
  0
ENDBLK
  5
2684
330
2679
100
AcDbEntity
  8
0
100
AcDbBlockEnd
  0
BLOCK
  5
26BE
330
26B3
100
AcDbEntity
  8
0
100
AcDbBlockBegin
  2
*D21
 70
     1
 10
0.0
 20
0.0
 30
0.0
  3
*D21
  1

  0
LINE
  5
396C
330
26B3
100
AcDbEntity
  8
sunpo
 62
     3
370
    -2
100
AcDbLine
 10
2532.775672133335
 20
2094.565198799706
 30
0.0
 11
2514.075608242329
 21
2094.565198799706
 31
0.0
  0
LINE
  5
396D
330
26B3
100
AcDbEntity
  8
sunpo
 62
     3
370
    -2
100
AcDbLine
 10
2537.24251876777
 20
2088.565198799706
 30
0.0
 11
2514.075608242329
 21
2088.565198799706
 31
0.0
  0
LINE
  5
396E
330
26B3
100
AcDbEntity
  8
sunpo
 62
     3
370
    -2
100
AcDbLine
 10
2514.775608242329
 20
2096.565198799706
 30
0.0
 11
2514.775608242329
 21
2098.565198799706
 31
0.0
  0
LINE
  5
396F
330
26B3
100
AcDbEntity
  8
sunpo
 62
     3
370
    -2
100
AcDbLine
 10
2514.775608242329
 20
2086.565198799706
 30
0.0
 11
2514.775608242329
 21
2084.565198799706
 31
0.0
  0
LINE
  5
3970
330
26B3
100
AcDbEntity
  8
sunpo
 62
     3
370
    -2
100
AcDbLine
 10
2514.775608242329
 20
2094.565198799706
 30
0.0
 11
2514.775608242329
 21
2088.565198799706
 31
0.0
  0
INSERT
  5
3971
330
26B3
100
AcDbEntity
  8
sunpo
 62
     3
370
    -2
100
AcDbBlockReference
  2
_OPEN30
 10
2514.775608242329
 20
2094.565198799706
 30
0.0
 41
2.0
 42
2.0
 43
2.0
 50
270.0
  0
INSERT
  5
3972
330
26B3
100
AcDbEntity
  8
sunpo
 62
     3
370
    -2
100
AcDbBlockReference
  2
_OPEN30
 10
2514.775608242329
 20
2088.565198799706
 30
0.0
 41
2.0
 42
2.0
 43
2.0
 50
90.0
  0
MTEXT
  5
3973
330
26B3
100
AcDbEntity
  8
sunpo
 62
     3
100
AcDbMText
 10
2512.525608242328
 20
2091.829480818483
 30
0.0
 40
2.5
 41
0.0
 71
     5
 72
     1
  1
\A1;6
  7
MSP明朝W1
 11
0.0000000000000001
 21
1.0
 31
0.0
 73
     1
 44
1.0
  0
POINT
  5
3974
330
26B3
100
AcDbEntity
  8
DEFPOINTS
 62
     0
100
AcDbPoint
 10
2532.775672133335
 20
2094.565198799706
 30
0.0
  0
POINT
  5
3975
330
26B3
100
AcDbEntity
  8
DEFPOINTS
 62
     0
100
AcDbPoint
 10
2537.24251876777
 20
2088.565198799706
 30
0.0
  0
POINT
  5
3976
330
26B3
100
AcDbEntity
  8
DEFPOINTS
 62
     0
100
AcDbPoint
 10
2514.775608242329
 20
2088.565198799706
 30
0.0
  0
ENDBLK
  5
26BF
330
26B3
100
AcDbEntity
  8
0
100
AcDbBlockEnd
  0
BLOCK
  5
26EB
330
26E1
100
AcDbEntity
  8
0
100
AcDbBlockBegin
  2
*D22
 70
     1
 10
0.0
 20
0.0
 30
0.0
  3
*D22
  1

  0
LINE
  5
39EA
330
26E1
100
AcDbEntity
  8
sunpo
 62
     3
370
    -2
100
AcDbLine
 10
2555.444416080748
 20
2119.065198799706
 30
0.0
 11
2565.749472963
 21
2119.065198799706
 31
0.0
  0
LINE
  5
39EB
330
26E1
100
AcDbEntity
  8
sunpo
 62
     3
370
    -2
100
AcDbLine
 10
2555.444416080748
 20
2088.565198799706
 30
0.0
 11
2565.749472963
 21
2088.565198799706
 31
0.0
  0
LINE
  5
39EC
330
26E1
100
AcDbEntity
  8
sunpo
 62
     3
370
    -2
100
AcDbLine
 10
2565.049472963
 20
2117.065198799706
 30
0.0
 11
2565.049472963
 21
2090.565198799706
 31
0.0
  0
INSERT
  5
39ED
330
26E1
100
AcDbEntity
  8
sunpo
 62
     3
370
    -2
100
AcDbBlockReference
  2
_OPEN30
 10
2565.049472963
 20
2119.065198799706
 30
0.0
 41
2.0
 42
2.0
 43
2.0
 50
90.0
  0
INSERT
  5
39EE
330
26E1
100
AcDbEntity
  8
sunpo
 62
     3
370
    -2
100
AcDbBlockReference
  2
_OPEN30
 10
2565.049472963
 20
2088.565198799706
 30
0.0
 41
2.0
 42
2.0
 43
2.0
 50
270.0
  0
MTEXT
  5
39EF
330
26E1
100
AcDbEntity
  8
sunpo
 62
     3
100
AcDbMText
 10
2562.799472962999
 20
2103.565198799706
 30
0.0
 40
2.5
 41
0.0
 71
     5
 72
     1
  1
\A1;30.5
  7
MSP明朝W1
 11
0.0000000000000001
 21
1.0
 31
0.0
 73
     1
 44
1.0
  0
POINT
  5
39F0
330
26E1
100
AcDbEntity
  8
DEFPOINTS
 62
     0
100
AcDbPoint
 10
2555.444416080748
 20
2119.065198799706
 30
0.0
  0
POINT
  5
39F1
330
26E1
100
AcDbEntity
  8
DEFPOINTS
 62
     0
100
AcDbPoint
 10
2555.444416080748
 20
2088.565198799706
 30
0.0
  0
POINT
  5
39F2
330
26E1
100
AcDbEntity
  8
DEFPOINTS
 62
     0
100
AcDbPoint
 10
2565.049472963
 20
2088.565198799706
 30
0.0
  0
ENDBLK
  5
26EC
330
26E1
100
AcDbEntity
  8
0
100
AcDbBlockEnd
  0
BLOCK
  5
2877
330
286C
100
AcDbEntity
  8
0
100
AcDbBlockBegin
  2
*D23
 70
     1
 10
0.0
 20
0.0
 30
0.0
  3
*D23
  1

  0
LINE
  5
3B92
330
286C
100
AcDbEntity
  8
sunpo
 62
     3
370
    -2
100
AcDbLine
 10
2268.444416080747
 20
2088.565198799706
 30
0.0
 11
2303.461299469184
 21
2088.565198799706
 31
0.0
  0
LINE
  5
3B93
330
286C
100
AcDbEntity
  8
sunpo
 62
     3
370
    -2
100
AcDbLine
 10
2265.444416080748
 20
2054.565198799706
 30
0.0
 11
2303.461299469184
 21
2054.565198799706
 31
0.0
  0
LINE
  5
3B94
330
286C
100
AcDbEntity
  8
sunpo
 62
     3
370
    -2
100
AcDbLine
 10
2302.761299469185
 20
2086.565198799706
 30
0.0
 11
2302.761299469185
 21
2056.565198799706
 31
0.0
  0
INSERT
  5
3B95
330
286C
100
AcDbEntity
  8
sunpo
 62
     3
370
    -2
100
AcDbBlockReference
  2
_OPEN30
 10
2302.761299469185
 20
2088.565198799706
 30
0.0
 41
2.0
 42
2.0
 43
2.0
 50
90.0
  0
INSERT
  5
3B96
330
286C
100
AcDbEntity
  8
sunpo
 62
     3
370
    -2
100
AcDbBlockReference
  2
_OPEN30
 10
2302.761299469185
 20
2054.565198799706
 30
0.0
 41
2.0
 42
2.0
 43
2.0
 50
270.0
  0
MTEXT
  5
3B97
330
286C
100
AcDbEntity
  8
sunpo
 62
     3
100
AcDbMText
 10
2300.511299469184
 20
2075.806862659268
 30
0.0
 40
2.5
 41
0.0
 71
     5
 72
     1
  1
\A1;34
  7
MSP明朝W1
 11
0.0000000000000001
 21
1.0
 31
0.0
 73
     1
 44
1.0
  0
POINT
  5
3B98
330
286C
100
AcDbEntity
  8
DEFPOINTS
 62
     0
100
AcDbPoint
 10
2268.444416080747
 20
2088.565198799706
 30
0.0
  0
POINT
  5
3B99
330
286C
100
AcDbEntity
  8
DEFPOINTS
 62
     0
100
AcDbPoint
 10
2265.444416080748
 20
2054.565198799706
 30
0.0
  0
POINT
  5
3B9A
330
286C
100
AcDbEntity
  8
DEFPOINTS
 62
     0
100
AcDbPoint
 10
2302.761299469185
 20
2054.565198799706
 30
0.0
  0
ENDBLK
  5
2878
330
286C
100
AcDbEntity
  8
0
100
AcDbBlockEnd
  0
BLOCK
  5
3337
330
3335
100
AcDbEntity
  8
0
  6
ByBlock
 62
     0
370
    -2
100
AcDbBlockBegin
  2
VW_FILLEDARROW
 70
     0
 10
0.0
 20
0.0
 30
0.0
  3
VW_FILLEDARROW
  1

  0
SOLID
  5
3336
330
3335
100
AcDbEntity
  8
0
 62
     0
370
    -2
100
AcDbTrace
 10
0.0
 20
0.0
 30
0.0
 11
-0.99993896484375
 21
-0.1763162185636465
 31
0.0
 12
-0.99993896484375
 22
0.1763162185636463
 32
0.0
 13
-0.99993896484375
 23
0.1763162185636463
 33
0.0
  0
ENDBLK
  5
3338
330
3335
100
AcDbEntity
  8
0
100
AcDbBlockEnd
  0
ENDSEC
  0
SECTION
  2
ENTITIES
  0
LINE
  5
13DC
330
18
100
AcDbEntity
  8
0
100
AcDbLine
 10
1440.997031746142
 20
3577.383094469913
 30
0.0
 11
2830.644269942041
 21
3577.383094469913
 31
0.0
  0
LINE
  5
13DD
330
18
100
AcDbEntity
  8
0
100
AcDbLine
 10
4240.997031746142
 20
2927.383094469913
 30
0.0
 11
2847.330555663776
 21
2927.383094469913
 31
0.0
  0
LINE
  5
13DE
330
18
100
AcDbEntity
  8
0
100
AcDbLine
 10
1440.997031746142
 20
2927.383094469913
 30
0.0
 11
1440.997031746142
 21
3577.383094469913
 31
0.0
  0
LINE
  5
13DF
330
18
100
AcDbEntity
  8
0
100
AcDbLine
 10
1440.997031746142
 20
3562.383094469913
 30
0.0
 11
2826.625032055574
 21
3562.383094469913
 31
0.0
  0
LINE
  5
13E0
330
18
100
AcDbEntity
  8
0
100
AcDbLine
 10
1440.997031746142
 20
3554.383094469914
 30
0.0
 11
2824.481438516125
 21
3554.383094469914
 31
0.0
  0
LINE
  5
13E1
330
18
100
AcDbEntity
  8
0
  6
HIDDEN
100
AcDbLine
 10
4240.997031746142
 20
2933.383094469913
 30
0.0
 11
2851.349793550243
 21
2933.383094469913
 31
0.0
  0
LINE
  5
13E2
330
18
100
AcDbEntity
  8
0
100
AcDbLine
 10
4240.997031746142
 20
3577.383094469913
 30
0.0
 11
4240.997031746142
 21
2927.383094469913
 31
0.0
  0
LINE
  5
13E3
330
18
100
AcDbEntity
  8
0
 62
     3
100
AcDbLine
 10
2816.442962743192
 20
3524.383094469913
 30
0.0
 11
2838.682745714974
 21
3607.383094469913
 31
0.0
  0
LINE
  5
13E4
330
18
100
AcDbEntity
  8
0
 62
     3
100
AcDbLine
 10
2837.148486351393
 20
3524.383094469913
 30
0.0
 11
2859.388269323176
 21
3607.383094469913
 31
0.0
  0
LINE
  5
13E5
330
18
100
AcDbEntity
  8
0
100
AcDbLine
 10
2851.349793550243
 20
3577.383094469913
 30
0.0
 11
4240.997031746142
 21
3577.383094469913
 31
0.0
  0
LINE
  5
13E6
330
18
100
AcDbEntity
  8
0
100
AcDbLine
 10
2847.330555663776
 20
3565.383094469913
 30
0.0
 11
4240.997031746142
 21
3565.383094469913
 31
0.0
  0
LINE
  5
13E7
330
18
100
AcDbEntity
  8
0
100
AcDbLine
 10
2845.186962124327
 20
3561.383094469913
 30
0.0
 11
4240.997031746142
 21
3561.383094469913
 31
0.0
  0
LINE
  5
13E8
330
18
100
AcDbEntity
  8
0
 62
     3
100
AcDbLine
 10
2816.442962743192
 20
2889.383094469913
 30
0.0
 11
2838.682745714974
 21
2972.383094469913
 31
0.0
  0
LINE
  5
13E9
330
18
100
AcDbEntity
  8
0
 62
     3
100
AcDbLine
 10
2837.148486351393
 20
2889.383094469913
 30
0.0
 11
2859.388269323176
 21
2972.383094469913
 31
0.0
  0
LINE
  5
13EA
330
18
100
AcDbEntity
  8
0
  6
HIDDEN
100
AcDbLine
 10
2828.232727210161
 20
2933.383094469913
 30
0.0
 11
1440.997031746142
 21
2933.383094469913
 31
0.0
  0
LINE
  5
13EB
330
18
100
AcDbEntity
  8
0
100
AcDbLine
 10
2826.625032055574
 20
2927.383094469913
 30
0.0
 11
1440.997031746142
 21
2927.383094469913
 31
0.0
  0
LINE
  5
1419
330
18
100
AcDbEntity
  8
0
 62
     3
100
AcDbLine
 10
2411.474048640541
 20
2098.565198799706
 30
0.0
 11
2408.652816949206
 21
2082.565198799706
 31
0.0
  0
LINE
  5
141A
330
18
100
AcDbEntity
  8
0
 62
     3
100
AcDbLine
 10
2407.412342192999
 20
2098.565198799706
 30
0.0
 11
2404.591110501663
 21
2082.565198799706
 31
0.0
  0
LINE
  5
141B
330
18
100
AcDbEntity
  8
0
100
AcDbLine
 10
2410.768740717708
 20
2094.565198799706
 30
0.0
 11
2539.070296917353
 21
2094.565198799706
 31
0.0
  0
LINE
  5
141C
330
18
100
AcDbEntity
  8
0
100
AcDbLine
 10
2409.710778833456
 20
2088.565198799706
 30
0.0
 11
2539.400741331546
 21
2088.565198799706
 31
0.0
  0
DIMENSION
  5
141E
330
18
100
AcDbEntity
  8
sunpo
100
AcDbDimension
  2
*D1
 10
2268.444416080748
 20
2107.51646078925
 30
0.0
 11
2264.444416080748
 21
2109.76646078925
 31
0.0
 70
    32
 71
     5
 42
8.0
  3
MSP明朝寸法1
100
AcDbAlignedDimension
 13
2260.444416080748
 23
2094.358092018519
 33
0.0
 14
2268.444416080748
 24
2096.565198799706
 34
0.0
100
AcDbRotatedDimension
1001
ACAD
1000
DSTYLE
1002
{
1070
   141
1040
2.5
1002
}
  0
MTEXT
  5
1422
330
18
100
AcDbEntity
  8
0
 62
     3
100
AcDbMText
 10
2255.387085609579
 20
2104.565198799706
 30
0.0
 40
2.5
 41
0.0
 71
     6
 72
     1
  1
 
  7
TYPE1
 73
     1
 44
1.0
1001
ACAD
1000
MTEXTBEGIN
1070
    73
1070
     1
1070
    44
1040
1.0
1070
    74
1070
     0
1000
MTEXTEND
  0
MTEXT
  5
1426
330
18
100
AcDbEntity
  8
0
 62
     3
100
AcDbMText
 10
2283.286084648451
 20
2105.815198799706
 30
0.0
 40
2.5
 41
0.0
 71
     4
 72
     1
  1
 
  7
TYPE1
 73
     1
 44
1.0
1001
ACAD
1000
MTEXTBEGIN
1070
    73
1070
     1
1070
    44
1040
1.0
1070
    74
1070
     0
1000
MTEXTEND
  0
DIMENSION
  5
1429
330
18
100
AcDbEntity
  8
sunpo
100
AcDbDimension
  2
*D2
 10
2543.444416080749
 20
2142.162615010512
 30
0.0
 11
2549.444416080749
 21
2144.412615010512
 31
0.0
 70
    32
 71
     5
 42
11.99999999999954
  3
MSP明朝寸法1
100
AcDbAlignedDimension
 13
2555.444416080748
 23
2124.565198799706
 33
0.0
 14
2543.444416080749
 24
2124.565198799706
 34
0.0
100
AcDbRotatedDimension
1001
ACAD
1000
DSTYLE
1002
{
1070
   141
1040
2.5
1002
}
  0
DIMENSION
  5
142A
330
18
100
AcDbEntity
  8
sunpo
100
AcDbDimension
  2
*D3
 10
2514.775608242328
 20
2094.565198799706
 30
0.0
 11
2512.525608242328
 21
2109.565198799706
 31
0.0
 70
    32
 71
     5
 42
30.0
  3
MSP明朝寸法1
100
AcDbAlignedDimension
 13
2543.559743803949
 23
2124.565198799706
 33
0.0
 14
2514.775608242328
 24
2094.565198799706
 34
0.0
 50
90.0
100
AcDbRotatedDimension
1001
ACAD
1000
DSTYLE
1002
{
1070
   141
1040
2.5
1002
}
  0
DIMENSION
  5
1430
330
18
100
AcDbEntity
  8
sunpo
100
AcDbDimension
  2
*D4
 10
2299.561678011616
 20
2094.565198799706
 30
0.0
 11
2299.561678011615
 21
2102.260423518808
 31
0.0
 70
   160
 71
     5
 42
2.0
  3
MSP明朝寸法1
100
AcDbAlignedDimension
 13
2268.444416080748
 23
2096.565198799706
 33
0.0
 14
2292.456754923957
 24
2094.565198799706
 34
0.0
 50
90.0
100
AcDbRotatedDimension
1001
ACAD
1000
DSTYLE
1002
{
1070
   141
1040
2.5
1002
}
  0
DIMENSION
  5
1437
330
18
100
AcDbEntity
  8
sunpo
100
AcDbDimension
  2
*D5
 10
2549.444416080749
 20
2105.918865592229
 30
0.0
 11
2552.444416080749
 21
2108.168865592229
 31
0.0
 70
    32
 71
     5
 42
5.999999999999545
  3
MSP明朝寸法1
100
AcDbAlignedDimension
 13
2555.444416080748
 23
2115.565198799706
 33
0.0
 14
2549.444416080749
 24
2109.565198799706
 34
0.0
100
AcDbRotatedDimension
1001
ACAD
1000
DSTYLE
1002
{
1070
   141
1040
2.5
1002
}
  0
DIMENSION
  5
143B
330
18
100
AcDbEntity
  8
sunpo
100
AcDbDimension
  2
*D6
 10
2581.444416080748
 20
2054.565198799706
 30
0.0
 11
2579.194416080747
 21
2089.565198799706
 31
0.0
 70
    32
 71
     5
 42
70.0
  3
MSP明朝寸法1
100
AcDbAlignedDimension
 13
2555.444416080748
 23
2124.565198799706
 33
0.0
 14
2265.444416080748
 24
2054.565198799706
 34
0.0
 50
90.0
100
AcDbRotatedDimension
1001
ACAD
1000
DSTYLE
1002
{
1070
   141
1040
2.5
1002
}
  0
DIMENSION
  5
143E
330
18
100
AcDbEntity
  8
sunpo
100
AcDbDimension
  2
*D7
 10
2555.444416080748
 20
2036.486817898503
 30
0.0
 11
2407.944416080748
 21
2038.736817898503
 31
0.0
 70
    32
  1
650
 71
     5
 42
295.0
  3
MSP明朝寸法1
100
AcDbAlignedDimension
 13
2260.444416080748
 23
2054.565198799706
 33
0.0
 14
2555.444416080748
 24
2118.565198799706
 34
0.0
100
AcDbRotatedDimension
1001
ACAD
1000
DSTYLE
1002
{
1070
   141
1040
2.5
1002
}
  0
DIMENSION
  5
143F
330
18
100
AcDbEntity
  8
sunpo
100
AcDbDimension
  2
*D8
 10
2246.146846996306
 20
2054.565198799706
 30
0.0
 11
2243.896846996306
 21
2075.565198799706
 31
0.0
 70
    32
 71
     5
 42
42.0
  3
MSP明朝寸法1
100
AcDbAlignedDimension
 13
2262.651522861934
 23
2096.565198799706
 33
0.0
 14
2260.444416080748
 24
2054.565198799706
 34
0.0
 50
90.0
100
AcDbRotatedDimension
1001
ACAD
1000
DSTYLE
1002
{
1070
   141
1040
2.5
1002
}
  0
DIMENSION
  5
171C
330
18
100
AcDbEntity
  8
sunpo
100
AcDbDimension
  2
*D9
 10
4240.997031746142
 20
2777.383094469913
 30
0.0
 11
2840.997031746142
 21
2799.883094469914
 31
0.0
 70
    32
  1
3600
 71
     5
 42
2800.0
  3
MSP明朝寸法1
100
AcDbAlignedDimension
 13
1440.997031746142
 23
2927.383094469913
 33
0.0
 14
4240.997031746142
 24
2927.383094469913
 34
0.0
100
AcDbRotatedDimension
1001
ACAD
1000
DSTYLE
1002
{
1070
    40
1040
10.0
1070
   141
1040
2.5
1002
}
  0
DIMENSION
  5
1734
330
18
100
AcDbEntity
  8
sunpo
100
AcDbDimension
  2
*D10
 10
1360.997031746142
 20
2927.383094469913
 30
0.0
 11
1338.497031746141
 21
3252.383094469914
 31
0.0
 70
    32
 71
     5
 42
650.0
  3
MSP明朝寸法1
100
AcDbAlignedDimension
 13
1440.997031746142
 23
3577.383094469913
 33
0.0
 14
1440.997031746142
 24
2927.383094469913
 34
0.0
 50
90.0
100
AcDbRotatedDimension
1001
ACAD
1000
DSTYLE
1002
{
1070
    40
1040
10.0
1070
   141
1040
2.5
1002
}
  0
DIMENSION
  5
1D79
330
18
100
AcDbEntity
  8
sunpo
100
AcDbDimension
  2
*D11
 10
2545.444416080749
 20
2136.087233099694
 30
0.0
 11
2544.444416080748
 21
2136.087233099694
 31
0.0
 70
   160
 71
     5
 42
2.0
  3
MSP明朝寸法1
100
AcDbAlignedDimension
 13
2543.444416080749
 23
2124.565198799706
 33
0.0
 14
2545.444416080749
 24
2124.565198799706
 34
0.0
100
AcDbRotatedDimension
1001
ACAD
1000
DSTYLE
1002
{
1070
   175
1070
     0
1070
   343
1005
1E11
1070
   141
1040
0.0
1070
   172
1070
     1
1070
   288
1070
     1
1002
}
  0
DIMENSION
  5
1D87
330
18
100
AcDbEntity
  8
sunpo
100
AcDbDimension
  2
*D12
 10
2530.760012161538
 20
2123.565198799706
 30
0.0
 11
2530.760012161538
 21
2130.077839249144
 31
0.0
 70
   160
 71
     5
  3
MSP明朝寸法1
100
AcDbAlignedDimension
 13
2545.444416080749
 23
2124.565198799706
 33
0.0
 14
2543.392008301466
 24
2123.565198799706
 34
0.0
 50
90.0
100
AcDbRotatedDimension
1001
ACAD
1000
DSTYLE
1002
{
1070
   141
1040
0.0
1070
   172
1070
     1
1070
   288
1070
     1
1002
}
  0
DIMENSION
  5
1DA8
330
18
100
AcDbEntity
  8
sunpo
100
AcDbDimension
  2
*D13
 10
2543.444416080749
 20
2130.087233099694
 30
0.0
 11
2533.796944170636
 21
2130.087233099694
 31
0.0
 70
   160
 71
     5
 42
4.0
  3
MSP明朝寸法1
100
AcDbAlignedDimension
 13
2539.444416080749
 23
2094.565198799706
 33
0.0
 14
2543.444416080749
 24
2114.565198799706
 34
0.0
100
AcDbRotatedDimension
1001
ACAD
1000
DSTYLE
1002
{
1070
   344
1005
1E11
1070
   141
1040
0.0
1070
   172
1070
     1
1070
   288
1070
     1
1002
}
  0
DIMENSION
  5
1DC0
330
18
100
AcDbEntity
  8
sunpo
100
AcDbDimension
  2
*D14
 10
2529.661444289297
 20
2094.565198799706
 30
0.0
 11
2529.661444289297
 21
2096.065198799706
 31
0.0
 70
   160
 71
     5
 42
3.0
  3
MSP明朝寸法1
100
AcDbAlignedDimension
 13
2542.553483832937
 23
2097.565198799706
 33
0.0
 14
2535.275672133335
 24
2094.565198799706
 34
0.0
 50
90.0
100
AcDbRotatedDimension
1001
ACAD
1000
DSTYLE
1002
{
1070
    46
1040
0.0
1070
   282
1070
     0
1070
   281
1070
     0
1070
   175
1070
     0
1070
   141
1040
0.0
1070
   172
1070
     1
1070
   288
1070
     1
1002
}
  0
DIMENSION
  5
25C0
330
18
100
AcDbEntity
  8
sunpo
100
AcDbDimension
  2
*D16
 10
2252.64839302136
 20
2093.565198799706
 30
0.0
 11
2252.648393021359
 21
2095.065198799706
 31
0.0
 70
   160
 71
     5
 42
3.0
  3
MSP明朝寸法1
100
AcDbAlignedDimension
 13
2268.444416080748
 23
2096.565198799706
 33
0.0
 14
2260.444416080748
 24
2093.565198799706
 34
0.0
 50
90.0
100
AcDbRotatedDimension
1001
ACAD
1000
DSTYLE
1002
{
1070
   141
1040
0.0
1070
   172
1070
     1
1070
   288
1070
     1
1002
}
  0
DIMENSION
  5
25E7
330
18
100
AcDbEntity
  8
sunpo
100
AcDbDimension
  2
*D17
 10
2285.444416080748
 20
2113.489400057623
 30
0.0
 11
2272.944416080748
 21
2113.489400057623
 31
0.0
 70
   160
 71
     5
 42
25.0
  3
MSP明朝寸法1
100
AcDbAlignedDimension
 13
2260.444416080748
 23
2093.218698565624
 33
0.0
 14
2285.444416080748
 24
2093.652216529004
 34
0.0
100
AcDbRotatedDimension
1001
ACAD
1000
DSTYLE
1002
{
1070
   141
1040
0.0
1070
   172
1070
     0
1070
   288
1070
     1
1002
}
  0
DIMENSION
  5
2640
330
18
100
AcDbEntity
  8
sunpo
100
AcDbDimension
  2
*D18
 10
2266.444416080748
 20
2044.944992058471
 30
0.0
 11
2263.194416080748
 21
2044.944992058471
 31
0.0
 70
   160
 71
     5
 42
6.000000000000454
  3
MSP明朝寸法1
100
AcDbAlignedDimension
 13
2260.444416080748
 23
2054.565198799706
 33
0.0
 14
2266.444416080748
 24
2055.565198799706
 34
0.0
100
AcDbRotatedDimension
1001
ACAD
1000
DSTYLE
1002
{
1070
   141
1040
0.0
1070
   172
1070
     1
1070
   288
1070
     1
1002
}
  0
DIMENSION
  5
266B
330
18
100
AcDbEntity
  8
sunpo
100
AcDbDimension
  2
*D19
 10
2573.266286578709
 20
2054.565198799706
 30
0.0
 11
2573.266286578709
 21
2071.565198799706
 31
0.0
 70
   160
 71
     5
 42
34.0
  3
MSP明朝寸法1
100
AcDbAlignedDimension
 13
2538.655799958622
 23
2088.565198799706
 33
0.0
 14
2555.444416080748
 24
2054.565198799706
 34
0.0
 50
90.0
100
AcDbRotatedDimension
1001
ACAD
1000
DSTYLE
1002
{
1070
   141
1040
0.0
1070
   172
1070
     0
1070
   288
1070
     1
1002
}
  0
DIMENSION
  5
2678
330
18
100
AcDbEntity
  8
sunpo
100
AcDbDimension
  2
*D20
 10
2573.266286578708
 20
2088.565198799706
 30
0.0
 11
2573.266286578708
 21
2100.561962853905
 31
0.0
 70
   160
 71
     5
 42
36.0
  3
MSP明朝寸法1
100
AcDbAlignedDimension
 13
2555.444416080748
 23
2124.565198799706
 33
0.0
 14
2555.444416080748
 24
2088.565198799706
 34
0.0
 50
90.0
100
AcDbRotatedDimension
1001
ACAD
1000
DSTYLE
1002
{
1070
   141
1040
0.0
1070
   172
1070
     0
1070
   288
1070
     1
1002
}
  0
DIMENSION
  5
26B2
330
18
100
AcDbEntity
  8
sunpo
100
AcDbDimension
  2
*D21
 10
2514.775608242329
 20
2088.565198799706
 30
0.0
 11
2514.775608242328
 21
2091.829480818483
 31
0.0
 70
   160
 71
     5
 42
6.0
  3
MSP明朝寸法1
100
AcDbAlignedDimension
 13
2532.775672133335
 23
2094.565198799706
 33
0.0
 14
2537.24251876777
 24
2088.565198799706
 34
0.0
 50
90.0
100
AcDbRotatedDimension
1001
ACAD
1000
DSTYLE
1002
{
1070
   141
1040
0.0
1070
   172
1070
     1
1070
   288
1070
     1
1002
}
  0
DIMENSION
  5
26E0
330
18
100
AcDbEntity
  8
sunpo
100
AcDbDimension
  2
*D22
 10
2565.049472963
 20
2088.565198799706
 30
0.0
 11
2565.049472963
 21
2103.565198799706
 31
0.0
 70
   160
 71
     5
 42
30.5
  3
MSP明朝寸法1
100
AcDbAlignedDimension
 13
2555.444416080748
 23
2119.065198799706
 33
0.0
 14
2555.444416080748
 24
2088.565198799706
 34
0.0
 50
90.0
100
AcDbRotatedDimension
1001
ACAD
1000
DSTYLE
1002
{
1070
   141
1040
0.0
1070
   172
1070
     0
1070
   288
1070
     1
1002
}
  0
LINE
  5
274A
330
18
100
AcDbEntity
  8
0
100
AcDbLine
 10
4416.301693312037
 20
2958.245232901101
 30
0.0
 11
4416.301693312036
 21
3432.707419106873
 31
0.0
  0
LINE
  5
274B
330
18
100
AcDbEntity
  8
0
100
AcDbLine
 10
4422.301693312035
 20
2935.383094469912
 30
0.0
 11
4422.301693312036
 21
3431.649457222622
 31
0.0
  0
LINE
  5
2752
330
18
100
AcDbEntity
  8
0
100
AcDbLine
 10
4422.301693312036
 20
3431.649457222622
 30
0.0
 11
4422.301693312036
 21
3561.339419720712
 31
0.0
  0
LINE
  5
2753
330
18
100
AcDbEntity
  8
0
100
AcDbLine
 10
4416.301693312036
 20
3432.707419106873
 30
0.0
 11
4416.301693312036
 21
3561.008975306518
 31
0.0
  0
LINE
  5
2768
330
18
100
AcDbEntity
  8
0
370
    13
100
AcDbLine
 10
2828.768625595023
 20
2935.383094469913
 30
0.0
 11
1440.997031746142
 21
2935.383094469913
 31
0.0
  0
LINE
  5
2769
330
18
100
AcDbEntity
  8
0
370
    13
100
AcDbLine
 10
2831.984015904197
 20
2947.383094469913
 30
0.0
 11
1440.997031746142
 21
2947.383094469913
 31
0.0
  0
LINE
  5
276A
330
18
100
AcDbEntity
  8
0
370
    13
100
AcDbLine
 10
4240.997031746142
 20
2935.383094469913
 30
0.0
 11
2849.474149203225
 21
2935.383094469913
 31
0.0
  0
DIMENSION
  5
286B
330
18
100
AcDbEntity
  8
sunpo
100
AcDbDimension
  2
*D23
 10
2302.761299469185
 20
2054.565198799706
 30
0.0
 11
2302.761299469184
 21
2075.806862659268
 31
0.0
 70
   160
 71
     5
 42
34.00000000000045
  3
MSP明朝寸法1
100
AcDbAlignedDimension
 13
2268.444416080747
 23
2088.565198799706
 33
0.0
 14
2265.444416080748
 24
2054.565198799706
 34
0.0
 50
90.0
100
AcDbRotatedDimension
1001
ACAD
1000
DSTYLE
1002
{
1070
   141
1040
0.0
1070
   172
1070
     0
1070
   288
1070
     1
1002
}
  0
ARC
  5
3612
330
18
100
AcDbEntity
  8
0
100
AcDbCircle
 10
2291.306554511934
 20
2194.565198799705
 30
0.0
 40
100.0
100
AcDbArc
 50
263.2901631922409
 51
270.000000000001
  0
LINE
  5
3616
330
18
100
AcDbEntity
  8
0
100
AcDbLine
 10
2268.444416080747
 20
2088.565198799706
 30
0.0
 11
2405.649072385914
 21
2088.565198799706
 31
0.0
  0
LINE
  5
361A
330
18
100
AcDbEntity
  8
0
100
AcDbLine
 10
2268.904972006481
 20
2096.51101574962
 30
0.0
 11
2279.62242975519
 21
2095.250138367418
 31
0.0
  0
ARC
  5
361B
330
18
100
AcDbEntity
  8
0
100
AcDbCircle
 10
2334.653082563705
 20
1907.842088178488
 30
0.0
 40
200.0
100
AcDbArc
 50
109.465632544908
 51
111.58509988013
  0
ARC
  5
361C
330
18
100
AcDbEntity
  8
0
100
AcDbCircle
 10
2268.671289511345
 20
2094.524714540974
 30
0.0
 40
2.0
100
AcDbArc
 50
83.29016319222937
 51
109.4656325449134
  0
LINE
  5
361E
330
18
100
AcDbEntity
  8
0
100
AcDbLine
 10
2260.444416080747
 20
2092.886653491245
 30
0.0
 11
2260.444416080748
 21
2054.565198799706
 31
0.0
  0
ARC
  5
3622
330
18
100
AcDbEntity
  8
0
100
AcDbCircle
 10
2261.444416080748
 20
2092.886653491245
 30
0.0
 40
1.0
100
AcDbArc
 50
111.5850998801257
 51
180.0
  0
LINE
  5
3624
330
18
100
AcDbEntity
  8
0
100
AcDbLine
 10
2266.444416080747
 20
2086.565198799706
 30
0.0
 11
2266.444416080748
 21
2055.565198799706
 31
0.0
  0
ARC
  5
3626
330
18
100
AcDbEntity
  8
0
100
AcDbCircle
 10
2265.444416080748
 20
2055.565198799706
 30
0.0
 40
1.0
100
AcDbArc
 50
270.0
 51
0.0000000000009033
  0
ARC
  5
3627
330
18
100
AcDbEntity
  8
0
100
AcDbCircle
 10
2268.444416080747
 20
2086.565198799706
 30
0.0
 40
2.0
100
AcDbArc
 50
90.0
 51
180.0000000000017
  0
LINE
  5
3629
330
18
100
AcDbEntity
  8
0
100
AcDbLine
 10
2260.444416080748
 20
2054.565198799706
 30
0.0
 11
2265.444416080748
 21
2054.565198799706
 31
0.0
  0
LINE
  5
362A
330
18
100
AcDbEntity
  8
0
100
AcDbLine
 10
2291.306554511936
 20
2094.565198799705
 30
0.0
 11
2406.707034270165
 21
2094.565198799706
 31
0.0
  0
LINE
  5
3804
330
18
100
AcDbEntity
  8
0
100
AcDbLine
 10
2543.444416080749
 20
2123.043009754065
 30
0.0
 11
2543.444416080749
 21
2098.068455890842
 31
0.0
  0
LINE
  5
3805
330
18
100
AcDbEntity
  8
0
100
AcDbLine
 10
2549.444416080748
 20
2118.565198799706
 30
0.0
 11
2549.444416080749
 21
2097.565198799707
 31
0.0
  0
LINE
  5
3806
330
18
100
AcDbEntity
  8
0
100
AcDbLine
 10
2547.019385580176
 20
2092.746527501707
 30
0.0
 11
2542.975710830973
 21
2089.746527501706
 31
0.0
  0
ARC
  5
3807
330
18
100
AcDbEntity
  8
0
100
AcDbCircle
 10
2539.400741331546
 20
2094.565198799706
 30
0.0
 40
6.0
100
AcDbArc
 50
269.999999999999
 51
306.5716987033453
  0
ARC
  5
3808
330
18
100
AcDbEntity
  8
0
100
AcDbCircle
 10
2543.444416080749
 20
2097.565198799707
 30
0.0
 40
6.0
100
AcDbArc
 50
306.5716987033441
 51
0.0000000000012468
  0
LINE
  5
3809
330
18
100
AcDbEntity
  8
0
100
AcDbLine
 10
2543.040244330653
 20
2097.265344007842
 30
0.0
 11
2539.666125167257
 21
2094.762086916706
 31
0.0
  0
ARC
  5
380A
330
18
100
AcDbEntity
  8
0
100
AcDbCircle
 10
2542.444416080749
 20
2098.068455890842
 30
0.0
 40
1.0
100
AcDbArc
 50
306.5716987033356
 51
0.0
  0
ARC
  5
380B
330
18
100
AcDbEntity
  8
0
100
AcDbCircle
 10
2539.070296917353
 20
2095.565198799706
 30
0.0
 40
1.0
100
AcDbArc
 50
270.0
 51
306.5716987033404
  0
LINE
  5
380C
330
18
100
AcDbEntity
  8
0
100
AcDbLine
 10
2555.444416080748
 20
2124.565198799706
 30
0.0
 11
2555.444416080748
 21
2119.065198799706
 31
0.0
  0
LINE
  5
380D
330
18
100
AcDbEntity
  8
0
100
AcDbLine
 10
2545.675071527149
 20
2124.565198799706
 30
0.0
 11
2555.444416080748
 21
2124.565198799706
 31
0.0
  0
LINE
  5
380E
330
18
100
AcDbEntity
  8
0
100
AcDbLine
 10
2549.944416080748
 20
2119.065198799706
 30
0.0
 11
2555.444416080748
 21
2119.065198799706
 31
0.0
  0
ARC
  5
380F
330
18
100
AcDbEntity
  8
0
100
AcDbCircle
 10
2549.944416080748
 20
2118.565198799706
 30
0.0
 40
0.5
100
AcDbArc
 50
90.0
 51
180.0
  0
ARC
  5
3810
330
18
100
AcDbEntity
  8
0
100
AcDbCircle
 10
2543.944416080749
 20
2123.278158456405
 30
0.0
 40
0.5
100
AcDbArc
 50
115.9768538084161
 51
180.0
  0
LINE
  5
3811
330
18
100
AcDbEntity
  8
0
100
AcDbLine
 10
2545.23706350847
 20
2124.464169864631
 30
0.0
 11
2543.725412071409
 21
2123.727643988867
 31
0.0
  0
ARC
  5
3812
330
18
100
AcDbEntity
  8
0
100
AcDbCircle
 10
2545.675071527149
 20
2123.565198799706
 30
0.0
 40
1.0
100
AcDbArc
 50
90.0
 51
115.976853808428
  0
ARC
  5
3904
330
18
100
AcDbEntity
  8
0
100
AcDbCircle
 10
4316.301693312037
 20
2958.245232901099
 30
0.0
 40
100.0
100
AcDbArc
 50
353.2901631922409
 51
0.0000000000010392
  0
ARC
  5
3905
330
18
100
AcDbEntity
  8
0
100
AcDbCircle
 10
4416.342177570768
 20
2935.609967900511
 30
0.0
 40
2.0
100
AcDbArc
 50
173.2901631922293
 51
199.4656325449134
  0
ARC
  5
3906
330
18
100
AcDbEntity
  8
0
100
AcDbCircle
 10
4417.980238620497
 20
2928.383094469913
 30
0.0
 40
1.0
100
AcDbArc
 50
201.5850998801257
 51
270.0
  0
ARC
  5
3907
330
18
100
AcDbEntity
  8
0
100
AcDbCircle
 10
4603.024803933254
 20
3001.59176095287
 30
0.0
 40
200.0
100
AcDbArc
 50
199.465632544908
 51
201.58509988013
  0
ARC
  5
3908
330
18
100
AcDbEntity
  8
0
100
AcDbCircle
 10
4424.301693312035
 20
2935.383094469912
 30
0.0
 40
2.0
100
AcDbArc
 50
180.0
 51
270.0000000000017
  0
LINE
  5
3909
330
18
100
AcDbEntity
  8
0
100
AcDbLine
 10
4414.355876362122
 20
2935.843650395646
 30
0.0
 11
4415.616753744324
 21
2946.561108144356
 31
0.0
  0
ARC
  5
390A
330
18
100
AcDbEntity
  8
0
100
AcDbCircle
 10
4455.301693312036
 20
2932.383094469914
 30
0.0
 40
1.0
100
AcDbArc
 50
0.0
 51
90.0000000000009
  0
LINE
  5
390B
330
18
100
AcDbEntity
  8
0
100
AcDbLine
 10
4456.301693312036
 20
2927.383094469913
 30
0.0
 11
4456.301693312036
 21
2932.383094469914
 31
0.0
  0
LINE
  5
390C
330
18
100
AcDbEntity
  8
0
100
AcDbLine
 10
4424.301693312035
 20
2933.383094469912
 30
0.0
 11
4455.301693312036
 21
2933.383094469914
 31
0.0
  0
LINE
  5
390D
330
18
100
AcDbEntity
  8
0
100
AcDbLine
 10
4417.980238620497
 20
2927.383094469913
 30
0.0
 11
4456.301693312036
 21
2927.383094469913
 31
0.0
  0
LINE
  5
390F
102
{ACAD_REACTORS
330
391E
102
}
330
18
100
AcDbEntity
  8
0
100
AcDbLine
 10
4392.301693312036
 20
3571.383094469913
 30
0.0
 11
4413.301693312035
 21
3571.383094469914
 31
0.0
  0
LINE
  5
3910
102
{ACAD_REACTORS
330
391E
102
}
330
18
100
AcDbEntity
  8
0
100
AcDbLine
 10
4387.823882357676
 20
3565.383094469913
 30
0.0
 11
4412.798436220899
 21
3565.383094469913
 31
0.0
  0
ARC
  5
3911
102
{ACAD_REACTORS
330
391E
102
}
330
18
100
AcDbEntity
  8
0
100
AcDbCircle
 10
4416.301693312036
 20
3561.339419720712
 30
0.0
 40
6.0
100
AcDbArc
 50
359.999999999999
 51
36.57169870334535
  0
ARC
  5
3912
102
{ACAD_REACTORS
330
391E
102
}
330
18
100
AcDbEntity
  8
0
100
AcDbCircle
 10
4413.301693312035
 20
3565.383094469915
 30
0.0
 40
6.0
100
AcDbArc
 50
36.57169870334407
 51
90.00000000000124
  0
LINE
  5
3913
102
{ACAD_REACTORS
330
391E
102
}
330
18
100
AcDbEntity
  8
0
100
AcDbLine
 10
4418.120364610035
 20
3568.958063969341
 30
0.0
 11
4421.120364610035
 21
3564.914389220138
 31
0.0
  0
ARC
  5
3914
102
{ACAD_REACTORS
330
391E
102
}
330
18
100
AcDbEntity
  8
0
100
AcDbCircle
 10
4415.301693312036
 20
3561.008975306518
 30
0.0
 40
1.0
100
AcDbArc
 50
0.0
 51
36.57169870334048
  0
ARC
  5
3915
102
{ACAD_REACTORS
330
391E
102
}
330
18
100
AcDbEntity
  8
0
100
AcDbCircle
 10
4412.798436220899
 20
3564.383094469914
 30
0.0
 40
1.0
100
AcDbArc
 50
36.5716987033356
 51
90.0
  0
LINE
  5
3916
102
{ACAD_REACTORS
330
391E
102
}
330
18
100
AcDbEntity
  8
0
100
AcDbLine
 10
4413.601548103899
 20
3564.978922719818
 30
0.0
 11
4416.104805195035
 21
3561.604803556422
 31
0.0
  0
ARC
  5
3917
102
{ACAD_REACTORS
330
391E
102
}
330
18
100
AcDbEntity
  8
0
100
AcDbCircle
 10
4387.301693312036
 20
3567.613749916315
 30
0.0
 40
1.0
100
AcDbArc
 50
180.0
 51
205.976853808428
  0
ARC
  5
3918
102
{ACAD_REACTORS
330
391E
102
}
330
18
100
AcDbEntity
  8
0
100
AcDbCircle
 10
4392.301693312036
 20
3571.883094469914
 30
0.0
 40
0.5
100
AcDbArc
 50
180.0
 51
270.0
  0
LINE
  5
3919
102
{ACAD_REACTORS
330
391E
102
}
330
18
100
AcDbEntity
  8
0
100
AcDbLine
 10
4386.301693312036
 20
3567.613749916314
 30
0.0
 11
4386.301693312036
 21
3577.383094469913
 31
0.0
  0
LINE
  5
391A
102
{ACAD_REACTORS
330
391E
102
}
330
18
100
AcDbEntity
  8
0
100
AcDbLine
 10
4391.801693312036
 20
3571.883094469913
 30
0.0
 11
4391.801693312036
 21
3577.383094469913
 31
0.0
  0
LINE
  5
391B
102
{ACAD_REACTORS
330
391E
102
}
330
18
100
AcDbEntity
  8
0
100
AcDbLine
 10
4386.301693312036
 20
3577.383094469913
 30
0.0
 11
4391.801693312036
 21
3577.383094469913
 31
0.0
  0
LINE
  5
391C
102
{ACAD_REACTORS
330
391E
102
}
330
18
100
AcDbEntity
  8
0
100
AcDbLine
 10
4386.402722247111
 20
3567.175741897635
 30
0.0
 11
4387.139248122875
 21
3565.664090460574
 31
0.0
  0
ARC
  5
391D
102
{ACAD_REACTORS
330
391E
102
}
330
18
100
AcDbEntity
  8
0
100
AcDbCircle
 10
4387.588733655337
 20
3565.883094469914
 30
0.0
 40
0.5
100
AcDbArc
 50
205.9768538084161
 51
270.0
  0
LINE
  5
391F
330
18
100
AcDbEntity
  8
0
100
AcDbLine
 10
4240.997031746142
 20
2952.383094469913
 30
0.0
 11
2847.330555663776
 21
2952.383094469913
 31
0.0
  0
VIEWPORT
  5
47
330
15
100
AcDbEntity
 67
     1
  8
0
100
AcDbViewport
 10
300.6766379511692
 20
146.4361109139365
 30
0.0
 40
670.944013396568
 41
299.6309803416297
 68
     1
 69
     1
 12
300.6766379511692
 22
146.4361109139365
 13
0.0
 23
0.0
 14
5.0
 24
5.0
 15
5.0
 25
5.0
 16
0.0
 26
0.0
 36
1.0
 17
0.0
 27
0.0
 37
0.0
 42
50.0
 43
0.0
 44
0.0
 45
299.6309803416297
 50
0.0
 51
0.0
 72
   100
 90
    32800
  1

281
     0
 71
     1
 74
     0
110
1000.0
120
1000.0
130
0.0
111
1.0
121
0.0
131
0.0
112
0.0
122
1.0
132
0.0
 79
     0
146
0.0
  0
TEXT
  5
638
330
15
100
AcDbEntity
 67
     1
  8
ﾃｷｽﾄ
  6
Continuous
 62
     3
100
AcDbText
 10
258.35400390625
 20
22.69371541341133
 30
0.0
 40
5.0468565623
  1
   
 41
0.6466754489000001
  7
BIGFONT
100
AcDbText
  0
TEXT
  5
649
330
15
100
AcDbEntity
 67
     1
  8
ﾃｷｽﾄ
 62
     3
100
AcDbText
 10
1047.0
 20
69.0
 30
0.0
 40
9.0
  1
 
100
AcDbText
  0
TEXT
  5
652
330
15
100
AcDbEntity
 67
     1
  8
ﾃｷｽﾄ
 62
     3
100
AcDbText
 10
1141.800048828125
 20
111.0
 30
0.0
 40
15.0
  1
 
 41
1.6
100
AcDbText
  0
TEXT
  5
653
330
15
100
AcDbEntity
 67
     1
  8
ﾃｷｽﾄ
 62
     3
100
AcDbText
 10
1141.800048828125
 20
87.0
 30
0.0
 40
15.0
  1
 
 41
1.6
100
AcDbText
  0
TEXT
  5
654
330
15
100
AcDbEntity
 67
     1
  8
ﾃｷｽﾄ
 62
     3
100
AcDbText
 10
774.0
 20
69.0
 30
0.0
 40
15.0
  1
 
 41
0.8
100
AcDbText
  0
TEXT
  5
655
330
15
100
AcDbEntity
 67
     1
  8
ﾃｷｽﾄ
 62
     3
100
AcDbText
 10
957.0
 20
69.0
 30
0.0
 40
15.0
  1
 
 41
0.8
100
AcDbText
  0
TEXT
  5
656
330
15
100
AcDbEntity
 67
     1
  8
ﾃｷｽﾄ
 62
     3
100
AcDbText
 10
957.0
 20
84.0
 30
0.0
 40
15.0
  1
 
 41
0.8
100
AcDbText
  0
TEXT
  5
657
330
15
100
AcDbEntity
 67
     1
  8
ﾃｷｽﾄ
 62
     3
100
AcDbText
 10
774.0
 20
105.0
 30
0.0
 40
15.0
  1
 
 41
0.8
100
AcDbText
  0
TEXT
  5
775
330
15
100
AcDbEntity
 67
     1
  8
ﾃｷｽﾄ
 62
     5
100
AcDbText
 10
258.0
 20
35.0
 30
0.0
 40
5.0
  1
     
 41
0.7
100
AcDbText
  0
MTEXT
  5
BBD
330
15
100
AcDbEntity
 67
     1
  8
0
 62
     3
100
AcDbMText
 10
45.0884133511172
 20
169.5732011223643
 30
0.0
 40
3.5
 41
0.0
 71
     1
 72
     5
  1
平面図　Ｓ＝（１／１０）
  7
MSP明朝W1
 73
     1
 44
1.0
1001
ACAD
1000
MTEXTBEGIN
1070
    73
1070
     1
1070
    44
1040
1.0
1070
    74
1070
     0
1000
MTEXTEND
  0
LINE
  5
BC3
330
15
100
AcDbEntity
 67
     1
  8
0
 62
     3
100
AcDbLine
 10
45.38475224230569
 20
164.0621172084997
 30
0.0
 11
90.37017902198636
 21
164.0621172084997
 31
0.0
  0
LINE
  5
BC4
330
15
100
AcDbEntity
 67
     1
  8
0
 62
     3
100
AcDbLine
 10
45.38475224230569
 20
163.5621172084997
 30
0.0
 11
90.37017902198636
 21
163.5621172084997
 31
0.0
  0
VIEWPORT
  5
1852
330
15
100
AcDbEntity
 67
     1
  8
VEW枠1
100
AcDbViewport
 10
213.6282244782191
 20
223.3757002804076
 30
0.0
 40
369.682575198798
 41
109.6828363256236
 68
     3
 69
     2
 12
3049.36226476207
 22
3266.621767990371
 13
0.0
 23
0.0
 14
10.0
 24
10.0
 15
10.0
 25
10.0
 16
0.0
 26
0.0
 36
1.0
 17
0.0
 27
0.0
 37
0.0
 42
50.0
 43
0.0
 44
0.0
 45
1096.828364439859
 50
0.0
 51
0.0
 72
   100
 90
    32800
  1

281
     0
 71
     1
 74
     0
110
1000.0
120
1000.0
130
0.0
111
1.0
121
0.0
131
0.0
112
0.0
122
1.0
132
0.0
 79
     0
146
0.0
  0
MTEXT
  5
1853
330
15
100
AcDbEntity
 67
     1
  8
VEW枠1
100
AcDbMText
 10
41.78181296184379
 20
182.9529673745687
 30
0.0
 40
5.0
 41
0.0
 71
     1
 72
     5
  1
Vew1
  7
MSP明朝1
 73
     1
 44
1.0
1001
ACAD
1000
MTEXTBEGIN
1070
    73
1070
     1
1070
    44
1040
1.0
1070
    74
1070
     0
1000
MTEXTEND
  0
VIEWPORT
  5
1855
330
15
100
AcDbEntity
 67
     1
  8
VEW枠2
100
AcDbViewport
 10
214.2553977265157
 20
102.4381623087101
 30
0.0
 40
368.4282287022049
 41
121.2233360353863
 68
     2
 69
     3
 12
2419.351365923679
 22
2088.530085368746
 13
0.0
 23
0.0
 14
10.0
 24
10.0
 15
10.0
 25
10.0
 16
0.0
 26
0.0
 36
1.0
 17
0.0
 27
0.0
 37
0.0
 42
50.0
 43
0.0
 44
0.0
 45
121.2233411414316
 50
0.0
 51
0.0
 72
   100
 90
    32800
  1

281
     0
 71
     1
 74
     0
110
1000.0
120
1000.0
130
0.0
111
1.0
121
0.0
131
0.0
112
0.0
122
1.0
132
0.0
 79
     0
146
0.0
  0
MTEXT
  5
1856
330
15
100
AcDbEntity
 67
     1
  8
VEW枠2
100
AcDbMText
 10
41.78181296184379
 20
55.18692941378367
 30
0.0
 40
5.0
 41
0.0
 71
     1
 72
     5
  1
Vew2
  7
MSP明朝1
 73
     1
 44
1.0
1001
ACAD
1000
MTEXTBEGIN
1070
    73
1070
     1
1070
    44
1040
1.0
1070
    74
1070
     0
1000
MTEXTEND
  0
LINE
  5
19B3
330
15
100
AcDbEntity
 67
     1
  8
0
 62
     3
100
AcDbLine
 10
45.38475224230569
 20
39.36725003559263
 30
0.0
 11
87.34537919253853
 21
39.36725003559263
 31
0.0
  0
LINE
  5
19B4
330
15
100
AcDbEntity
 67
     1
  8
0
 62
     3
100
AcDbLine
 10
45.38475224230569
 20
38.86725003559263
 30
0.0
 11
87.34537919253853
 21
38.86725003559263
 31
0.0
  0
MTEXT
  5
19B5
330
15
100
AcDbEntity
 67
     1
  8
0
 62
     3
100
AcDbMText
 10
45.0884133511172
 20
44.87833394945721
 30
0.0
 40
3.5
 41
0.0
 71
     1
 72
     5
  1
断面図　Ｓ＝（１／１）
  7
MSP明朝W1
 73
     1
 44
1.0
1001
ACAD
1000
MTEXTBEGIN
1070
    73
1070
     1
1070
    44
1040
1.0
1070
    74
1070
     0
1000
MTEXTEND
  0
LINE
  5
1B38
330
15
100
AcDbEntity
 67
     1
  8
ﾀｲﾄﾙ枠
  6
Continuous
100
AcDbLine
 10
20.1301837250387
 20
285.0396592918358
 30
0.0
 11
406.1301837250387
 21
285.0396592918358
 31
0.0
  0
LINE
  5
1B39
330
15
100
AcDbEntity
 67
     1
  8
ﾀｲﾄﾙ枠
  6
Continuous
100
AcDbLine
 10
406.1301837250387
 20
5.039659291835846
 30
0.0
 11
20.1301837250387
 21
5.039659291835846
 31
0.0
  0
LINE
  5
1B3A
330
15
100
AcDbEntity
 67
     1
  8
ﾀｲﾄﾙ枠
100
AcDbLine
 10
20.1301837250387
 20
285.0396592918358
 30
0.0
 11
20.1301837250387
 21
5.039659291835846
 31
0.0
  0
LINE
  5
1B3B
330
15
100
AcDbEntity
 67
     1
  8
ﾀｲﾄﾙ枠
  6
Continuous
100
AcDbLine
 10
406.1301837250387
 20
285.0396592918358
 30
0.0
 11
406.1301837250387
 21
5.039659291835846
 31
0.0
  0
LINE
  5
1B3D
330
15
100
AcDbEntity
 67
     1
  8
ﾀｲﾄﾙ枠
100
AcDbLine
 10
321.1301837250386
 20
29.2739657731089
 30
0.0
 11
406.1301837250387
 21
29.2739657731089
 31
0.0
  0
LINE
  5
1B3E
330
15
100
AcDbEntity
 67
     1
  8
ﾀｲﾄﾙ枠
100
AcDbLine
 10
321.1301837250386
 20
17.27396577310889
 30
0.0
 11
406.1301837250387
 21
17.27396577310889
 31
0.0
  0
MTEXT
  5
1B40
330
15
100
AcDbEntity
 67
     1
  8
ﾀｲﾄﾙ枠
370
    30
100
AcDbMText
 10
322.8258546022532
 20
28.13328640031363
 30
0.0
 40
2.5
 41
11.5
 71
     1
 72
     5
  1
{\fＭＳ Ｐ明朝|b0|i0|c128|p18;製品名}
 73
     1
 44
1.0
1001
ACAD
1000
MTEXTBEGIN
1070
    73
1070
     1
1070
    44
1040
1.0
1070
    74
1070
     0
1000
MTEXTEND
1000
MTEXTBEGIN
1070
    73
1070
     1
1070
    44
1040
1.0
1070
    74
1070
     0
1000
MTEXTEND
  0
LINE
  5
1B42
330
15
100
AcDbEntity
 67
     1
  8
ﾀｲﾄﾙ枠
100
AcDbLine
 10
321.1301837250386
 20
5.273965773108898
 30
0.0
 11
321.1301837250386
 21
29.2739657731089
 31
0.0
  0
LINE
  5
1B43
102
{ACAD_REACTORS
330
3C09
102
}
330
15
100
AcDbEntity
 67
     1
  8
ﾀｲﾄﾙ枠
  6
Continuous
370
    40
100
AcDbLine
 10
364.3551764338945
 20
8.733613440053545
 30
0.0
 11
363.8151764338946
 21
8.733613440053545
 31
0.0
  0
LINE
  5
1B44
102
{ACAD_REACTORS
330
3C09
102
}
330
15
100
AcDbEntity
 67
     1
  8
ﾀｲﾄﾙ枠
  6
Continuous
370
    40
100
AcDbLine
 10
363.8151764338946
 20
13.82361344005357
 30
0.0
 11
364.3551764338945
 21
13.82361344005357
 31
0.0
  0
LINE
  5
1B45
102
{ACAD_REACTORS
330
3C09
102
}
330
15
100
AcDbEntity
 67
     1
  8
ﾀｲﾄﾙ枠
  6
Continuous
370
    40
100
AcDbLine
 10
364.7451764338946
 20
12.64361344005357
 30
0.0
 11
363.2951764338946
 21
12.64361344005357
 31
0.0
  0
LINE
  5
1B46
102
{ACAD_REACTORS
330
3C09
102
}
330
15
100
AcDbEntity
 67
     1
  8
ﾀｲﾄﾙ枠
  6
Continuous
370
    40
100
AcDbLine
 10
364.0976764338946
 20
12.64361344005357
 30
0.0
 11
364.7451764338946
 21
11.78028010672022
 31
0.0
  0
LINE
  5
1B47
102
{ACAD_REACTORS
330
3C09
102
}
330
15
100
AcDbEntity
 67
     1
  8
ﾀｲﾄﾙ枠
  6
Continuous
370
    40
100
AcDbLine
 10
339.2951764338946
 20
12.76361344005357
 30
0.0
 11
336.7601764338946
 21
12.76361344005357
 31
0.0
  0
LINE
  5
1B48
102
{ACAD_REACTORS
330
3C09
102
}
330
15
100
AcDbEntity
 67
     1
  8
ﾀｲﾄﾙ枠
  6
Continuous
370
    40
100
AcDbLine
 10
336.7601764338946
 20
12.91361344005355
 30
0.0
 11
339.2951764338946
 21
12.91361344005355
 31
0.0
  0
LINE
  5
1B49
102
{ACAD_REACTORS
330
3C09
102
}
330
15
100
AcDbEntity
 67
     1
  8
ﾀｲﾄﾙ枠
  6
Continuous
370
    40
100
AcDbLine
 10
338.1101764338946
 20
8.883613440053522
 30
0.0
 11
338.1101764338946
 21
10.55361344005353
 31
0.0
  0
LINE
  5
1B4A
102
{ACAD_REACTORS
330
3C09
102
}
330
15
100
AcDbEntity
 67
     1
  8
ﾀｲﾄﾙ枠
  6
Continuous
370
    40
100
AcDbLine
 10
338.5101764338946
 20
8.883613440053522
 30
0.0
 11
338.5101764338946
 21
10.55361344005353
 31
0.0
  0
LINE
  5
1B4B
102
{ACAD_REACTORS
330
3C09
102
}
330
15
100
AcDbEntity
 67
     1
  8
ﾀｲﾄﾙ枠
  6
Continuous
370
    40
100
AcDbLine
 10
337.8451764338946
 20
8.883613440053522
 30
0.0
 11
337.8451764338946
 21
10.55361344005353
 31
0.0
  0
LINE
  5
1B4C
102
{ACAD_REACTORS
330
3C09
102
}
330
15
100
AcDbEntity
 67
     1
  8
ﾀｲﾄﾙ枠
  6
Continuous
370
    40
100
AcDbLine
 10
338.3101764338946
 20
8.883613440053522
 30
0.0
 11
338.3101764338946
 21
10.55361344005353
 31
0.0
  0
LINE
  5
1B4D
102
{ACAD_REACTORS
330
3C09
102
}
330
15
100
AcDbEntity
 67
     1
  8
ﾀｲﾄﾙ枠
  6
Continuous
370
    40
100
AcDbLine
 10
338.7751764338946
 20
10.70361344005357
 30
0.0
 11
338.7751764338946
 21
8.733613440053545
 31
0.0
  0
LINE
  5
1B4E
102
{ACAD_REACTORS
330
3C09
102
}
330
15
100
AcDbEntity
 67
     1
  8
ﾀｲﾄﾙ枠
  6
Continuous
370
    40
100
AcDbLine
 10
338.7751764338946
 20
11.74361344005353
 30
0.0
 11
338.7751764338946
 21
11.59361344005356
 31
0.0
  0
LINE
  5
1B4F
102
{ACAD_REACTORS
330
3C09
102
}
330
15
100
AcDbEntity
 67
     1
  8
ﾀｲﾄﾙ枠
  6
Continuous
370
    40
100
AcDbLine
 10
333.2951764338946
 20
12.91361344005355
 30
0.0
 11
335.8301764338946
 21
12.91361344005355
 31
0.0
  0
LINE
  5
1B50
102
{ACAD_REACTORS
330
3C09
102
}
330
15
100
AcDbEntity
 67
     1
  8
ﾀｲﾄﾙ枠
  6
Continuous
370
    40
100
AcDbLine
 10
335.8301764338946
 20
12.76361344005357
 30
0.0
 11
333.2951764338946
 21
12.76361344005357
 31
0.0
  0
LINE
  5
1B51
102
{ACAD_REACTORS
330
3C09
102
}
330
15
100
AcDbEntity
 67
     1
  8
ﾀｲﾄﾙ枠
  6
Continuous
370
    40
100
AcDbLine
 10
333.8151764338946
 20
11.74361344005353
 30
0.0
 11
335.8301764338946
 21
11.74361344005353
 31
0.0
  0
LINE
  5
1B52
102
{ACAD_REACTORS
330
3C09
102
}
330
15
100
AcDbEntity
 67
     1
  8
ﾀｲﾄﾙ枠
  6
Continuous
370
    40
100
AcDbLine
 10
334.0801764338946
 20
10.55361344005353
 30
0.0
 11
334.0801764338946
 21
8.883613440053522
 31
0.0
  0
LINE
  5
1B53
102
{ACAD_REACTORS
330
3C09
102
}
330
15
100
AcDbEntity
 67
     1
  8
ﾀｲﾄﾙ枠
  6
Continuous
370
    40
100
AcDbLine
 10
334.4801764338946
 20
10.55361344005353
 30
0.0
 11
334.4801764338946
 21
8.883613440053522
 31
0.0
  0
LINE
  5
1B54
102
{ACAD_REACTORS
330
3C09
102
}
330
15
100
AcDbEntity
 67
     1
  8
ﾀｲﾄﾙ枠
  6
Continuous
370
    40
100
AcDbLine
 10
334.2801764338946
 20
10.55361344005353
 30
0.0
 11
334.2801764338946
 21
8.883613440053522
 31
0.0
  0
LINE
  5
1B55
102
{ACAD_REACTORS
330
3C09
102
}
330
15
100
AcDbEntity
 67
     1
  8
ﾀｲﾄﾙ枠
  6
Continuous
370
    40
100
AcDbLine
 10
334.7451764338946
 20
10.55361344005353
 30
0.0
 11
334.7451764338946
 21
8.883613440053522
 31
0.0
  0
LINE
  5
1B56
102
{ACAD_REACTORS
330
3C09
102
}
330
15
100
AcDbEntity
 67
     1
  8
ﾀｲﾄﾙ枠
  6
Continuous
370
    40
100
AcDbLine
 10
333.8151764338946
 20
8.733613440053545
 30
0.0
 11
333.8151764338946
 21
10.70361344005357
 31
0.0
  0
LINE
  5
1B57
102
{ACAD_REACTORS
330
3C09
102
}
330
15
100
AcDbEntity
 67
     1
  8
ﾀｲﾄﾙ枠
  6
Continuous
370
    40
100
AcDbLine
 10
333.2951764338946
 20
12.76361344005357
 30
0.0
 11
333.2951764338946
 21
12.91361344005355
 31
0.0
  0
LINE
  5
1B58
102
{ACAD_REACTORS
330
3C09
102
}
330
15
100
AcDbEntity
 67
     1
  8
ﾀｲﾄﾙ枠
  6
Continuous
370
    40
100
AcDbLine
 10
333.8151764338946
 20
11.59361344005356
 30
0.0
 11
333.8151764338946
 21
11.74361344005353
 31
0.0
  0
LINE
  5
1B59
102
{ACAD_REACTORS
330
3C09
102
}
330
15
100
AcDbEntity
 67
     1
  8
ﾀｲﾄﾙ枠
  6
Continuous
370
    40
100
AcDbLine
 10
336.0951764338945
 20
11.84361344005355
 30
0.0
 11
336.0951764338945
 21
13.57361344005357
 31
0.0
  0
LINE
  5
1B5A
102
{ACAD_REACTORS
330
3C09
102
}
330
15
100
AcDbEntity
 67
     1
  8
ﾀｲﾄﾙ枠
  6
Continuous
370
    40
100
AcDbLine
 10
336.4951764338946
 20
11.84361344005355
 30
0.0
 11
336.4951764338946
 21
13.57361344005357
 31
0.0
  0
LINE
  5
1B5B
102
{ACAD_REACTORS
330
3C09
102
}
330
15
100
AcDbEntity
 67
     1
  8
ﾀｲﾄﾙ枠
  6
Continuous
370
    40
100
AcDbLine
 10
336.2951764338946
 20
11.84361344005355
 30
0.0
 11
336.2951764338946
 21
13.57361344005357
 31
0.0
  0
LINE
  5
1B5C
102
{ACAD_REACTORS
330
3C09
102
}
330
15
100
AcDbEntity
 67
     1
  8
ﾀｲﾄﾙ枠
  6
Continuous
370
    40
100
AcDbLine
 10
336.7601764338946
 20
12.76361344005357
 30
0.0
 11
336.7601764338946
 21
11.74361344005353
 31
0.0
  0
LINE
  5
1B5D
102
{ACAD_REACTORS
330
3C09
102
}
330
15
100
AcDbEntity
 67
     1
  8
ﾀｲﾄﾙ枠
  6
Continuous
370
    40
100
AcDbLine
 10
336.7601764338946
 20
13.82361344005357
 30
0.0
 11
336.7601764338946
 21
12.91361344005355
 31
0.0
  0
LINE
  5
1B5E
102
{ACAD_REACTORS
330
3C09
102
}
330
15
100
AcDbEntity
 67
     1
  8
ﾀｲﾄﾙ枠
  6
Continuous
370
    40
100
AcDbLine
 10
335.8301764338946
 20
13.82361344005357
 30
0.0
 11
336.7601764338946
 21
13.82361344005357
 31
0.0
  0
LINE
  5
1B5F
102
{ACAD_REACTORS
330
3C09
102
}
330
15
100
AcDbEntity
 67
     1
  8
ﾀｲﾄﾙ枠
  6
Continuous
370
    40
100
AcDbLine
 10
335.8301764338946
 20
12.91361344005355
 30
0.0
 11
335.8301764338946
 21
13.82361344005357
 31
0.0
  0
LINE
  5
1B60
102
{ACAD_REACTORS
330
3C09
102
}
330
15
100
AcDbEntity
 67
     1
  8
ﾀｲﾄﾙ枠
  6
Continuous
370
    40
100
AcDbLine
 10
335.8301764338946
 20
11.74361344005353
 30
0.0
 11
335.8301764338946
 21
12.76361344005357
 31
0.0
  0
LINE
  5
1B61
102
{ACAD_REACTORS
330
3C09
102
}
330
15
100
AcDbEntity
 67
     1
  8
ﾀｲﾄﾙ枠
  6
Continuous
370
    40
100
AcDbLine
 10
338.7751764338946
 20
11.59361344005356
 30
0.0
 11
333.8151764338946
 21
11.59361344005356
 31
0.0
  0
LINE
  5
1B62
102
{ACAD_REACTORS
330
3C09
102
}
330
15
100
AcDbEntity
 67
     1
  8
ﾀｲﾄﾙ枠
  6
Continuous
370
    40
100
AcDbLine
 10
337.8451764338946
 20
10.55361344005353
 30
0.0
 11
334.7451764338946
 21
10.55361344005353
 31
0.0
  0
LINE
  5
1B63
102
{ACAD_REACTORS
330
3C09
102
}
330
15
100
AcDbEntity
 67
     1
  8
ﾀｲﾄﾙ枠
  6
Continuous
370
    40
100
AcDbLine
 10
333.8151764338946
 20
10.70361344005357
 30
0.0
 11
338.7751764338946
 21
10.70361344005357
 31
0.0
  0
LINE
  5
1B64
102
{ACAD_REACTORS
330
3C09
102
}
330
15
100
AcDbEntity
 67
     1
  8
ﾀｲﾄﾙ枠
  6
Continuous
370
    40
100
AcDbLine
 10
334.7451764338946
 20
8.883613440053522
 30
0.0
 11
337.8451764338946
 21
8.883613440053522
 31
0.0
  0
LINE
  5
1B65
102
{ACAD_REACTORS
330
3C09
102
}
330
15
100
AcDbEntity
 67
     1
  8
ﾀｲﾄﾙ枠
  6
Continuous
370
    40
100
AcDbLine
 10
338.7751764338946
 20
8.733613440053545
 30
0.0
 11
333.8151764338946
 21
8.733613440053545
 31
0.0
  0
LINE
  5
1B66
102
{ACAD_REACTORS
330
3C09
102
}
330
15
100
AcDbEntity
 67
     1
  8
ﾀｲﾄﾙ枠
  6
Continuous
370
    40
100
AcDbLine
 10
336.7601764338946
 20
11.74361344005353
 30
0.0
 11
338.7751764338946
 21
11.74361344005353
 31
0.0
  0
LINE
  5
1B67
102
{ACAD_REACTORS
330
3C09
102
}
330
15
100
AcDbEntity
 67
     1
  8
ﾀｲﾄﾙ枠
  6
Continuous
370
    40
100
AcDbLine
 10
339.2951764338946
 20
12.91361344005355
 30
0.0
 11
339.2951764338946
 21
12.76361344005357
 31
0.0
  0
LINE
  5
1B68
102
{ACAD_REACTORS
330
3C09
102
}
330
15
100
AcDbEntity
 67
     1
  8
ﾀｲﾄﾙ枠
  6
Continuous
370
    40
100
AcDbLine
 10
346.7951764338946
 20
9.054609709533565
 30
0.0
 11
346.7951764338946
 21
9.789500113148562
 31
0.0
  0
LINE
  5
1B69
102
{ACAD_REACTORS
330
3C09
102
}
330
15
100
AcDbEntity
 67
     1
  8
ﾀｲﾄﾙ枠
  6
Continuous
370
    40
100
AcDbLine
 10
346.7951764338946
 20
12.63361344005352
 30
0.0
 11
346.7951764338946
 21
12.78361344005355
 31
0.0
  0
LINE
  5
1B6A
102
{ACAD_REACTORS
330
3C09
102
}
330
15
100
AcDbEntity
 67
     1
  8
ﾀｲﾄﾙ枠
  6
Continuous
370
    40
100
AcDbLine
 10
344.2601764338946
 20
13.82361344005357
 30
0.0
 11
343.3301764338946
 21
13.82361344005357
 31
0.0
  0
LINE
  5
1B6B
102
{ACAD_REACTORS
330
3C09
102
}
330
15
100
AcDbEntity
 67
     1
  8
ﾀｲﾄﾙ枠
  6
Continuous
370
    40
100
AcDbLine
 10
343.3301764338946
 20
8.733613440053545
 30
0.0
 11
344.2601764338946
 21
8.733613440053545
 31
0.0
  0
LINE
  5
1B6C
102
{ACAD_REACTORS
330
3C09
102
}
330
15
100
AcDbEntity
 67
     1
  8
ﾀｲﾄﾙ枠
  6
Continuous
370
    40
100
AcDbLine
 10
343.3301764338946
 20
11.76205491134089
 30
0.0
 11
341.0451764338946
 21
9.652824142110205
 31
0.0
  0
LINE
  5
1B6D
102
{ACAD_REACTORS
330
3C09
102
}
330
15
100
AcDbEntity
 67
     1
  8
ﾀｲﾄﾙ枠
  6
Continuous
370
    40
100
AcDbLine
 10
343.3301764338946
 20
11.39460970953354
 30
0.0
 11
343.3301764338946
 21
9.533613440053557
 31
0.0
  0
LINE
  5
1B6E
102
{ACAD_REACTORS
330
3C09
102
}
330
15
100
AcDbEntity
 67
     1
  8
ﾀｲﾄﾙ枠
  6
Continuous
370
    40
100
AcDbLine
 10
340.7951764338946
 20
9.054609709533565
 30
0.0
 11
343.3301764338946
 21
11.39460970953354
 31
0.0
  0
LINE
  5
1B6F
102
{ACAD_REACTORS
330
3C09
102
}
330
15
100
AcDbEntity
 67
     1
  8
ﾀｲﾄﾙ枠
  6
Continuous
370
    40
100
AcDbLine
 10
343.3301764338946
 20
12.12950011314853
 30
0.0
 11
340.7951764338946
 21
9.789500113148562
 31
0.0
  0
LINE
  5
1B70
102
{ACAD_REACTORS
330
3C09
102
}
330
15
100
AcDbEntity
 67
     1
  8
ﾀｲﾄﾙ枠
  6
Continuous
370
    40
100
AcDbLine
 10
343.3301764338946
 20
9.383613440053522
 30
0.0
 11
343.3301764338946
 21
8.733613440053545
 31
0.0
  0
LINE
  5
1B71
102
{ACAD_REACTORS
330
3C09
102
}
330
15
100
AcDbEntity
 67
     1
  8
ﾀｲﾄﾙ枠
  6
Continuous
370
    40
100
AcDbLine
 10
342.3551764338946
 20
9.383613440053522
 30
0.0
 11
343.3301764338946
 21
9.383613440053522
 31
0.0
  0
LINE
  5
1B72
102
{ACAD_REACTORS
330
3C09
102
}
330
15
100
AcDbEntity
 67
     1
  8
ﾀｲﾄﾙ枠
  6
Continuous
370
    40
100
AcDbLine
 10
342.3551764338946
 20
9.533613440053557
 30
0.0
 11
342.3551764338946
 21
9.383613440053522
 31
0.0
  0
LINE
  5
1B73
102
{ACAD_REACTORS
330
3C09
102
}
330
15
100
AcDbEntity
 67
     1
  8
ﾀｲﾄﾙ枠
  6
Continuous
370
    40
100
AcDbLine
 10
343.3301764338946
 20
9.533613440053557
 30
0.0
 11
342.3551764338946
 21
9.533613440053557
 31
0.0
  0
LINE
  5
1B74
102
{ACAD_REACTORS
330
3C09
102
}
330
15
100
AcDbEntity
 67
     1
  8
ﾀｲﾄﾙ枠
  6
Continuous
370
    40
100
AcDbLine
 10
340.7951764338946
 20
9.789500113148562
 30
0.0
 11
340.7951764338946
 21
9.054609709533565
 31
0.0
  0
LINE
  5
1B75
102
{ACAD_REACTORS
330
3C09
102
}
330
15
100
AcDbEntity
 67
     1
  8
ﾀｲﾄﾙ枠
  6
Continuous
370
    40
100
AcDbLine
 10
343.3301764338946
 20
12.63361344005352
 30
0.0
 11
343.3301764338946
 21
12.12950011314853
 31
0.0
  0
LINE
  5
1B76
102
{ACAD_REACTORS
330
3C09
102
}
330
15
100
AcDbEntity
 67
     1
  8
ﾀｲﾄﾙ枠
  6
Continuous
370
    40
100
AcDbLine
 10
340.7951764338946
 20
12.63361344005352
 30
0.0
 11
343.3301764338946
 21
12.63361344005352
 31
0.0
  0
LINE
  5
1B77
102
{ACAD_REACTORS
330
3C09
102
}
330
15
100
AcDbEntity
 67
     1
  8
ﾀｲﾄﾙ枠
  6
Continuous
370
    40
100
AcDbLine
 10
340.7951764338946
 20
12.78361344005355
 30
0.0
 11
340.7951764338946
 21
12.63361344005352
 31
0.0
  0
LINE
  5
1B78
102
{ACAD_REACTORS
330
3C09
102
}
330
15
100
AcDbEntity
 67
     1
  8
ﾀｲﾄﾙ枠
  6
Continuous
370
    40
100
AcDbLine
 10
343.3301764338946
 20
12.78361344005355
 30
0.0
 11
340.7951764338946
 21
12.78361344005355
 31
0.0
  0
LINE
  5
1B79
102
{ACAD_REACTORS
330
3C09
102
}
330
15
100
AcDbEntity
 67
     1
  8
ﾀｲﾄﾙ枠
  6
Continuous
370
    40
100
AcDbLine
 10
343.3301764338946
 20
13.82361344005357
 30
0.0
 11
343.3301764338946
 21
12.78361344005355
 31
0.0
  0
LINE
  5
1B7A
102
{ACAD_REACTORS
330
3C09
102
}
330
15
100
AcDbEntity
 67
     1
  8
ﾀｲﾄﾙ枠
  6
Continuous
370
    40
100
AcDbLine
 10
343.5951764338946
 20
8.983613440053545
 30
0.0
 11
343.5951764338946
 21
13.57361344005357
 31
0.0
  0
LINE
  5
1B7B
102
{ACAD_REACTORS
330
3C09
102
}
330
15
100
AcDbEntity
 67
     1
  8
ﾀｲﾄﾙ枠
  6
Continuous
370
    40
100
AcDbLine
 10
343.9951764338946
 20
8.983613440053545
 30
0.0
 11
343.9951764338946
 21
13.57361344005357
 31
0.0
  0
LINE
  5
1B7C
102
{ACAD_REACTORS
330
3C09
102
}
330
15
100
AcDbEntity
 67
     1
  8
ﾀｲﾄﾙ枠
  6
Continuous
370
    40
100
AcDbLine
 10
343.7951764338946
 20
8.983613440053545
 30
0.0
 11
343.7951764338946
 21
13.57361344005357
 31
0.0
  0
LINE
  5
1B7D
102
{ACAD_REACTORS
330
3C09
102
}
330
15
100
AcDbEntity
 67
     1
  8
ﾀｲﾄﾙ枠
  6
Continuous
370
    40
100
AcDbLine
 10
344.2601764338946
 20
9.533613440053557
 30
0.0
 11
344.2601764338946
 21
11.39460970953354
 31
0.0
  0
LINE
  5
1B7E
102
{ACAD_REACTORS
330
3C09
102
}
330
15
100
AcDbEntity
 67
     1
  8
ﾀｲﾄﾙ枠
  6
Continuous
370
    40
100
AcDbLine
 10
345.2351764338946
 20
9.533613440053557
 30
0.0
 11
344.2601764338946
 21
9.533613440053557
 31
0.0
  0
LINE
  5
1B7F
102
{ACAD_REACTORS
330
3C09
102
}
330
15
100
AcDbEntity
 67
     1
  8
ﾀｲﾄﾙ枠
  6
Continuous
370
    40
100
AcDbLine
 10
345.2351764338946
 20
9.383613440053522
 30
0.0
 11
345.2351764338946
 21
9.533613440053557
 31
0.0
  0
LINE
  5
1B80
102
{ACAD_REACTORS
330
3C09
102
}
330
15
100
AcDbEntity
 67
     1
  8
ﾀｲﾄﾙ枠
  6
Continuous
370
    40
100
AcDbLine
 10
344.2601764338946
 20
9.383613440053522
 30
0.0
 11
345.2351764338946
 21
9.383613440053522
 31
0.0
  0
LINE
  5
1B81
102
{ACAD_REACTORS
330
3C09
102
}
330
15
100
AcDbEntity
 67
     1
  8
ﾀｲﾄﾙ枠
  6
Continuous
370
    40
100
AcDbLine
 10
344.2601764338946
 20
8.733613440053545
 30
0.0
 11
344.2601764338946
 21
9.383613440053522
 31
0.0
  0
LINE
  5
1B82
102
{ACAD_REACTORS
330
3C09
102
}
330
15
100
AcDbEntity
 67
     1
  8
ﾀｲﾄﾙ枠
  6
Continuous
370
    40
100
AcDbLine
 10
344.2601764338946
 20
12.78361344005355
 30
0.0
 11
344.2601764338946
 21
13.82361344005357
 31
0.0
  0
LINE
  5
1B83
102
{ACAD_REACTORS
330
3C09
102
}
330
15
100
AcDbEntity
 67
     1
  8
ﾀｲﾄﾙ枠
  6
Continuous
370
    40
100
AcDbLine
 10
344.2601764338946
 20
12.12950011314853
 30
0.0
 11
344.2601764338946
 21
12.63361344005352
 31
0.0
  0
LINE
  5
1B84
102
{ACAD_REACTORS
330
3C09
102
}
330
15
100
AcDbEntity
 67
     1
  8
ﾀｲﾄﾙ枠
  6
Continuous
370
    40
100
AcDbLine
 10
346.5451764338946
 20
9.652824142110205
 30
0.0
 11
344.2601764338946
 21
11.76205491134089
 31
0.0
  0
LINE
  5
1B85
102
{ACAD_REACTORS
330
3C09
102
}
330
15
100
AcDbEntity
 67
     1
  8
ﾀｲﾄﾙ枠
  6
Continuous
370
    40
100
AcDbLine
 10
344.2601764338946
 20
11.39460970953354
 30
0.0
 11
346.7951764338946
 21
9.054609709533565
 31
0.0
  0
LINE
  5
1B86
102
{ACAD_REACTORS
330
3C09
102
}
330
15
100
AcDbEntity
 67
     1
  8
ﾀｲﾄﾙ枠
  6
Continuous
370
    40
100
AcDbLine
 10
346.7951764338946
 20
9.789500113148562
 30
0.0
 11
344.2601764338946
 21
12.12950011314853
 31
0.0
  0
LINE
  5
1B87
102
{ACAD_REACTORS
330
3C09
102
}
330
15
100
AcDbEntity
 67
     1
  8
ﾀｲﾄﾙ枠
  6
Continuous
370
    40
100
AcDbLine
 10
346.7951764338946
 20
12.78361344005355
 30
0.0
 11
344.2601764338946
 21
12.78361344005355
 31
0.0
  0
LINE
  5
1B88
102
{ACAD_REACTORS
330
3C09
102
}
330
15
100
AcDbEntity
 67
     1
  8
ﾀｲﾄﾙ枠
  6
Continuous
370
    40
100
AcDbLine
 10
344.2601764338946
 20
12.63361344005352
 30
0.0
 11
346.7951764338946
 21
12.63361344005352
 31
0.0
  0
LINE
  5
1B89
102
{ACAD_REACTORS
330
3C09
102
}
330
15
100
AcDbEntity
 67
     1
  8
ﾀｲﾄﾙ枠
  6
Continuous
370
    40
100
AcDbLine
 10
358.3301764338946
 20
10.23861344005354
 30
0.0
 11
356.0551764338946
 21
10.23861344005354
 31
0.0
  0
LINE
  5
1B8A
102
{ACAD_REACTORS
330
3C09
102
}
330
15
100
AcDbEntity
 67
     1
  8
ﾀｲﾄﾙ枠
  6
Continuous
370
    40
100
AcDbLine
 10
356.0551764338946
 20
9.378532806185887
 30
0.0
 11
357.5603175431632
 21
10.23861344005354
 31
0.0
  0
LINE
  5
1B8B
102
{ACAD_REACTORS
330
3C09
102
}
330
15
100
AcDbEntity
 67
     1
  8
ﾀｲﾄﾙ枠
  6
Continuous
370
    40
100
AcDbLine
 10
358.3301764338946
 20
10.21440835963556
 30
0.0
 11
356.0551764338946
 21
8.914408359635558
 31
0.0
  0
LINE
  5
1B8C
102
{ACAD_REACTORS
330
3C09
102
}
330
15
100
AcDbEntity
 67
     1
  8
ﾀｲﾄﾙ枠
  6
Continuous
370
    40
100
AcDbLine
 10
356.6976215563783
 20
12.83861344005356
 30
0.0
 11
355.7951764338946
 21
12.83861344005356
 31
0.0
  0
LINE
  5
1B8D
102
{ACAD_REACTORS
330
3C09
102
}
330
15
100
AcDbEntity
 67
     1
  8
ﾀｲﾄﾙ枠
  6
Continuous
370
    40
100
AcDbLine
 10
357.4126215563783
 20
11.79861344005354
 30
0.0
 11
356.0204340563783
 21
13.82361344005357
 31
0.0
  0
LINE
  5
1B8E
102
{ACAD_REACTORS
330
3C09
102
}
330
15
100
AcDbEntity
 67
     1
  8
ﾀｲﾄﾙ枠
  6
Continuous
370
    40
100
AcDbLine
 10
356.0204340563783
 20
13.82361344005357
 30
0.0
 11
356.7102130087539
 21
13.82361344005357
 31
0.0
  0
LINE
  5
1B8F
102
{ACAD_REACTORS
330
3C09
102
}
330
15
100
AcDbEntity
 67
     1
  8
ﾀｲﾄﾙ枠
  6
Continuous
370
    40
100
AcDbLine
 10
354.0351764338946
 20
9.773613440053566
 30
0.0
 11
354.0351764338946
 21
9.793613440053547
 31
0.0
  0
LINE
  5
1B90
102
{ACAD_REACTORS
330
3C09
102
}
330
15
100
AcDbEntity
 67
     1
  8
ﾀｲﾄﾙ枠
  6
Continuous
370
    40
100
AcDbLine
 10
354.2951764338946
 20
8.733613440053545
 30
0.0
 11
354.2951764338946
 21
8.753613440053527
 31
0.0
  0
LINE
  5
1B91
102
{ACAD_REACTORS
330
3C09
102
}
330
15
100
AcDbEntity
 67
     1
  8
ﾀｲﾄﾙ枠
  6
Continuous
370
    40
100
AcDbLine
 10
354.2951764338946
 20
13.15361344005356
 30
0.0
 11
354.2951764338946
 21
13.17361344005354
 31
0.0
  0
LINE
  5
1B92
102
{ACAD_REACTORS
330
3C09
102
}
330
15
100
AcDbEntity
 67
     1
  8
ﾀｲﾄﾙ枠
  6
Continuous
370
    40
100
AcDbLine
 10
354.0136288391523
 20
13.15361344005356
 30
0.0
 11
354.2951764338946
 21
13.15361344005356
 31
0.0
  0
LINE
  5
1B93
102
{ACAD_REACTORS
330
3C09
102
}
330
15
100
AcDbEntity
 67
     1
  8
ﾀｲﾄﾙ枠
  6
Continuous
370
    40
100
AcDbLine
 10
354.2951764338946
 20
11.98361344005354
 30
0.0
 11
354.2951764338946
 21
12.00361344005352
 31
0.0
  0
LINE
  5
1B94
102
{ACAD_REACTORS
330
3C09
102
}
330
15
100
AcDbEntity
 67
     1
  8
ﾀｲﾄﾙ枠
  6
Continuous
370
    40
100
AcDbLine
 10
354.2951764338946
 20
10.81361344005353
 30
0.0
 11
354.2951764338946
 21
10.83361344005356
 31
0.0
  0
LINE
  5
1B95
102
{ACAD_REACTORS
330
3C09
102
}
330
15
100
AcDbEntity
 67
     1
  8
ﾀｲﾄﾙ枠
  6
Continuous
370
    40
100
AcDbLine
 10
350.6856679367073
 20
12.00361344005352
 30
0.0
 11
352.6846849310819
 21
12.00361344005352
 31
0.0
  0
LINE
  5
1B96
102
{ACAD_REACTORS
330
3C09
102
}
330
15
100
AcDbEntity
 67
     1
  8
ﾀｲﾄﾙ枠
  6
Continuous
370
    40
100
AcDbLine
 10
353.259684931082
 20
13.15361344005356
 30
0.0
 11
350.1106679367072
 21
13.15361344005356
 31
0.0
  0
LINE
  5
1B97
102
{ACAD_REACTORS
330
3C09
102
}
330
15
100
AcDbEntity
 67
     1
  8
ﾀｲﾄﾙ枠
  6
Continuous
370
    40
100
AcDbLine
 10
352.0851764338946
 20
13.82361344005357
 30
0.0
 11
351.2851764338946
 21
13.82361344005357
 31
0.0
  0
LINE
  5
1B98
102
{ACAD_REACTORS
330
3C09
102
}
330
15
100
AcDbEntity
 67
     1
  8
ﾀｲﾄﾙ枠
  6
Continuous
370
    40
100
AcDbLine
 10
352.4751764338946
 20
11.22361344005355
 30
0.0
 11
351.6751764338946
 21
11.22361344005355
 31
0.0
  0
LINE
  5
1B99
102
{ACAD_REACTORS
330
3C09
102
}
330
15
100
AcDbEntity
 67
     1
  8
ﾀｲﾄﾙ枠
  6
Continuous
370
    40
100
AcDbLine
 10
349.3420593337075
 20
11.98361344005354
 30
0.0
 11
349.2493324137129
 21
10.22180196015756
 31
0.0
  0
LINE
  5
1B9A
102
{ACAD_REACTORS
330
3C09
102
}
330
15
100
AcDbEntity
 67
     1
  8
ﾀｲﾄﾙ枠
  6
Continuous
370
    40
100
AcDbLine
 10
348.9797055997933
 20
10.23599284510055
 30
0.0
 11
349.0595803679486
 21
11.75361344005352
 31
0.0
  0
LINE
  5
1B9B
102
{ACAD_REACTORS
330
3C09
102
}
330
15
100
AcDbEntity
 67
     1
  8
ﾀｲﾄﾙ枠
  6
Continuous
370
    40
100
AcDbLine
 10
348.8023645600845
 20
12.00361344005352
 30
0.0
 11
348.7100787858736
 21
10.25018373004388
 31
0.0
  0
LINE
  5
1B9C
102
{ACAD_REACTORS
330
3C09
102
}
330
15
100
AcDbEntity
 67
     1
  8
ﾀｲﾄﾙ枠
  6
Continuous
370
    40
100
AcDbLine
 10
351.6751764338946
 20
10.81361344005353
 30
0.0
 11
351.6751764338946
 21
9.793613440053547
 31
0.0
  0
LINE
  5
1B9D
102
{ACAD_REACTORS
330
3C09
102
}
330
15
100
AcDbEntity
 67
     1
  8
ﾀｲﾄﾙ枠
  6
Continuous
370
    40
100
AcDbLine
 10
348.9798120286659
 20
8.733613440053545
 30
0.0
 11
348.4107267765276
 21
8.733613440053545
 31
0.0
  0
LINE
  5
1B9E
102
{ACAD_REACTORS
330
3C09
102
}
330
15
100
AcDbEntity
 67
     1
  8
ﾀｲﾄﾙ枠
  6
Continuous
370
    40
100
AcDbLine
 10
349.8551764338945
 20
8.753613440053527
 30
0.0
 11
349.8551764338945
 21
8.733613440053545
 31
0.0
  0
LINE
  5
1B9F
102
{ACAD_REACTORS
330
3C09
102
}
330
15
100
AcDbEntity
 67
     1
  8
ﾀｲﾄﾙ枠
  6
Continuous
370
    40
100
AcDbLine
 10
351.6751764338946
 20
8.753613440053527
 30
0.0
 11
349.8551764338945
 21
8.753613440053527
 31
0.0
  0
LINE
  5
1BA0
102
{ACAD_REACTORS
330
3C09
102
}
330
15
100
AcDbEntity
 67
     1
  8
ﾀｲﾄﾙ枠
  6
Continuous
370
    40
100
AcDbLine
 10
351.6751764338946
 20
9.773613440053566
 30
0.0
 11
351.6751764338946
 21
8.753613440053527
 31
0.0
  0
LINE
  5
1BA1
102
{ACAD_REACTORS
330
3C09
102
}
330
15
100
AcDbEntity
 67
     1
  8
ﾀｲﾄﾙ枠
  6
Continuous
370
    40
100
AcDbLine
 10
350.2451764338946
 20
9.773613440053566
 30
0.0
 11
351.6751764338946
 21
9.773613440053566
 31
0.0
  0
LINE
  5
1BA2
102
{ACAD_REACTORS
330
3C09
102
}
330
15
100
AcDbEntity
 67
     1
  8
ﾀｲﾄﾙ枠
  6
Continuous
370
    40
100
AcDbLine
 10
350.2451764338946
 20
9.793613440053547
 30
0.0
 11
350.2451764338946
 21
9.773613440053566
 31
0.0
  0
LINE
  5
1BA3
102
{ACAD_REACTORS
330
3C09
102
}
330
15
100
AcDbEntity
 67
     1
  8
ﾀｲﾄﾙ枠
  6
Continuous
370
    40
100
AcDbLine
 10
351.6751764338946
 20
9.793613440053547
 30
0.0
 11
350.2451764338946
 21
9.793613440053547
 31
0.0
  0
ARC
  5
1BA4
102
{ACAD_REACTORS
330
3C09
102
}
330
15
100
AcDbEntity
 67
     1
  8
ﾀｲﾄﾙ枠
  6
Continuous
370
    40
100
AcDbCircle
 10
343.2676116160112
 20
10.53662937056287
 30
0.0
 40
5.45
100
AcDbArc
 50
340.6809234802234
 51
356.9872124958171
  0
ARC
  5
1BA5
102
{ACAD_REACTORS
330
3C09
102
}
330
15
100
AcDbEntity
 67
     1
  8
ﾀｲﾄﾙ枠
  6
Continuous
370
    40
100
AcDbCircle
 10
343.2676116160112
 20
10.53662937056287
 30
0.0
 40
5.989999999999999
100
AcDbArc
 50
342.4820645709959
 51
356.9872124958171
  0
ARC
  5
1BA6
102
{ACAD_REACTORS
330
3C09
102
}
330
15
100
AcDbEntity
 67
     1
  8
ﾀｲﾄﾙ枠
  6
Continuous
370
    40
100
AcDbCircle
 10
343.2676116160112
 20
10.53662937056287
 30
0.0
 40
5.719999999999999
100
AcDbArc
 50
344.2460809455039
 51
356.9872124958171
  0
LINE
  5
1BA7
102
{ACAD_REACTORS
330
3C09
102
}
330
15
100
AcDbEntity
 67
     1
  8
ﾀｲﾄﾙ枠
  6
Continuous
370
    40
100
AcDbLine
 10
351.4851764338946
 20
13.40361344005356
 30
0.0
 11
351.4851764338946
 21
13.57361344005357
 31
0.0
  0
LINE
  5
1BA8
102
{ACAD_REACTORS
330
3C09
102
}
330
15
100
AcDbEntity
 67
     1
  8
ﾀｲﾄﾙ枠
  6
Continuous
370
    40
100
AcDbLine
 10
349.8601959826719
 20
12.92361344005354
 30
0.0
 11
350.2396959826719
 21
12.23361344005354
 31
0.0
  0
LINE
  5
1BA9
102
{ACAD_REACTORS
330
3C09
102
}
330
15
100
AcDbEntity
 67
     1
  8
ﾀｲﾄﾙ枠
  6
Continuous
370
    40
100
AcDbLine
 10
351.6851764338946
 20
13.40361344005356
 30
0.0
 11
351.6851764338946
 21
13.57361344005357
 31
0.0
  0
LINE
  5
1BAA
102
{ACAD_REACTORS
330
3C09
102
}
330
15
100
AcDbEntity
 67
     1
  8
ﾀｲﾄﾙ枠
  6
Continuous
370
    40
100
AcDbLine
 10
350.1106679367072
 20
13.15361344005356
 30
0.0
 11
350.6856679367073
 21
12.00361344005352
 31
0.0
  0
LINE
  5
1BAB
102
{ACAD_REACTORS
330
3C09
102
}
330
15
100
AcDbEntity
 67
     1
  8
ﾀｲﾄﾙ枠
  6
Continuous
370
    40
100
AcDbLine
 10
350.0467240286369
 20
12.00361344005352
 30
0.0
 11
348.8023645600845
 21
12.00361344005352
 31
0.0
  0
LINE
  5
1BAC
102
{ACAD_REACTORS
330
3C09
102
}
330
15
100
AcDbEntity
 67
     1
  8
ﾀｲﾄﾙ枠
  6
Continuous
370
    40
100
AcDbLine
 10
349.3567240286369
 20
13.15361344005356
 30
0.0
 11
350.0467240286369
 21
12.00361344005352
 31
0.0
  0
LINE
  5
1BAD
102
{ACAD_REACTORS
330
3C09
102
}
330
15
100
AcDbEntity
 67
     1
  8
ﾀｲﾄﾙ枠
  6
Continuous
370
    40
100
AcDbLine
 10
348.8151764338946
 20
13.15361344005356
 30
0.0
 11
349.3567240286369
 21
13.15361344005356
 31
0.0
  0
LINE
  5
1BAE
102
{ACAD_REACTORS
330
3C09
102
}
330
15
100
AcDbEntity
 67
     1
  8
ﾀｲﾄﾙ枠
  6
Continuous
370
    40
100
AcDbLine
 10
348.8151764338946
 20
13.17361344005354
 30
0.0
 11
348.8151764338946
 21
13.15361344005356
 31
0.0
  0
LINE
  5
1BAF
102
{ACAD_REACTORS
330
3C09
102
}
330
15
100
AcDbEntity
 67
     1
  8
ﾀｲﾄﾙ枠
  6
Continuous
370
    40
100
AcDbLine
 10
351.2851764338946
 20
13.17361344005354
 30
0.0
 11
348.8151764338946
 21
13.17361344005354
 31
0.0
  0
LINE
  5
1BB0
102
{ACAD_REACTORS
330
3C09
102
}
330
15
100
AcDbEntity
 67
     1
  8
ﾀｲﾄﾙ枠
  6
Continuous
370
    40
100
AcDbLine
 10
351.2851764338946
 20
13.82361344005357
 30
0.0
 11
351.2851764338946
 21
13.17361344005354
 31
0.0
  0
LINE
  5
1BB1
102
{ACAD_REACTORS
330
3C09
102
}
330
15
100
AcDbEntity
 67
     1
  8
ﾀｲﾄﾙ枠
  6
Continuous
370
    40
100
AcDbLine
 10
350.2451764338946
 20
10.81361344005353
 30
0.0
 11
351.6751764338946
 21
10.81361344005353
 31
0.0
  0
LINE
  5
1BB2
102
{ACAD_REACTORS
330
3C09
102
}
330
15
100
AcDbEntity
 67
     1
  8
ﾀｲﾄﾙ枠
  6
Continuous
370
    40
100
AcDbLine
 10
350.2451764338946
 20
11.22361344005355
 30
0.0
 11
350.2451764338946
 21
10.81361344005353
 31
0.0
  0
LINE
  5
1BB3
102
{ACAD_REACTORS
330
3C09
102
}
330
15
100
AcDbEntity
 67
     1
  8
ﾀｲﾄﾙ枠
  6
Continuous
370
    40
100
AcDbLine
 10
350.5251764338946
 20
11.22361344005355
 30
0.0
 11
350.2451764338946
 21
11.22361344005355
 31
0.0
  0
LINE
  5
1BB4
102
{ACAD_REACTORS
330
3C09
102
}
330
15
100
AcDbEntity
 67
     1
  8
ﾀｲﾄﾙ枠
  6
Continuous
370
    40
100
AcDbLine
 10
350.5251764338946
 20
10.83361344005356
 30
0.0
 11
350.5251764338946
 21
11.22361344005355
 31
0.0
  0
LINE
  5
1BB5
102
{ACAD_REACTORS
330
3C09
102
}
330
15
100
AcDbEntity
 67
     1
  8
ﾀｲﾄﾙ枠
  6
Continuous
370
    40
100
AcDbLine
 10
351.6751764338946
 20
10.83361344005356
 30
0.0
 11
350.5251764338946
 21
10.83361344005356
 31
0.0
  0
LINE
  5
1BB6
102
{ACAD_REACTORS
330
3C09
102
}
330
15
100
AcDbEntity
 67
     1
  8
ﾀｲﾄﾙ枠
  6
Continuous
370
    40
100
AcDbLine
 10
351.6751764338946
 20
11.22361344005355
 30
0.0
 11
351.6751764338946
 21
10.83361344005356
 31
0.0
  0
LINE
  5
1BB7
102
{ACAD_REACTORS
330
3C09
102
}
330
15
100
AcDbEntity
 67
     1
  8
ﾀｲﾄﾙ枠
  6
Continuous
370
    40
100
AcDbLine
 10
351.8751764338946
 20
10.97361344005355
 30
0.0
 11
351.8751764338946
 21
8.983613440053545
 31
0.0
  0
LINE
  5
1BB8
102
{ACAD_REACTORS
330
3C09
102
}
330
15
100
AcDbEntity
 67
     1
  8
ﾀｲﾄﾙ枠
  6
Continuous
370
    40
100
AcDbLine
 10
352.2751764338946
 20
10.97361344005355
 30
0.0
 11
352.2751764338946
 21
8.983613440053545
 31
0.0
  0
LINE
  5
1BB9
102
{ACAD_REACTORS
330
3C09
102
}
330
15
100
AcDbEntity
 67
     1
  8
ﾀｲﾄﾙ枠
  6
Continuous
370
    40
100
AcDbLine
 10
352.0751764338946
 20
10.97361344005355
 30
0.0
 11
352.0751764338946
 21
8.983613440053545
 31
0.0
  0
LINE
  5
1BBA
102
{ACAD_REACTORS
330
3C09
102
}
330
15
100
AcDbEntity
 67
     1
  8
ﾀｲﾄﾙ枠
  6
Continuous
370
    40
100
AcDbLine
 10
352.4751764338946
 20
9.793613440053547
 30
0.0
 11
352.4751764338946
 21
10.81361344005353
 31
0.0
  0
LINE
  5
1BBB
102
{ACAD_REACTORS
330
3C09
102
}
330
15
100
AcDbEntity
 67
     1
  8
ﾀｲﾄﾙ枠
  6
Continuous
370
    40
100
AcDbLine
 10
352.4751764338946
 20
8.753613440053527
 30
0.0
 11
352.4751764338946
 21
9.773613440053566
 31
0.0
  0
LINE
  5
1BBC
102
{ACAD_REACTORS
330
3C09
102
}
330
15
100
AcDbEntity
 67
     1
  8
ﾀｲﾄﾙ枠
  6
Continuous
370
    40
100
AcDbLine
 10
352.6846849310819
 20
12.00361344005352
 30
0.0
 11
353.259684931082
 21
13.15361344005356
 31
0.0
  0
LINE
  5
1BBD
102
{ACAD_REACTORS
330
3C09
102
}
330
15
100
AcDbEntity
 67
     1
  8
ﾀｲﾄﾙ枠
  6
Continuous
370
    40
100
AcDbLine
 10
352.0851764338946
 20
13.17361344005354
 30
0.0
 11
352.0851764338946
 21
13.82361344005357
 31
0.0
  0
LINE
  5
1BBE
102
{ACAD_REACTORS
330
3C09
102
}
330
15
100
AcDbEntity
 67
     1
  8
ﾀｲﾄﾙ枠
  6
Continuous
370
    40
100
AcDbLine
 10
352.4751764338946
 20
10.83361344005356
 30
0.0
 11
352.4751764338946
 21
11.22361344005355
 31
0.0
  0
LINE
  5
1BBF
102
{ACAD_REACTORS
330
3C09
102
}
330
15
100
AcDbEntity
 67
     1
  8
ﾀｲﾄﾙ枠
  6
Continuous
370
    40
100
AcDbLine
 10
351.8851764338946
 20
13.40361344005356
 30
0.0
 11
351.8851764338946
 21
13.57361344005357
 31
0.0
  0
LINE
  5
1BC0
102
{ACAD_REACTORS
330
3C09
102
}
330
15
100
AcDbEntity
 67
     1
  8
ﾀｲﾄﾙ枠
  6
Continuous
370
    40
100
AcDbLine
 10
349.3420593337075
 20
11.98361344005354
 30
0.0
 11
354.2951764338946
 21
11.98361344005354
 31
0.0
  0
LINE
  5
1BC1
102
{ACAD_REACTORS
330
3C09
102
}
330
15
100
AcDbEntity
 67
     1
  8
ﾀｲﾄﾙ枠
  6
Continuous
370
    40
100
AcDbLine
 10
349.8551764338945
 20
8.733613440053545
 30
0.0
 11
354.2951764338946
 21
8.733613440053545
 31
0.0
  0
LINE
  5
1BC2
102
{ACAD_REACTORS
330
3C09
102
}
330
15
100
AcDbEntity
 67
     1
  8
ﾀｲﾄﾙ枠
  6
Continuous
370
    40
100
AcDbLine
 10
354.0351764338946
 20
9.793613440053547
 30
0.0
 11
352.4751764338946
 21
9.793613440053547
 31
0.0
  0
LINE
  5
1BC3
102
{ACAD_REACTORS
330
3C09
102
}
330
15
100
AcDbEntity
 67
     1
  8
ﾀｲﾄﾙ枠
  6
Continuous
370
    40
100
AcDbLine
 10
352.4751764338946
 20
9.773613440053566
 30
0.0
 11
354.0351764338946
 21
9.773613440053566
 31
0.0
  0
LINE
  5
1BC4
102
{ACAD_REACTORS
330
3C09
102
}
330
15
100
AcDbEntity
 67
     1
  8
ﾀｲﾄﾙ枠
  6
Continuous
370
    40
100
AcDbLine
 10
354.2951764338946
 20
8.753613440053527
 30
0.0
 11
352.4751764338946
 21
8.753613440053527
 31
0.0
  0
LINE
  5
1BC5
102
{ACAD_REACTORS
330
3C09
102
}
330
15
100
AcDbEntity
 67
     1
  8
ﾀｲﾄﾙ枠
  6
Continuous
370
    40
100
AcDbLine
 10
353.1306568851173
 20
12.23361344005354
 30
0.0
 11
353.5101568851173
 21
12.92361344005354
 31
0.0
  0
LINE
  5
1BC6
102
{ACAD_REACTORS
330
3C09
102
}
330
15
100
AcDbEntity
 67
     1
  8
ﾀｲﾄﾙ枠
  6
Continuous
370
    40
100
AcDbLine
 10
354.2951764338946
 20
13.17361344005354
 30
0.0
 11
352.0851764338946
 21
13.17361344005354
 31
0.0
  0
LINE
  5
1BC7
102
{ACAD_REACTORS
330
3C09
102
}
330
15
100
AcDbEntity
 67
     1
  8
ﾀｲﾄﾙ枠
  6
Continuous
370
    40
100
AcDbLine
 10
353.3236288391523
 20
12.00361344005352
 30
0.0
 11
354.0136288391523
 21
13.15361344005356
 31
0.0
  0
LINE
  5
1BC8
102
{ACAD_REACTORS
330
3C09
102
}
330
15
100
AcDbEntity
 67
     1
  8
ﾀｲﾄﾙ枠
  6
Continuous
370
    40
100
AcDbLine
 10
354.2951764338946
 20
12.00361344005352
 30
0.0
 11
353.3236288391523
 21
12.00361344005352
 31
0.0
  0
LINE
  5
1BC9
102
{ACAD_REACTORS
330
3C09
102
}
330
15
100
AcDbEntity
 67
     1
  8
ﾀｲﾄﾙ枠
  6
Continuous
370
    40
100
AcDbLine
 10
352.4751764338946
 20
10.81361344005353
 30
0.0
 11
354.2951764338946
 21
10.81361344005353
 31
0.0
  0
LINE
  5
1BCA
102
{ACAD_REACTORS
330
3C09
102
}
330
15
100
AcDbEntity
 67
     1
  8
ﾀｲﾄﾙ枠
  6
Continuous
370
    40
100
AcDbLine
 10
354.2951764338946
 20
10.83361344005356
 30
0.0
 11
352.4751764338946
 21
10.83361344005356
 31
0.0
  0
LINE
  5
1BCB
102
{ACAD_REACTORS
330
3C09
102
}
330
15
100
AcDbEntity
 67
     1
  8
ﾀｲﾄﾙ枠
  6
Continuous
370
    40
100
AcDbLine
 10
356.0551764338946
 20
8.914408359635558
 30
0.0
 11
356.0551764338946
 21
9.378532806185887
 31
0.0
  0
LINE
  5
1BCC
102
{ACAD_REACTORS
330
3C09
102
}
330
15
100
AcDbEntity
 67
     1
  8
ﾀｲﾄﾙ枠
  6
Continuous
370
    40
100
AcDbLine
 10
363.8151764338946
 20
10.72500454932191
 30
0.0
 11
363.2951764338946
 21
9.815004549322225
 31
0.0
  0
LINE
  5
1BCD
102
{ACAD_REACTORS
330
3C09
102
}
330
15
100
AcDbEntity
 67
     1
  8
ﾀｲﾄﾙ枠
  6
Continuous
370
    40
100
AcDbLine
 10
363.5451764338946
 20
10.76641989566155
 30
0.0
 11
363.876805554073
 21
11.48430899468786
 31
0.0
  0
LINE
  5
1BCE
102
{ACAD_REACTORS
330
3C09
102
}
330
15
100
AcDbEntity
 67
     1
  8
ﾀｲﾄﾙ枠
  6
Continuous
370
    40
100
AcDbLine
 10
363.2951764338946
 20
11.03546783916186
 30
0.0
 11
363.9384346742513
 21
12.64361344005357
 31
0.0
  0
LINE
  5
1BCF
102
{ACAD_REACTORS
330
3C09
102
}
330
15
100
AcDbEntity
 67
     1
  8
ﾀｲﾄﾙ枠
  6
Continuous
370
    40
100
AcDbLine
 10
363.2951764338946
 20
9.815004549322225
 30
0.0
 11
363.2951764338946
 21
11.03546783916186
 31
0.0
  0
LINE
  5
1BD0
102
{ACAD_REACTORS
330
3C09
102
}
330
15
100
AcDbEntity
 67
     1
  8
ﾀｲﾄﾙ枠
  6
Continuous
370
    40
100
AcDbLine
 10
361.5351764338946
 20
10.23861344005354
 30
0.0
 11
359.2601764338946
 21
10.23861344005354
 31
0.0
  0
LINE
  5
1BD1
102
{ACAD_REACTORS
330
3C09
102
}
330
15
100
AcDbEntity
 67
     1
  8
ﾀｲﾄﾙ枠
  6
Continuous
370
    40
100
AcDbLine
 10
359.2601764338946
 20
11.01861344005357
 30
0.0
 11
360.8851764338946
 21
11.01861344005357
 31
0.0
  0
LINE
  5
1BD2
102
{ACAD_REACTORS
330
3C09
102
}
330
15
100
AcDbEntity
 67
     1
  8
ﾀｲﾄﾙ枠
  6
Continuous
370
    40
100
AcDbLine
 10
361.2751764338946
 20
11.79861344005354
 30
0.0
 11
356.3151764338946
 21
11.79861344005354
 31
0.0
  0
LINE
  5
1BD3
102
{ACAD_REACTORS
330
3C09
102
}
330
15
100
AcDbEntity
 67
     1
  8
ﾀｲﾄﾙ枠
  6
Continuous
370
    40
100
AcDbLine
 10
359.5512336090353
 20
11.79861344005354
 30
0.0
 11
360.8801398590353
 21
13.82361344005357
 31
0.0
  0
LINE
  5
1BD4
102
{ACAD_REACTORS
330
3C09
102
}
330
15
100
AcDbEntity
 67
     1
  8
ﾀｲﾄﾙ枠
  6
Continuous
370
    40
100
AcDbLine
 10
360.2337336090353
 20
12.83861344005356
 30
0.0
 11
359.7151764338946
 21
12.83861344005356
 31
0.0
  0
LINE
  5
1BD5
102
{ACAD_REACTORS
330
3C09
102
}
330
15
100
AcDbEntity
 67
     1
  8
ﾀｲﾄﾙ枠
  6
Continuous
370
    40
100
AcDbLine
 10
359.2601764338946
 20
10.21440835963556
 30
0.0
 11
361.5351764338946
 21
8.914408359635558
 31
0.0
  0
LINE
  5
1BD6
102
{ACAD_REACTORS
330
3C09
102
}
330
15
100
AcDbEntity
 67
     1
  8
ﾀｲﾄﾙ枠
  6
Continuous
370
    40
100
AcDbLine
 10
358.5951764338946
 20
11.54861344005354
 30
0.0
 11
358.5951764338946
 21
8.983613440053545
 31
0.0
  0
LINE
  5
1BD7
102
{ACAD_REACTORS
330
3C09
102
}
330
15
100
AcDbEntity
 67
     1
  8
ﾀｲﾄﾙ枠
  6
Continuous
370
    40
100
AcDbLine
 10
358.9951764338946
 20
11.54861344005354
 30
0.0
 11
358.9951764338946
 21
8.983613440053545
 31
0.0
  0
LINE
  5
1BD8
102
{ACAD_REACTORS
330
3C09
102
}
330
15
100
AcDbEntity
 67
     1
  8
ﾀｲﾄﾙ枠
  6
Continuous
370
    40
100
AcDbLine
 10
358.7951764338946
 20
11.54861344005354
 30
0.0
 11
358.7951764338946
 21
8.983613440053545
 31
0.0
  0
LINE
  5
1BD9
102
{ACAD_REACTORS
330
3C09
102
}
330
15
100
AcDbEntity
 67
     1
  8
ﾀｲﾄﾙ枠
  6
Continuous
370
    40
100
AcDbLine
 10
359.2601764338946
 20
8.733613440053545
 30
0.0
 11
359.2601764338946
 21
11.79861344005354
 31
0.0
  0
LINE
  5
1BDA
102
{ACAD_REACTORS
330
3C09
102
}
330
15
100
AcDbEntity
 67
     1
  8
ﾀｲﾄﾙ枠
  6
Continuous
370
    40
100
AcDbLine
 10
358.3301764338946
 20
11.79861344005354
 30
0.0
 11
358.3301764338946
 21
8.733613440053545
 31
0.0
  0
LINE
  5
1BDB
102
{ACAD_REACTORS
330
3C09
102
}
330
15
100
AcDbEntity
 67
     1
  8
ﾀｲﾄﾙ枠
  6
Continuous
370
    40
100
AcDbLine
 10
358.3301764338946
 20
8.733613440053545
 30
0.0
 11
359.2601764338946
 21
8.733613440053545
 31
0.0
  0
LINE
  5
1BDC
102
{ACAD_REACTORS
330
3C09
102
}
330
15
100
AcDbEntity
 67
     1
  8
ﾀｲﾄﾙ枠
  6
Continuous
370
    40
100
AcDbLine
 10
356.5332922825663
 20
13.57361344005357
 30
0.0
 11
357.5579016575659
 21
12.04861344005354
 31
0.0
  0
LINE
  5
1BDD
102
{ACAD_REACTORS
330
3C09
102
}
330
15
100
AcDbEntity
 67
     1
  8
ﾀｲﾄﾙ枠
  6
Continuous
370
    40
100
AcDbLine
 10
356.7051764338946
 20
11.01861344005357
 30
0.0
 11
358.3301764338946
 21
11.01861344005357
 31
0.0
  0
LINE
  5
1BDE
102
{ACAD_REACTORS
330
3C09
102
}
330
15
100
AcDbEntity
 67
     1
  8
ﾀｲﾄﾙ枠
  6
Continuous
370
    40
100
AcDbLine
 10
356.7102130087539
 20
13.82361344005357
 30
0.0
 11
358.0391192587539
 21
11.79861344005354
 31
0.0
  0
LINE
  5
1BDF
102
{ACAD_REACTORS
330
3C09
102
}
330
15
100
AcDbEntity
 67
     1
  8
ﾀｲﾄﾙ枠
  6
Continuous
370
    40
100
AcDbLine
 10
357.8751764338946
 20
12.83861344005356
 30
0.0
 11
357.3566192587539
 21
12.83861344005356
 31
0.0
  0
LINE
  5
1BE0
102
{ACAD_REACTORS
330
3C09
102
}
330
15
100
AcDbEntity
 67
     1
  8
ﾀｲﾄﾙ枠
  6
Continuous
370
    40
100
AcDbLine
 10
357.8751764338946
 20
13.82361344005357
 30
0.0
 11
357.8751764338946
 21
12.83861344005356
 31
0.0
  0
LINE
  5
1BE1
102
{ACAD_REACTORS
330
3C09
102
}
330
15
100
AcDbEntity
 67
     1
  8
ﾀｲﾄﾙ枠
  6
Continuous
370
    40
100
AcDbLine
 10
358.3501764338945
 20
13.82361344005357
 30
0.0
 11
357.8751764338946
 21
13.82361344005357
 31
0.0
  0
LINE
  5
1BE2
102
{ACAD_REACTORS
330
3C09
102
}
330
15
100
AcDbEntity
 67
     1
  8
ﾀｲﾄﾙ枠
  6
Continuous
370
    40
100
AcDbLine
 10
358.3501764338945
 20
12.83861344005356
 30
0.0
 11
358.3501764338945
 21
13.82361344005357
 31
0.0
  0
LINE
  5
1BE3
102
{ACAD_REACTORS
330
3C09
102
}
330
15
100
AcDbEntity
 67
     1
  8
ﾀｲﾄﾙ枠
  6
Continuous
370
    40
100
AcDbLine
 10
359.2401764338946
 20
12.83861344005356
 30
0.0
 11
358.3501764338945
 21
12.83861344005356
 31
0.0
  0
LINE
  5
1BE4
102
{ACAD_REACTORS
330
3C09
102
}
330
15
100
AcDbEntity
 67
     1
  8
ﾀｲﾄﾙ枠
  6
Continuous
370
    40
100
AcDbLine
 10
359.2401764338946
 20
13.82361344005357
 30
0.0
 11
359.2401764338946
 21
12.83861344005356
 31
0.0
  0
LINE
  5
1BE5
102
{ACAD_REACTORS
330
3C09
102
}
330
15
100
AcDbEntity
 67
     1
  8
ﾀｲﾄﾙ枠
  6
Continuous
370
    40
100
AcDbLine
 10
359.7151764338946
 20
13.82361344005357
 30
0.0
 11
359.2401764338946
 21
13.82361344005357
 31
0.0
  0
LINE
  5
1BE6
102
{ACAD_REACTORS
330
3C09
102
}
330
15
100
AcDbEntity
 67
     1
  8
ﾀｲﾄﾙ枠
  6
Continuous
370
    40
100
AcDbLine
 10
359.7151764338946
 20
12.83861344005356
 30
0.0
 11
359.7151764338946
 21
13.82361344005357
 31
0.0
  0
LINE
  5
1BE7
102
{ACAD_REACTORS
330
3C09
102
}
330
15
100
AcDbEntity
 67
     1
  8
ﾀｲﾄﾙ枠
  6
Continuous
370
    40
100
AcDbLine
 10
361.5351764338946
 20
8.914408359635558
 30
0.0
 11
361.5351764338946
 21
9.378532806185887
 31
0.0
  0
LINE
  5
1BE8
102
{ACAD_REACTORS
330
3C09
102
}
330
15
100
AcDbEntity
 67
     1
  8
ﾀｲﾄﾙ枠
  6
Continuous
370
    40
100
AcDbLine
 10
361.5351764338946
 20
9.378532806185887
 30
0.0
 11
360.030035324626
 21
10.23861344005354
 31
0.0
  0
LINE
  5
1BE9
102
{ACAD_REACTORS
330
3C09
102
}
330
15
100
AcDbEntity
 67
     1
  8
ﾀｲﾄﾙ枠
  6
Continuous
370
    40
100
AcDbLine
 10
360.8801398590353
 20
13.82361344005357
 30
0.0
 11
361.5699188114109
 21
13.82361344005357
 31
0.0
  0
LINE
  5
1BEA
102
{ACAD_REACTORS
330
3C09
102
}
330
15
100
AcDbEntity
 67
     1
  8
ﾀｲﾄﾙ枠
  6
Continuous
370
    40
100
AcDbLine
 10
360.0324512102233
 20
12.04861344005354
 30
0.0
 11
361.0570605852233
 21
13.57361344005357
 31
0.0
  0
LINE
  5
1BEB
102
{ACAD_REACTORS
330
3C09
102
}
330
15
100
AcDbEntity
 67
     1
  8
ﾀｲﾄﾙ枠
  6
Continuous
370
    40
100
AcDbLine
 10
361.5699188114109
 20
13.82361344005357
 30
0.0
 11
360.1777313114109
 21
11.79861344005354
 31
0.0
  0
LINE
  5
1BEC
102
{ACAD_REACTORS
330
3C09
102
}
330
15
100
AcDbEntity
 67
     1
  8
ﾀｲﾄﾙ枠
  6
Continuous
370
    40
100
AcDbLine
 10
361.7951764338946
 20
12.83861344005356
 30
0.0
 11
360.8927313114113
 21
12.83861344005356
 31
0.0
  0
LINE
  5
1BED
102
{ACAD_REACTORS
330
3C09
102
}
330
15
100
AcDbEntity
 67
     1
  8
ﾀｲﾄﾙ枠
  6
Continuous
370
    40
100
AcDbLine
 10
364.0851764338946
 20
13.57361344005357
 30
0.0
 11
364.0851764338946
 21
8.983613440053545
 31
0.0
  0
LINE
  5
1BEE
102
{ACAD_REACTORS
330
3C09
102
}
330
15
100
AcDbEntity
 67
     1
  8
ﾀｲﾄﾙ枠
  6
Continuous
370
    40
100
AcDbLine
 10
363.8151764338946
 20
8.733613440053545
 30
0.0
 11
363.8151764338946
 21
10.72500454932191
 31
0.0
  0
LINE
  5
1BEF
102
{ACAD_REACTORS
330
3C09
102
}
330
15
100
AcDbEntity
 67
     1
  8
ﾀｲﾄﾙ枠
  6
Continuous
370
    40
100
AcDbLine
 10
363.8151764338946
 20
12.64361344005357
 30
0.0
 11
363.8151764338946
 21
13.82361344005357
 31
0.0
  0
TEXT
  5
1BF0
330
15
100
AcDbEntity
 67
     1
  8
0
100
AcDbText
 10
336.7749814568428
 20
20.40765327664007
 30
0.0
 40
4.0
  1
YX ｶｳﾝﾀｰ
  7
MSP明朝W1
 72
     4
 11
349.9435207826854
 21
22.31776563619064
 31
0.0
100
AcDbText
  0
LINE
  5
1BF1
102
{ACAD_REACTORS
330
3C09
102
}
330
15
100
AcDbEntity
 67
     1
  8
ﾀｲﾄﾙ枠
  6
Continuous
370
    40
100
AcDbLine
 10
379.5354841867069
 20
8.743613440053536
 30
0.0
 11
381.1821508533736
 21
10.82361344005357
 31
0.0
  0
LINE
  5
1BF2
102
{ACAD_REACTORS
330
3C09
102
}
330
15
100
AcDbEntity
 67
     1
  8
ﾀｲﾄﾙ枠
  6
Continuous
370
    40
100
AcDbLine
 10
383.7604841867066
 20
8.743613440053536
 30
0.0
 11
378.8298686810823
 21
8.743613440053536
 31
0.0
  0
LINE
  5
1BF3
102
{ACAD_REACTORS
330
3C09
102
}
330
15
100
AcDbEntity
 67
     1
  8
ﾀｲﾄﾙ枠
  6
Continuous
370
    40
100
AcDbLine
 10
379.5951764338945
 20
11.67861344005354
 30
0.0
 11
382.9951764338946
 21
11.67861344005354
 31
0.0
  0
LINE
  5
1BF4
102
{ACAD_REACTORS
330
3C09
102
}
330
15
100
AcDbEntity
 67
     1
  8
ﾀｲﾄﾙ枠
  6
Continuous
370
    40
100
AcDbLine
 10
382.9951764338946
 20
11.78861344005355
 30
0.0
 11
379.5951764338945
 21
11.78861344005355
 31
0.0
  0
LINE
  5
1BF5
102
{ACAD_REACTORS
330
3C09
102
}
330
15
100
AcDbEntity
 67
     1
  8
ﾀｲﾄﾙ枠
  6
Continuous
370
    40
100
AcDbLine
 10
378.8051764338946
 20
12.44252693795488
 30
0.0
 11
381.0673494380915
 21
13.57361344005357
 31
0.0
  0
LINE
  5
1BF6
102
{ACAD_REACTORS
330
3C09
102
}
330
15
100
AcDbEntity
 67
     1
  8
ﾀｲﾄﾙ枠
  6
Continuous
370
    40
100
AcDbLine
 10
381.2951764338946
 20
13.3131219372409
 30
0.0
 11
378.5551764338946
 21
11.9431219372409
 31
0.0
  0
LINE
  5
1BF7
102
{ACAD_REACTORS
330
3C09
102
}
330
15
100
AcDbEntity
 67
     1
  8
ﾀｲﾄﾙ枠
  6
Continuous
370
    40
100
AcDbLine
 10
384.0351764338946
 20
10.82361344005357
 30
0.0
 11
378.5551764338946
 21
10.82361344005357
 31
0.0
  0
LINE
  5
1BF8
102
{ACAD_REACTORS
330
3C09
102
}
330
15
100
AcDbEntity
 67
     1
  8
ﾀｲﾄﾙ枠
  6
Continuous
370
    40
100
AcDbLine
 10
380.5802906995303
 20
13.82361344005357
 30
0.0
 11
382.0100621682589
 21
13.82361344005357
 31
0.0
  0
TEXT
  5
1BF9
330
15
100
AcDbEntity
 67
     1
  8
ﾀｲﾄﾙ枠
100
AcDbText
 10
379.3520938373982
 20
27.41722420007519
 30
0.0
 40
2.5
  1
尺 度
 50
270.0
  7
明朝TATE
 72
     4
 11
380.6301837250387
 21
23.2739657731089
 31
0.0
100
AcDbText
  0
LINE
  5
1BFA
330
15
100
AcDbEntity
 67
     1
  8
ﾀｲﾄﾙ枠
100
AcDbLine
 10
378.1301837250387
 20
17.27396577310889
 30
0.0
 11
378.1301837250387
 21
29.2739657731089
 31
0.0
  0
LINE
  5
1BFB
102
{ACAD_REACTORS
330
3C09
102
}
330
15
100
AcDbEntity
 67
     1
  8
ﾀｲﾄﾙ枠
  6
Continuous
370
    40
100
AcDbLine
 10
371.0551764338946
 20
12.64361344005357
 30
0.0
 11
376.4051764338946
 21
12.64361344005357
 31
0.0
  0
LINE
  5
1BFC
102
{ACAD_REACTORS
330
3C09
102
}
330
15
100
AcDbEntity
 67
     1
  8
ﾀｲﾄﾙ枠
  6
Continuous
370
    40
100
AcDbLine
 10
373.5900758597961
 20
9.552070732889092
 30
0.0
 11
371.3400758597961
 21
9.192070732889135
 31
0.0
  0
LINE
  5
1BFD
102
{ACAD_REACTORS
330
3C09
102
}
330
15
100
AcDbEntity
 67
     1
  8
ﾀｲﾄﾙ枠
  6
Continuous
370
    40
100
AcDbLine
 10
373.5202770079931
 20
9.988313556657317
 30
0.0
 11
371.2702770079931
 21
9.628313556657303
 31
0.0
  0
LINE
  5
1BFE
102
{ACAD_REACTORS
330
3C09
102
}
330
15
100
AcDbEntity
 67
     1
  8
ﾀｲﾄﾙ枠
  6
Continuous
370
    40
100
AcDbLine
 10
373.5551764338946
 20
9.770192144773204
 30
0.0
 11
371.3051764338946
 21
9.410192144773191
 31
0.0
  0
LINE
  5
1BFF
102
{ACAD_REACTORS
330
3C09
102
}
330
15
100
AcDbEntity
 67
     1
  8
ﾀｲﾄﾙ枠
  6
Continuous
370
    40
100
AcDbLine
 10
371.0551764338946
 20
9.951819873813235
 30
0.0
 11
373.8051764338946
 21
10.28181987381322
 31
0.0
  0
LINE
  5
1C00
102
{ACAD_REACTORS
330
3C09
102
}
330
15
100
AcDbEntity
 67
     1
  8
ﾀｲﾄﾙ枠
  6
Continuous
370
    40
100
AcDbLine
 10
373.8051764338946
 20
9.33856441573323
 30
0.0
 11
371.0551764338946
 21
8.788564415733219
 31
0.0
  0
LINE
  5
1C01
102
{ACAD_REACTORS
330
3C09
102
}
330
15
100
AcDbEntity
 67
     1
  8
ﾀｲﾄﾙ枠
  6
Continuous
370
    40
100
AcDbLine
 10
373.8051764338946
 20
11.73361344005354
 30
0.0
 11
371.0551764338946
 21
11.73361344005354
 31
0.0
  0
LINE
  5
1C02
102
{ACAD_REACTORS
330
3C09
102
}
330
15
100
AcDbEntity
 67
     1
  8
ﾀｲﾄﾙ枠
  6
Continuous
370
    40
100
AcDbLine
 10
371.8351764338946
 20
10.04541987381321
 30
0.0
 11
371.8351764338946
 21
11.73361344005354
 31
0.0
  0
LINE
  5
1C03
102
{ACAD_REACTORS
330
3C09
102
}
330
15
100
AcDbEntity
 67
     1
  8
ﾀｲﾄﾙ枠
  6
Continuous
370
    40
100
AcDbLine
 10
371.0551764338946
 20
8.788564415733219
 30
0.0
 11
371.0551764338946
 21
9.951819873813235
 31
0.0
  0
LINE
  5
1C04
102
{ACAD_REACTORS
330
3C09
102
}
330
15
100
AcDbEntity
 67
     1
  8
ﾀｲﾄﾙ枠
  6
Continuous
370
    40
100
AcDbLine
 10
367.7351764338946
 20
10.31361344005353
 30
0.0
 11
368.5919263168536
 21
10.31361344005353
 31
0.0
  0
LINE
  5
1C05
102
{ACAD_REACTORS
330
3C09
102
}
330
15
100
AcDbEntity
 67
     1
  8
ﾀｲﾄﾙ枠
  6
Continuous
370
    40
100
AcDbLine
 10
365.6351764338946
 20
11.47361344005355
 30
0.0
 11
368.7751764338946
 21
11.47361344005355
 31
0.0
  0
LINE
  5
1C06
102
{ACAD_REACTORS
330
3C09
102
}
330
15
100
AcDbEntity
 67
     1
  8
ﾀｲﾄﾙ枠
  6
Continuous
370
    40
100
AcDbLine
 10
368.9051764338946
 20
12.64361344005357
 30
0.0
 11
365.6351764338946
 21
12.64361344005357
 31
0.0
  0
LINE
  5
1C07
102
{ACAD_REACTORS
330
3C09
102
}
330
15
100
AcDbEntity
 67
     1
  8
ﾀｲﾄﾙ枠
  6
Continuous
370
    40
100
AcDbLine
 10
368.7465461249059
 20
8.733613440053545
 30
0.0
 11
368.154046124906
 21
10.31361344005353
 31
0.0
  0
LINE
  5
1C08
102
{ACAD_REACTORS
330
3C09
102
}
330
15
100
AcDbEntity
 67
     1
  8
ﾀｲﾄﾙ枠
  6
Continuous
370
    40
100
AcDbLine
 10
367.0651764338946
 20
8.733613440053545
 30
0.0
 11
367.0651764338946
 21
13.82361344005357
 31
0.0
  0
LINE
  5
1C09
102
{ACAD_REACTORS
330
3C09
102
}
330
15
100
AcDbEntity
 67
     1
  8
ﾀｲﾄﾙ枠
  6
Continuous
370
    40
100
AcDbLine
 10
367.7351764338946
 20
13.82361344005357
 30
0.0
 11
367.7351764338946
 21
8.733613440053545
 31
0.0
  0
LINE
  5
1C0A
102
{ACAD_REACTORS
330
3C09
102
}
330
15
100
AcDbEntity
 67
     1
  8
ﾀｲﾄﾙ枠
  6
Continuous
370
    40
100
AcDbLine
 10
367.4001764338946
 20
8.983613440053545
 30
0.0
 11
367.4001764338946
 21
13.57361344005357
 31
0.0
  0
LINE
  5
1C0B
102
{ACAD_REACTORS
330
3C09
102
}
330
15
100
AcDbEntity
 67
     1
  8
ﾀｲﾄﾙ枠
  6
Continuous
370
    40
100
AcDbLine
 10
365.8580788664696
 20
8.733613440053545
 30
0.0
 11
366.6480788664696
 21
10.31361344005353
 31
0.0
  0
LINE
  5
1C0C
102
{ACAD_REACTORS
330
3C09
102
}
330
15
100
AcDbEntity
 67
     1
  8
ﾀｲﾄﾙ枠
  6
Continuous
370
    40
100
AcDbLine
 10
366.1896849310823
 20
10.31361344005353
 30
0.0
 11
365.399684931082
 21
8.733613440053545
 31
0.0
  0
LINE
  5
1C0D
102
{ACAD_REACTORS
330
3C09
102
}
330
15
100
AcDbEntity
 67
     1
  8
ﾀｲﾄﾙ枠
  6
Continuous
370
    40
100
AcDbLine
 10
367.7351764338946
 20
8.733613440053545
 30
0.0
 11
367.0651764338946
 21
8.733613440053545
 31
0.0
  0
LINE
  5
1C0E
102
{ACAD_REACTORS
330
3C09
102
}
330
15
100
AcDbEntity
 67
     1
  8
ﾀｲﾄﾙ枠
  6
Continuous
370
    40
100
AcDbLine
 10
365.399684931082
 20
8.733613440053545
 30
0.0
 11
365.8580788664696
 21
8.733613440053545
 31
0.0
  0
LINE
  5
1C0F
102
{ACAD_REACTORS
330
3C09
102
}
330
15
100
AcDbEntity
 67
     1
  8
ﾀｲﾄﾙ枠
  6
Continuous
370
    40
100
AcDbLine
 10
364.7451764338946
 20
11.78028010672022
 30
0.0
 11
364.7451764338946
 21
11.31361344005352
 31
0.0
  0
LINE
  5
1C10
102
{ACAD_REACTORS
330
3C09
102
}
330
15
100
AcDbEntity
 67
     1
  8
ﾀｲﾄﾙ枠
  6
Continuous
370
    40
100
AcDbLine
 10
367.0651764338946
 20
13.82361344005357
 30
0.0
 11
367.7351764338946
 21
13.82361344005357
 31
0.0
  0
LINE
  5
1C11
102
{ACAD_REACTORS
330
3C09
102
}
330
15
100
AcDbEntity
 67
     1
  8
ﾀｲﾄﾙ枠
  6
Continuous
370
    40
100
AcDbLine
 10
367.0651764338946
 20
10.31361344005353
 30
0.0
 11
366.1896849310823
 21
10.31361344005353
 31
0.0
  0
LINE
  5
1C12
102
{ACAD_REACTORS
330
3C09
102
}
330
15
100
AcDbEntity
 67
     1
  8
ﾀｲﾄﾙ枠
  6
Continuous
370
    40
100
AcDbLine
 10
366.0451764338946
 20
13.82361344005357
 30
0.0
 11
366.0451764338946
 21
12.64361344005357
 31
0.0
  0
LINE
  5
1C13
102
{ACAD_REACTORS
330
3C09
102
}
330
15
100
AcDbEntity
 67
     1
  8
ﾀｲﾄﾙ枠
  6
Continuous
370
    40
100
AcDbLine
 10
365.6351764338946
 20
13.82361344005357
 30
0.0
 11
366.0451764338946
 21
13.82361344005357
 31
0.0
  0
LINE
  5
1C14
102
{ACAD_REACTORS
330
3C09
102
}
330
15
100
AcDbEntity
 67
     1
  8
ﾀｲﾄﾙ枠
  6
Continuous
370
    40
100
AcDbLine
 10
365.6351764338946
 20
12.64361344005357
 30
0.0
 11
365.6351764338946
 21
13.82361344005357
 31
0.0
  0
LINE
  5
1C15
102
{ACAD_REACTORS
330
3C09
102
}
330
15
100
AcDbEntity
 67
     1
  8
ﾀｲﾄﾙ枠
  6
Continuous
370
    40
100
AcDbLine
 10
368.5919263168536
 20
10.31361344005353
 30
0.0
 11
369.1844263168535
 21
8.733613440053545
 31
0.0
  0
LINE
  5
1C16
102
{ACAD_REACTORS
330
3C09
102
}
330
15
100
AcDbEntity
 67
     1
  8
ﾀｲﾄﾙ枠
  6
Continuous
370
    40
100
AcDbLine
 10
369.1844263168535
 20
8.733613440053545
 30
0.0
 11
368.7465461249059
 21
8.733613440053545
 31
0.0
  0
LINE
  5
1C17
102
{ACAD_REACTORS
330
3C09
102
}
330
15
100
AcDbEntity
 67
     1
  8
ﾀｲﾄﾙ枠
  6
Continuous
370
    40
100
AcDbLine
 10
372.2351764338946
 20
11.48361344005354
 30
0.0
 11
372.2351764338946
 21
10.09341987381321
 31
0.0
  0
LINE
  5
1C18
102
{ACAD_REACTORS
330
3C09
102
}
330
15
100
AcDbEntity
 67
     1
  8
ﾀｲﾄﾙ枠
  6
Continuous
370
    40
100
AcDbLine
 10
364.3551764338945
 20
11.83361344005356
 30
0.0
 11
364.3551764338945
 21
8.733613440053545
 31
0.0
  0
LINE
  5
1C19
102
{ACAD_REACTORS
330
3C09
102
}
330
15
100
AcDbEntity
 67
     1
  8
ﾀｲﾄﾙ枠
  6
Continuous
370
    40
100
AcDbLine
 10
364.3551764338945
 20
13.82361344005357
 30
0.0
 11
364.3551764338945
 21
12.64361344005357
 31
0.0
  0
LINE
  5
1C1A
102
{ACAD_REACTORS
330
3C09
102
}
330
15
100
AcDbEntity
 67
     1
  8
ﾀｲﾄﾙ枠
  6
Continuous
370
    40
100
AcDbLine
 10
364.7451764338946
 20
11.31361344005352
 30
0.0
 11
364.3551764338945
 21
11.83361344005356
 31
0.0
  0
LINE
  5
1C1B
102
{ACAD_REACTORS
330
3C09
102
}
330
15
100
AcDbEntity
 67
     1
  8
ﾀｲﾄﾙ枠
  6
Continuous
370
    40
100
AcDbLine
 10
380.6854994341453
 20
10.64191617721223
 30
0.0
 11
379.3885097672279
 21
9.003613440053527
 31
0.0
  0
LINE
  5
1C1C
102
{ACAD_REACTORS
330
3C09
102
}
330
15
100
AcDbEntity
 67
     1
  8
ﾀｲﾄﾙ枠
  6
Continuous
370
    40
100
AcDbLine
 10
378.8298686810823
 20
8.743613440053536
 30
0.0
 11
380.4686186810826
 21
10.81361344005353
 31
0.0
  0
LINE
  5
1C1D
102
{ACAD_REACTORS
330
3C09
102
}
330
15
100
AcDbEntity
 67
     1
  8
ﾀｲﾄﾙ枠
  6
Continuous
370
    40
100
AcDbLine
 10
378.5551764338946
 20
12.69193193866885
 30
0.0
 11
380.5802906995303
 21
13.82361344005357
 31
0.0
  0
LINE
  5
1C1E
102
{ACAD_REACTORS
330
3C09
102
}
330
15
100
AcDbEntity
 67
     1
  8
ﾀｲﾄﾙ枠
  6
Continuous
370
    40
100
AcDbLine
 10
379.5951764338945
 20
11.78861344005355
 30
0.0
 11
379.5951764338945
 21
11.67861344005354
 31
0.0
  0
LINE
  5
1C1F
102
{ACAD_REACTORS
330
3C09
102
}
330
15
100
AcDbEntity
 67
     1
  8
ﾀｲﾄﾙ枠
  6
Continuous
370
    40
100
AcDbLine
 10
378.5551764338946
 20
11.9431219372409
 30
0.0
 11
378.5551764338946
 21
12.69193193866885
 31
0.0
  0
LINE
  5
1C20
102
{ACAD_REACTORS
330
3C09
102
}
330
15
100
AcDbEntity
 67
     1
  8
ﾀｲﾄﾙ枠
  6
Continuous
370
    40
100
AcDbLine
 10
375.8651764338946
 20
13.56361344005353
 30
0.0
 11
376.4051764338946
 21
13.56361344005353
 31
0.0
  0
LINE
  5
1C21
102
{ACAD_REACTORS
330
3C09
102
}
330
15
100
AcDbEntity
 67
     1
  8
ﾀｲﾄﾙ枠
  6
Continuous
370
    40
100
AcDbLine
 10
376.4051764338946
 20
13.41361344005355
 30
0.0
 11
375.8651764338946
 21
13.41361344005355
 31
0.0
  0
LINE
  5
1C22
102
{ACAD_REACTORS
330
3C09
102
}
330
15
100
AcDbEntity
 67
     1
  8
ﾀｲﾄﾙ枠
  6
Continuous
370
    40
100
AcDbLine
 10
376.4484197194153
 20
8.733613440053545
 30
0.0
 11
375.5407703576763
 21
8.733613440053545
 31
0.0
  0
LINE
  5
1C23
102
{ACAD_REACTORS
330
3C09
102
}
330
15
100
AcDbEntity
 67
     1
  8
ﾀｲﾄﾙ枠
  6
Continuous
370
    40
100
AcDbLine
 10
375.2693499519736
 20
12.63361344005352
 30
0.0
 11
376.4484197194153
 21
8.733613440053545
 31
0.0
  0
LINE
  5
1C24
102
{ACAD_REACTORS
330
3C09
102
}
330
15
100
AcDbEntity
 67
     1
  8
ﾀｲﾄﾙ枠
  6
Continuous
370
    40
100
AcDbLine
 10
374.2917702136487
 20
13.60271771748165
 30
0.0
 11
375.6970425674424
 21
8.95450916262547
 31
0.0
  0
LINE
  5
1C25
102
{ACAD_REACTORS
330
3C09
102
}
330
15
100
AcDbEntity
 67
     1
  8
ﾀｲﾄﾙ枠
  6
Continuous
370
    40
100
AcDbLine
 10
374.7533103003468
 20
13.60271771748165
 30
0.0
 11
376.1585826541405
 21
8.95450916262547
 31
0.0
  0
LINE
  5
1C26
102
{ACAD_REACTORS
330
3C09
102
}
330
15
100
AcDbEntity
 67
     1
  8
ﾀｲﾄﾙ枠
  6
Continuous
370
    40
100
AcDbLine
 10
374.5225402569977
 20
13.60271771748165
 30
0.0
 11
375.9278126107914
 21
8.95450916262547
 31
0.0
  0
LINE
  5
1C27
102
{ACAD_REACTORS
330
3C09
102
}
330
15
100
AcDbEntity
 67
     1
  8
ﾀｲﾄﾙ枠
  6
Continuous
370
    40
100
AcDbLine
 10
375.5407703576763
 20
8.733613440053545
 30
0.0
 11
374.3617005902343
 21
12.63361344005352
 31
0.0
  0
LINE
  5
1C28
102
{ACAD_REACTORS
330
3C09
102
}
330
15
100
AcDbEntity
 67
     1
  8
ﾀｲﾄﾙ枠
  6
Continuous
370
    40
100
AcDbLine
 10
373.8051764338946
 20
10.28181987381322
 30
0.0
 11
373.8051764338946
 21
9.33856441573323
 31
0.0
  0
LINE
  5
1C29
102
{ACAD_REACTORS
330
3C09
102
}
330
15
100
AcDbEntity
 67
     1
  8
ﾀｲﾄﾙ枠
  6
Continuous
370
    40
100
AcDbLine
 10
375.8651764338946
 20
13.41361344005355
 30
0.0
 11
375.8651764338946
 21
13.56361344005353
 31
0.0
  0
LINE
  5
1C2A
102
{ACAD_REACTORS
330
3C09
102
}
330
15
100
AcDbEntity
 67
     1
  8
ﾀｲﾄﾙ枠
  6
Continuous
370
    40
100
AcDbLine
 10
374.0019331483739
 20
13.82361344005357
 30
0.0
 11
374.9095825101129
 21
13.82361344005357
 31
0.0
  0
LINE
  5
1C2B
102
{ACAD_REACTORS
330
3C09
102
}
330
15
100
AcDbEntity
 67
     1
  8
ﾀｲﾄﾙ枠
  6
Continuous
370
    40
100
AcDbLine
 10
374.3556540786066
 20
12.65361344005356
 30
0.0
 11
374.0019331483739
 21
13.82361344005357
 31
0.0
  0
LINE
  5
1C2C
102
{ACAD_REACTORS
330
3C09
102
}
330
15
100
AcDbEntity
 67
     1
  8
ﾀｲﾄﾙ枠
  6
Continuous
370
    40
100
AcDbLine
 10
374.9095825101129
 20
13.82361344005357
 30
0.0
 11
375.2633034403456
 21
12.65361344005356
 31
0.0
  0
LINE
  5
1C2D
102
{ACAD_REACTORS
330
3C09
102
}
330
15
100
AcDbEntity
 67
     1
  8
ﾀｲﾄﾙ枠
  6
Continuous
370
    40
100
AcDbLine
 10
376.4051764338946
 20
13.56361344005353
 30
0.0
 11
376.4051764338946
 21
13.41361344005355
 31
0.0
  0
LINE
  5
1C2E
102
{ACAD_REACTORS
330
3C09
102
}
330
15
100
AcDbEntity
 67
     1
  8
ﾀｲﾄﾙ枠
  6
Continuous
370
    40
100
AcDbLine
 10
372.6351764338946
 20
10.14141987381321
 30
0.0
 11
372.6351764338946
 21
11.73361344005354
 31
0.0
  0
LINE
  5
1C2F
330
15
100
AcDbEntity
 67
     1
  8
ﾀｲﾄﾙ枠
100
AcDbLine
 10
383.1301837250387
 20
17.27396577310889
 30
0.0
 11
383.1301837250387
 21
29.2739657731089
 31
0.0
  0
LINE
  5
1C30
102
{ACAD_REACTORS
330
3C09
102
}
330
15
100
AcDbEntity
 67
     1
  8
ﾀｲﾄﾙ枠
  6
Continuous
370
    40
100
AcDbLine
 10
388.3431068556236
 20
10.96361344005356
 30
0.0
 11
388.7297735222903
 21
9.513613440053575
 31
0.0
  0
LINE
  5
1C31
102
{ACAD_REACTORS
330
3C09
102
}
330
15
100
AcDbEntity
 67
     1
  8
ﾀｲﾄﾙ枠
  6
Continuous
370
    40
100
AcDbLine
 10
388.5745317753279
 20
9.513613440053575
 30
0.0
 11
388.1878651086609
 21
10.96361344005356
 31
0.0
  0
LINE
  5
1C32
102
{ACAD_REACTORS
330
3C09
102
}
330
15
100
AcDbEntity
 67
     1
  8
ﾀｲﾄﾙ枠
  6
Continuous
370
    40
100
AcDbLine
 10
387.2951764338946
 20
11.87361344005353
 30
0.0
 11
387.2951764338946
 21
8.983613440053545
 31
0.0
  0
LINE
  5
1C33
102
{ACAD_REACTORS
330
3C09
102
}
330
15
100
AcDbEntity
 67
     1
  8
ﾀｲﾄﾙ枠
  6
Continuous
370
    40
100
AcDbLine
 10
387.6951764338946
 20
11.87361344005353
 30
0.0
 11
387.6951764338946
 21
8.983613440053545
 31
0.0
  0
LINE
  5
1C34
102
{ACAD_REACTORS
330
3C09
102
}
330
15
100
AcDbEntity
 67
     1
  8
ﾀｲﾄﾙ枠
  6
Continuous
370
    40
100
AcDbLine
 10
386.3101467885836
 20
9.513613440053575
 30
0.0
 11
386.7934801219169
 21
10.96361344005356
 31
0.0
  0
LINE
  5
1C35
102
{ACAD_REACTORS
330
3C09
102
}
330
15
100
AcDbEntity
 67
     1
  8
ﾀｲﾄﾙ枠
  6
Continuous
370
    40
100
AcDbLine
 10
387.4951764338946
 20
11.87361344005353
 30
0.0
 11
387.4951764338946
 21
8.983613440053545
 31
0.0
  0
LINE
  5
1C36
102
{ACAD_REACTORS
330
3C09
102
}
330
15
100
AcDbEntity
 67
     1
  8
ﾀｲﾄﾙ枠
  6
Continuous
370
    40
100
AcDbLine
 10
387.8951764338946
 20
8.733613440053545
 30
0.0
 11
387.8951764338946
 21
12.12361344005353
 31
0.0
  0
LINE
  5
1C37
102
{ACAD_REACTORS
330
3C09
102
}
330
15
100
AcDbEntity
 67
     1
  8
ﾀｲﾄﾙ枠
  6
Continuous
370
    40
100
AcDbLine
 10
387.0951764338946
 20
12.12361344005353
 30
0.0
 11
387.0951764338946
 21
8.733613440053545
 31
0.0
  0
LINE
  5
1C38
102
{ACAD_REACTORS
330
3C09
102
}
330
15
100
AcDbEntity
 67
     1
  8
ﾀｲﾄﾙ枠
  6
Continuous
370
    40
100
AcDbLine
 10
387.0951764338946
 20
8.733613440053545
 30
0.0
 11
387.8951764338946
 21
8.733613440053545
 31
0.0
  0
LINE
  5
1C39
102
{ACAD_REACTORS
330
3C09
102
}
330
15
100
AcDbEntity
 67
     1
  8
ﾀｲﾄﾙ枠
  6
Continuous
370
    40
100
AcDbLine
 10
386.5751764338946
 20
13.81361344005353
 30
0.0
 11
388.2851764338946
 21
13.81361344005353
 31
0.0
  0
LINE
  5
1C3A
102
{ACAD_REACTORS
330
3C09
102
}
330
15
100
AcDbEntity
 67
     1
  8
ﾀｲﾄﾙ枠
  6
Continuous
370
    40
100
AcDbLine
 10
387.0951764338946
 20
10.96361344005356
 30
0.0
 11
386.6353662389085
 21
10.96361344005356
 31
0.0
  0
LINE
  5
1C3B
102
{ACAD_REACTORS
330
3C09
102
}
330
15
100
AcDbEntity
 67
     1
  8
ﾀｲﾄﾙ枠
  6
Continuous
370
    40
100
AcDbLine
 10
388.3431068556236
 20
10.96361344005356
 30
0.0
 11
387.8951764338946
 21
10.96361344005356
 31
0.0
  0
LINE
  5
1C3C
102
{ACAD_REACTORS
330
3C09
102
}
330
15
100
AcDbEntity
 67
     1
  8
ﾀｲﾄﾙ枠
  6
Continuous
370
    40
100
AcDbLine
 10
388.4151764338946
 20
12.12361344005353
 30
0.0
 11
386.3151764338946
 21
12.12361344005353
 31
0.0
  0
LINE
  5
1C3D
102
{ACAD_REACTORS
330
3C09
102
}
330
15
100
AcDbEntity
 67
     1
  8
ﾀｲﾄﾙ枠
  6
Continuous
370
    40
100
AcDbLine
 10
383.2018431005613
 20
9.003613440053527
 30
0.0
 11
381.904853433644
 21
10.64191617721223
 31
0.0
  0
LINE
  5
1C3E
102
{ACAD_REACTORS
330
3C09
102
}
330
15
100
AcDbEntity
 67
     1
  8
ﾀｲﾄﾙ枠
  6
Continuous
370
    40
100
AcDbLine
 10
381.4082020144156
 20
10.82361344005357
 30
0.0
 11
383.0548686810826
 21
8.743613440053536
 31
0.0
  0
LINE
  5
1C3F
102
{ACAD_REACTORS
330
3C09
102
}
330
15
100
AcDbEntity
 67
     1
  8
ﾀｲﾄﾙ枠
  6
Continuous
370
    40
100
AcDbLine
 10
382.1217341867066
 20
10.81361344005353
 30
0.0
 11
383.7604841867066
 21
8.743613440053536
 31
0.0
  0
LINE
  5
1C40
102
{ACAD_REACTORS
330
3C09
102
}
330
15
100
AcDbEntity
 67
     1
  8
ﾀｲﾄﾙ枠
  6
Continuous
370
    40
100
AcDbLine
 10
382.9951764338946
 20
11.67861344005354
 30
0.0
 11
382.9951764338946
 21
11.78861344005355
 31
0.0
  0
LINE
  5
1C41
102
{ACAD_REACTORS
330
3C09
102
}
330
15
100
AcDbEntity
 67
     1
  8
ﾀｲﾄﾙ枠
  6
Continuous
370
    40
100
AcDbLine
 10
381.5230034296977
 20
13.57361344005357
 30
0.0
 11
383.7851764338946
 21
12.44252693795488
 31
0.0
  0
LINE
  5
1C42
102
{ACAD_REACTORS
330
3C09
102
}
330
15
100
AcDbEntity
 67
     1
  8
ﾀｲﾄﾙ枠
  6
Continuous
370
    40
100
AcDbLine
 10
381.0673494380915
 20
13.57361344005357
 30
0.0
 11
381.5230034296977
 21
13.57361344005357
 31
0.0
  0
LINE
  5
1C43
102
{ACAD_REACTORS
330
3C09
102
}
330
15
100
AcDbEntity
 67
     1
  8
ﾀｲﾄﾙ枠
  6
Continuous
370
    40
100
AcDbLine
 10
384.0351764338946
 20
11.9431219372409
 30
0.0
 11
381.2951764338946
 21
13.3131219372409
 31
0.0
  0
LINE
  5
1C44
102
{ACAD_REACTORS
330
3C09
102
}
330
15
100
AcDbEntity
 67
     1
  8
ﾀｲﾄﾙ枠
  6
Continuous
370
    40
100
AcDbLine
 10
384.0351764338946
 20
12.69193193866885
 30
0.0
 11
384.0351764338946
 21
11.9431219372409
 31
0.0
  0
LINE
  5
1C45
102
{ACAD_REACTORS
330
3C09
102
}
330
15
100
AcDbEntity
 67
     1
  8
ﾀｲﾄﾙ枠
  6
Continuous
370
    40
100
AcDbLine
 10
382.0100621682589
 20
13.82361344005357
 30
0.0
 11
384.0351764338946
 21
12.69193193866885
 31
0.0
  0
LINE
  5
1C46
102
{ACAD_REACTORS
330
3C09
102
}
330
15
100
AcDbEntity
 67
     1
  8
ﾀｲﾄﾙ枠
  6
Continuous
370
    40
100
AcDbLine
 10
386.6353662389085
 20
10.96361344005356
 30
0.0
 11
386.1520329055753
 21
9.513613440053575
 31
0.0
  0
LINE
  5
1C47
102
{ACAD_REACTORS
330
3C09
102
}
330
15
100
AcDbEntity
 67
     1
  8
ﾀｲﾄﾙ枠
  6
Continuous
370
    40
100
AcDbLine
 10
386.1520329055753
 20
9.513613440053575
 30
0.0
 11
386.3101467885836
 21
9.513613440053575
 31
0.0
  0
LINE
  5
1C48
102
{ACAD_REACTORS
330
3C09
102
}
330
15
100
AcDbEntity
 67
     1
  8
ﾀｲﾄﾙ枠
  6
Continuous
370
    40
100
AcDbLine
 10
388.7297735222903
 20
9.513613440053575
 30
0.0
 11
388.5745317753279
 21
9.513613440053575
 31
0.0
  0
LINE
  5
1C49
102
{ACAD_REACTORS
330
3C09
102
}
330
15
100
AcDbEntity
 67
     1
  8
ﾀｲﾄﾙ枠
  6
Continuous
370
    40
100
AcDbLine
 10
390.0901764338946
 20
8.928613440053538
 30
0.0
 11
390.0901764338946
 21
13.57361344005357
 31
0.0
  0
LINE
  5
1C4A
102
{ACAD_REACTORS
330
3C09
102
}
330
15
100
AcDbEntity
 67
     1
  8
ﾀｲﾄﾙ枠
  6
Continuous
370
    40
100
AcDbLine
 10
390.4901764338946
 20
8.928613440053538
 30
0.0
 11
390.4901764338946
 21
13.57361344005357
 31
0.0
  0
LINE
  5
1C4B
102
{ACAD_REACTORS
330
3C09
102
}
330
15
100
AcDbEntity
 67
     1
  8
ﾀｲﾄﾙ枠
  6
Continuous
370
    40
100
AcDbLine
 10
390.2901764338946
 20
8.928613440053538
 30
0.0
 11
390.2901764338946
 21
13.57361344005357
 31
0.0
  0
LINE
  5
1C4C
102
{ACAD_REACTORS
330
3C09
102
}
330
15
100
AcDbEntity
 67
     1
  8
ﾀｲﾄﾙ枠
  6
Continuous
370
    40
100
AcDbLine
 10
390.7551764338946
 20
13.82361344005357
 30
0.0
 11
390.7551764338946
 21
8.678613440053538
 31
0.0
  0
LINE
  5
1C4D
102
{ACAD_REACTORS
330
3C09
102
}
330
15
100
AcDbEntity
 67
     1
  8
ﾀｲﾄﾙ枠
  6
Continuous
370
    40
100
AcDbLine
 10
389.8251764338946
 20
8.678613440053538
 30
0.0
 11
389.8251764338946
 21
13.82361344005357
 31
0.0
  0
LINE
  5
1C4E
102
{ACAD_REACTORS
330
3C09
102
}
330
15
100
AcDbEntity
 67
     1
  8
ﾀｲﾄﾙ枠
  6
Continuous
370
    40
100
AcDbLine
 10
391.7951764338946
 20
8.678613440053538
 30
0.0
 11
389.1751764338946
 21
8.678613440053538
 31
0.0
  0
LINE
  5
1C4F
102
{ACAD_REACTORS
330
3C09
102
}
330
15
100
AcDbEntity
 67
     1
  8
ﾀｲﾄﾙ枠
  6
Continuous
370
    40
100
AcDbLine
 10
389.3051764338946
 20
12.12361344005353
 30
0.0
 11
391.6651764338946
 21
12.12361344005353
 31
0.0
  0
LINE
  5
1C50
102
{ACAD_REACTORS
330
3C09
102
}
330
15
100
AcDbEntity
 67
     1
  8
ﾀｲﾄﾙ枠
  6
Continuous
370
    40
100
AcDbLine
 10
389.8251764338946
 20
13.82361344005357
 30
0.0
 11
390.7551764338946
 21
13.82361344005357
 31
0.0
  0
TEXT
  5
1C8C
330
15
100
AcDbEntity
 67
     1
  8
0
100
AcDbText
 10
384.1830414099428
 20
21.61533165747172
 30
0.0
 40
3.5
  1
1/10, 1/1
  7
MSP明朝W1
 72
     4
 11
394.5257380391563
 21
23.25718559005599
 31
0.0
100
AcDbText
  0
ENDSEC
  0
SECTION
  2
OBJECTS
  0
DICTIONARY
  5
C
330
0
100
AcDbDictionary
281
     1
  3
ACAD_GROUP
350
D
  3
ACAD_LAYOUT
350
19D2
  3
ACAD_MLINESTYLE
350
1B
  3
ACAD_PLOTSETTINGS
350
19D3
  3
ACAD_PLOTSTYLENAME
350
19D0
  3
ACDBVARIABLEDICTIONARY
350
2CE
  3
CONTENTDICTIONARY
350
23
  0
DICTIONARY
  5
1F07
330
2
100
AcDbDictionary
280
     1
281
     1
  3
ACAD_LAYERFILTERS
360
1F08
  0
DICTIONARY
  5
1CC6
330
18
100
AcDbDictionary
280
     1
281
     1
  3
ACAD_LAYOUTSELFREF
360
1CC7
  0
DICTIONARY
  5
1CC4
330
15
100
AcDbDictionary
280
     1
281
     1
  3
ACAD_LAYOUTSELFREF
360
1CC5
  0
DICTIONARY
  5
D
102
{ACAD_REACTORS
330
C
102
}
330
C
100
AcDbDictionary
281
     1
  3
*A1
350
2763
  3
*A2
350
27D5
  3
*A3
350
37FD
  3
*A4
350
37FE
  3
*A5
350
3902
  3
*A6
350
3903
  3
*A7
350
391E
  3
*A8
350
3C09
  0
DICTIONARY
  5
19D2
102
{ACAD_REACTORS
330
C
102
}
330
C
100
AcDbDictionary
281
     1
  3
Model
350
19D4
  3
ﾚｲｱｳﾄ1
350
19D5
  0
DICTIONARY
  5
1B
102
{ACAD_REACTORS
330
C
102
}
330
C
100
AcDbDictionary
281
     1
  3
STANDARD
350
1C
  0
DICTIONARY
  5
19D3
102
{ACAD_REACTORS
330
C
102
}
330
C
100
AcDbDictionary
281
     1
  0
ACDBDICTIONARYWDFLT
  5
19D0
102
{ACAD_REACTORS
330
C
102
}
330
C
100
AcDbDictionary
281
     1
  3
Normal
350
19D1
100
AcDbDictionaryWithDefault
340
19D1
  0
DICTIONARY
  5
2CE
102
{ACAD_REACTORS
330
C
102
}
330
C
100
AcDbDictionary
281
     1
  3
DIMADEC
350
2CF
  3
SORTENTS
350
1857
  0
DICTIONARY
  5
23
102
{ACAD_REACTORS
330
C
102
}
330
C
100
AcDbDictionary
281
     1
  0
DICTIONARY
  5
1F08
102
{ACAD_REACTORS
330
1F07
102
}
330
1F07
100
AcDbDictionary
280
     1
281
     1
  3
\U+663E示所有\U+56FE\U+5C42
360
1F09
  3
\U+9EC3色
360
1F0A
  3
1
360
1F0B
  3
1-L
360
1F0C
  3
1stFloor
360
1F0D
  3
2
360
1F0E
  3
200
360
1F0F
  3
2ndFloor
360
1F10
  3
3
360
1F11
  3
400
360
1F12
  3
A
360
1F13
  3
A-
360
1F14
  3
A-ELEV
360
1F15
  3
ac
360
1F16
  3
ALL-TXT
360
1F17
  3
ap平面圖
360
1F18
  3
AR-TXT
360
1F19
  3
ARCHITECTS
360
1F1A
  3
area
360
1F1B
  3
asd
360
1F1C
  3
B
360
1F1D
  3
Basci
360
1F1E
  3
base_map
360
1F1F
  3
BB
360
1F20
  3
BLUE
360
1F21
  3
boun地籍資料
360
1F22
  3
BROWNLINES
360
1F23
  3
BW-TXT
360
1F24
  3
C-
360
1F25
  3
CEILING
360
1F26
  3
cloud
360
1F27
  3
co
360
1F28
  3
co-
360
1F29
  3
color-7
360
1F2A
  3
columns-propose
360
1F2B
  3
columns-proposed
360
1F2C
  3
Combo
360
1F2D
  3
complete-services
360
1F2E
  3
CONSTRUCTION-DOC
360
1F2F
  3
cont整地
360
1F30
  3
Core
360
1F31
  3
CSD
360
1F32
  3
CSD-TXT
360
1F33
  3
CYAN
360
1F34
  3
ｄ
360
3332
  3
D
360
1F36
  3
dim尺寸
360
1F37
  3
dnf
360
1F38
  3
drain
360
1F39
  3
DT
360
1F3A
  3
DW-GRID
360
1F3B
  3
electrical
360
1F3C
  3
ELEV
360
1F3D
  3
es立剖面
360
1F3E
  3
extg
360
1F3F
  3
EXTG-~
360
1F40
  3
F.S.
360
1F41
  3
fire
360
1F42
  3
fireline
360
1F43
  3
floor layout
360
1F44
  3
Freeze
360
1F45
  3
Frez
360
1F46
  3
FROOZEN
360
1F47
  3
FROZEN
360
1F48
  3
FS
360
1F49
  3
FUR
360
1F4A
  3
furn\U+50A2\U+4FF1
360
1F4B
  3
furniture
360
1F4C
  3
GREEN
360
1F4D
  3
Grid
360
1F4E
  3
Grid and Fireline
360
1F4F
  3
hatches
360
1F50
  3
hat鋪面質感
360
1F51
  3
hd
360
1F52
  3
ian1
360
1F53
  3
ian2
360
1F54
  3
ian3
360
1F55
  3
idx索引圖
360
1F56
  3
ims
360
1F57
  3
Karsten
360
1F58
  3
L-TEMP
360
1F59
  3
LANDSCAP
360
1F5A
  3
LANDSCAPE
360
1F5B
  3
law法規檢討
360
1F5C
  3
lea
360
1F5D
  3
list表格
360
1F5E
  3
MAGENTA
360
1F5F
  3
move
360
1F60
  3
N
360
1F61
  3
Off
360
1F62
  3
P
360
1F63
  3
Pen weight
360
1F64
  3
PHA
360
1F65
  3
poche
360
1F66
  3
PORT
360
1F67
  3
R
360
1F68
  3
RAIL
360
1F69
  3
RED
360
1F6A
  3
S
360
1F6B
  3
search
360
1F6C
  3
sec
360
1F6D
  3
section
360
1F6E
  3
Show all thawed Layers
360
1F6F
  3
show all thawed no xref
360
1F70
  3
Show No xref layers
360
1F71
  3
ｓｉｔｅ
360
1F72
  3
Site
360
3333
  3
ST-UG-OL
360
1F74
  3
stair
360
1F75
  3
sta樓梯
360
1F76
  3
sym符號
360
1F77
  3
t
360
1F78
  3
test
360
1F79
  3
TEXT
360
1F7A
  3
TEXT-0NLY
360
1F7B
  3
TEXT-ONLY
360
1F7C
  3
text文字
360
1F7D
  3
TL
360
1F7E
  3
toil衛浴
360
1F7F
  3
txt
360
1F80
  3
TXT-BW
360
1F81
  3
unlock all layers
360
1F82
  3
VP THAW
360
1F83
  3
vsit景觀環境
360
1F84
  3
W
360
1F85
  3
WA
360
1F86
  3
walk-distance
360
1F87
  3
WALL
360
1F88
  3
WALL-90
360
1F89
  3
wd門窗
360
1F8A
  3
WHITE
360
1F8B
  3
WIN
360
1F8C
  3
YELLOW
360
1F8D
  3
ｚｚｚ
360
1F8E
  3
ZZZ
360
3334
  3
紅色
360
1F90
  3
青色
360
1F91
  3
白色
360
1F92
  0
XRECORD
  5
1CC7
102
{ACAD_REACTORS
330
1CC6
102
}
330
1CC6
100
AcDbXrecord
280
     1
340
18
  0
XRECORD
  5
1CC5
102
{ACAD_REACTORS
330
1CC4
102
}
330
1CC4
100
AcDbXrecord
280
     1
340
15
  0
GROUP
  5
2763
102
{ACAD_REACTORS
330
D
102
}
330
D
100
AcDbGroup
300

 70
     1
 71
     1
  0
GROUP
  5
27D5
102
{ACAD_REACTORS
330
D
102
}
330
D
100
AcDbGroup
300

 70
     1
 71
     1
  0
GROUP
  5
37FD
102
{ACAD_REACTORS
330
D
102
}
330
D
100
AcDbGroup
300

 70
     1
 71
     1
  0
GROUP
  5
37FE
102
{ACAD_REACTORS
330
D
102
}
330
D
100
AcDbGroup
300

 70
     1
 71
     1
  0
GROUP
  5
3902
102
{ACAD_REACTORS
330
D
102
}
330
D
100
AcDbGroup
300

 70
     1
 71
     1
  0
GROUP
  5
3903
102
{ACAD_REACTORS
330
D
102
}
330
D
100
AcDbGroup
300

 70
     1
 71
     1
  0
GROUP
  5
391E
102
{ACAD_REACTORS
330
D
102
}
330
D
100
AcDbGroup
300

 70
     1
 71
     1
340
3910
340
390F
340
3916
340
3915
340
3914
340
3913
340
3912
340
3911
340
391D
340
391C
340
391B
340
391A
340
3919
340
3918
340
3917
  0
GROUP
  5
3C09
102
{ACAD_REACTORS
330
D
102
}
330
D
100
AcDbGroup
300

 70
     1
 71
     1
340
1B49
340
1B4A
340
1B4B
340
1B4C
340
1B4D
340
1B53
340
1B55
340
1B52
340
1B54
340
1B56
340
1B64
340
1B65
340
1B47
340
1B48
340
1B4E
340
1B59
340
1B5A
340
1B5B
340
1B5C
340
1B5D
340
1B5E
340
1B5F
340
1B60
340
1B62
340
1B66
340
1B67
340
1B57
340
1B58
340
1B4F
340
1B50
340
1B51
340
1B61
340
1B63
340
1B68
340
1B6E
340
1B72
340
1B74
340
1B7A
340
1B7B
340
1B7C
340
1B7F
340
1B85
340
1B8A
340
1B8B
340
1BA0
340
1BA4
340
1BA5
340
1BA6
340
1BB7
340
1BB8
340
1BB9
340
1BBB
340
1BD5
340
1BD6
340
1BD7
340
1BD8
340
1BD9
340
1BDA
340
1BE8
340
1BED
340
1BEE
340
1BF1
340
1BFC
340
1C03
340
1C07
340
1C08
340
1C09
340
1C0A
340
1C0B
340
1C0C
340
1C15
340
1C18
340
1C1B
340
1C1C
340
1C23
340
1C24
340
1C25
340
1C26
340
1C27
340
1C28
340
1C32
340
1C33
340
1C35
340
1C36
340
1C37
340
1C3D
340
1C3E
340
1C3F
340
1C49
340
1C4A
340
1C4B
340
1C4C
340
1C4D
340
1C00
340
1B6B
340
1B70
340
1B80
340
1B81
340
1B71
340
1B90
340
1BC4
340
1BCB
340
1B9D
340
1B9E
340
1B9F
340
1BC1
340
1B43
340
1BE7
340
1BDB
340
1C16
340
1C0E
340
1C0D
340
1C4E
340
1BF2
340
1C22
340
1C38
340
1BFD
340
1BFE
340
1BFF
340
1C01
340
1BFB
340
1B89
340
1B8C
340
1B8D
340
1B8E
340
1BD2
340
1B69
340
1B6A
340
1B6D
340
1B75
340
1B79
340
1B7D
340
1B7E
340
1B82
340
1B83
340
1B84
340
1B86
340
1B87
340
1B88
340
1B77
340
1B6C
340
1B6F
340
1B73
340
1B76
340
1B78
340
1B8F
340
1B91
340
1B92
340
1B93
340
1B94
340
1B97
340
1B98
340
1B9C
340
1BA7
340
1BA9
340
1BB0
340
1BB6
340
1BBA
340
1BBC
340
1BBD
340
1BBE
340
1BBF
340
1BC2
340
1BC3
340
1BC5
340
1BC6
340
1BC7
340
1BC8
340
1BC9
340
1BCA
340
1B99
340
1B9A
340
1B9B
340
1BA2
340
1BA8
340
1BAA
340
1BAB
340
1BAC
340
1BAD
340
1BAE
340
1BB2
340
1BB3
340
1BB4
340
1B95
340
1B96
340
1BA1
340
1BA3
340
1BAF
340
1BB1
340
1BB5
340
1BC0
340
1B45
340
1B46
340
1C1A
340
1B44
340
1BCC
340
1BCD
340
1BCE
340
1BCF
340
1BD0
340
1BD1
340
1BD3
340
1BD4
340
1BE4
340
1BE5
340
1BE6
340
1BE9
340
1BEA
340
1BEB
340
1BEC
340
1BEF
340
1C19
340
1BDC
340
1BDD
340
1BDE
340
1BDF
340
1BE0
340
1BE1
340
1BE2
340
1BE3
340
1C02
340
1C04
340
1C17
340
1C2E
340
1C0F
340
1C11
340
1C12
340
1C13
340
1C14
340
1C05
340
1C06
340
1C10
340
1BF3
340
1BF4
340
1BF5
340
1BF6
340
1BF8
340
1BF7
340
1C1D
340
1C1E
340
1C1F
340
1C20
340
1C21
340
1C29
340
1C2D
340
1C2A
340
1C2B
340
1C2C
340
1C30
340
1C31
340
1C34
340
1C39
340
1C3A
340
1C3B
340
1C3C
340
1C44
340
1C46
340
1C47
340
1C48
340
1C40
340
1C42
340
1C41
340
1C43
340
1C45
340
1C4F
340
1C50
  0
LAYOUT
  5
19D4
102
{ACAD_REACTORS
330
19D2
102
}
330
19D2
100
AcDbPlotSettings
  1

  2
\\YOSHISV\LP-8300C
  4

  6

 40
0.0
 41
0.0
 42
0.0
 43
0.0
 44
0.0
 45
0.0
 46
0.0
 47
0.0
 48
0.0
 49
0.0
140
0.0
141
0.0
142
1.0
143
1.0
 70
  1712
 72
     0
 73
     0
 74
     0
  7

 75
     0
147
1.0
148
0.0
149
0.0
100
AcDbLayout
  1
Model
 70
     1
 71
     0
 10
0.0
 20
0.0
 11
12.0
 21
9.0
 12
0.0
 22
0.0
 32
0.0
 14
0.0
 24
0.0
 34
0.0
 15
0.0
 25
0.0
 35
0.0
146
0.0
 13
0.0
 23
0.0
 33
0.0
 16
1.0
 26
0.0
 36
0.0
 17
0.0
 27
1.0
 37
0.0
 76
     0
330
18
  0
LAYOUT
  5
19D5
102
{ACAD_REACTORS
330
19D2
102
}
330
19D2
100
AcDbPlotSettings
  1

  2
Acrobat Distiller
  4
A3
  6

 40
3.174999952316284
 41
3.174999952316284
 42
3.17498779296875
 43
3.17498779296875
 44
297.0318298339843
 45
420.1583251953125
 46
0.0
 47
0.0
 48
0.0
 49
0.0
140
0.0
141
0.0
142
1.0
143
1.0
 70
   688
 72
     1
 73
     1
 74
     5
  7
monochrome.ctb
 75
    16
147
1.0
148
0.0
149
0.0
100
AcDbLayout
  1
ﾚｲｱｳﾄ1
 70
     1
 71
     1
 10
-3.17498779296875
 20
-3.174999952316284
 11
416.9833374023437
 21
293.856829881668
 12
0.0
 22
0.0
 32
0.0
 14
20.1301837250387
 24
5.039659291835846
 34
0.0
 15
406.1301837250387
 25
285.0396592918358
 35
0.0
146
0.0
 13
0.0
 23
0.0
 33
0.0
 16
1.0
 26
0.0
 36
0.0
 17
0.0
 27
1.0
 37
0.0
 76
     0
330
15
331
47
  0
MLINESTYLE
  5
1C
102
{ACAD_REACTORS
330
1B
102
}
330
1B
100
AcDbMlineStyle
  2
STANDARD
 70
     0
  3

 62
   256
 51
90.0
 52
90.0
 71
     2
 49
0.5
 62
   256
  6
BYLAYER
 49
-0.5
 62
   256
  6
BYLAYER
  0
ACDBPLACEHOLDER
  5
19D1
102
{ACAD_REACTORS
330
19D0
102
}
330
19D0
  0
DICTIONARYVAR
  5
2CF
102
{ACAD_REACTORS
330
2CE
102
}
330
2CE
100
DictionaryVariables
280
     0
  1
0
  0
DICTIONARYVAR
  5
1857
102
{ACAD_REACTORS
330
2CE
102
}
330
2CE
100
DictionaryVariables
280
     0
  1
96
  0
XRECORD
  5
1F09
102
{ACAD_REACTORS
330
1F08
102
}
330
1F08
100
AcDbXrecord
280
     1
  1
\U+663E示所有\U+56FE\U+5C42
  1
\U+5899
  1
*
  1
*
 70
     0
  1
*
  1
*
  0
XRECORD
  5
1F0A
102
{ACAD_REACTORS
330
1F08
102
}
330
1F08
100
AcDbXrecord
280
     1
  1
\U+9EC3色
  1
*
  1
yellow*
  1
*
 70
     0
  1
*
  1
*
  0
XRECORD
  5
1F0B
102
{ACAD_REACTORS
330
1F08
102
}
330
1F08
100
AcDbXrecord
280
     1
  1
1
  1
*
  1
*
  1
*
 70
     1
  1
*
  1
*
  0
XRECORD
  5
1F0C
102
{ACAD_REACTORS
330
1F08
102
}
330
1F08
100
AcDbXrecord
280
     1
  1
1-L
  1
*
  1
*
  1
*
 70
     0
  1
*
  1
*
  0
XRECORD
  5
1F0D
102
{ACAD_REACTORS
330
1F08
102
}
330
1F08
100
AcDbXrecord
280
     1
  1
1stFloor
  1
*F1
  1
*
  1
*
 70
     0
  1
*
  1
*
  0
XRECORD
  5
1F0E
102
{ACAD_REACTORS
330
1F08
102
}
330
1F08
100
AcDbXrecord
280
     1
  1
2
  1
*
  1
*
  1
*
 70
   768
  1
*
  1
*
  0
XRECORD
  5
1F0F
102
{ACAD_REACTORS
330
1F08
102
}
330
1F08
100
AcDbXrecord
280
     1
  1
200
  1
*200*
  1
*
  1
*
 70
     0
  1
*
  1
*
  0
XRECORD
  5
1F10
102
{ACAD_REACTORS
330
1F08
102
}
330
1F08
100
AcDbXrecord
280
     1
  1
2ndFloor
  1
*F2
  1
*
  1
*
 70
     0
  1
*
  1
*
  0
XRECORD
  5
1F11
102
{ACAD_REACTORS
330
1F08
102
}
330
1F08
100
AcDbXrecord
280
     1
  1
3
  1
*
  1
*
  1
*
 70
     0
  1
*
  1
*
  0
XRECORD
  5
1F12
102
{ACAD_REACTORS
330
1F08
102
}
330
1F08
100
AcDbXrecord
280
     1
  1
400
  1
*400*
  1
*
  1
*
 70
     0
  1
*
  1
*
  0
XRECORD
  5
1F13
102
{ACAD_REACTORS
330
1F08
102
}
330
1F08
100
AcDbXrecord
280
     1
  1
A
  1
*SOLID*
  1
*
  1
*
 70
     0
  1
*
  1
*
  0
XRECORD
  5
1F14
102
{ACAD_REACTORS
330
1F08
102
}
330
1F08
100
AcDbXrecord
280
     1
  1
A-
  1
*
  1
*
  1
*
 70
     0
  1
*
  1
*
  0
XRECORD
  5
1F15
102
{ACAD_REACTORS
330
1F08
102
}
330
1F08
100
AcDbXrecord
280
     1
  1
A-ELEV
  1
A-ELEV*
  1
*
  1
*
 70
     0
  1
*
  1
*
  0
XRECORD
  5
1F16
102
{ACAD_REACTORS
330
1F08
102
}
330
1F08
100
AcDbXrecord
280
     1
  1
ac
  1
*ac*
  1
*
  1
*
 70
     0
  1
*
  1
*
  0
XRECORD
  5
1F17
102
{ACAD_REACTORS
330
1F08
102
}
330
1F08
100
AcDbXrecord
280
     1
  1
ALL-TXT
  1
*TXT*
  1
*
  1
*
 70
     0
  1
*
  1
*
  0
XRECORD
  5
1F18
102
{ACAD_REACTORS
330
1F08
102
}
330
1F08
100
AcDbXrecord
280
     1
  1
ap平面圖
  1
ap*
  1
*
  1
*
 70
     0
  1
*
  1
*
  0
XRECORD
  5
1F19
102
{ACAD_REACTORS
330
1F08
102
}
330
1F08
100
AcDbXrecord
280
     1
  1
AR-TXT
  1
*TXT-CSD
  1
*
  1
*
 70
     0
  1
*
  1
*
  0
XRECORD
  5
1F1A
102
{ACAD_REACTORS
330
1F08
102
}
330
1F08
100
AcDbXrecord
280
     1
  1
ARCHITECTS
  1
AR*
  1
*
  1
*
 70
     0
  1
*
  1
*
  0
XRECORD
  5
1F1B
102
{ACAD_REACTORS
330
1F08
102
}
330
1F08
100
AcDbXrecord
280
     1
  1
area
  1
area*
  1
*
  1
*
 70
     0
  1
*
  1
*
  0
XRECORD
  5
1F1C
102
{ACAD_REACTORS
330
1F08
102
}
330
1F08
100
AcDbXrecord
280
     1
  1
asd
  1
1389p00|*
  1
*
  1
*
 70
     0
  1
*
  1
*
  0
XRECORD
  5
1F1D
102
{ACAD_REACTORS
330
1F08
102
}
330
1F08
100
AcDbXrecord
280
     1
  1
B
  1
KK*
  1
*
  1
*
 70
     3
  1
*
  1
*
  0
XRECORD
  5
1F1E
102
{ACAD_REACTORS
330
1F08
102
}
330
1F08
100
AcDbXrecord
280
     1
  1
Basci
  1
*
  1
*
  1
*
 70
     0
  1
*
  1
*
  0
XRECORD
  5
1F1F
102
{ACAD_REACTORS
330
1F08
102
}
330
1F08
100
AcDbXrecord
280
     1
  1
base_map
  1
9*
  1
*
  1
*
 70
     0
  1
*
  1
*
  0
XRECORD
  5
1F20
102
{ACAD_REACTORS
330
1F08
102
}
330
1F08
100
AcDbXrecord
280
     1
  1
BB
  1
*
  1
*
  1
*
 70
     0
  1
*
  1
*
  0
XRECORD
  5
1F21
102
{ACAD_REACTORS
330
1F08
102
}
330
1F08
100
AcDbXrecord
280
     1
  1
BLUE
  1
*
  1
BLUE
  1
*
 70
     0
  1
*
  1
*
  0
XRECORD
  5
1F22
102
{ACAD_REACTORS
330
1F08
102
}
330
1F08
100
AcDbXrecord
280
     1
  1
boun地籍資料
  1
boun*
  1
*
  1
*
 70
     0
  1
*
  1
*
  0
XRECORD
  5
1F23
102
{ACAD_REACTORS
330
1F08
102
}
330
1F08
100
AcDbXrecord
280
     1
  1
BROWNLINES
  1
*
  1
*
  1
*
 70
     0
  1
*
  1
*
  0
XRECORD
  5
1F24
102
{ACAD_REACTORS
330
1F08
102
}
330
1F08
100
AcDbXrecord
280
     1
  1
BW-TXT
  1
*TXT-BW
  1
*
  1
*
 70
     0
  1
*
  1
*
  0
XRECORD
  5
1F25
102
{ACAD_REACTORS
330
1F08
102
}
330
1F08
100
AcDbXrecord
280
     1
  1
C-
  1
*
  1
*
  1
*
 70
     0
  1
*
  1
*
  0
XRECORD
  5
1F26
102
{ACAD_REACTORS
330
1F08
102
}
330
1F08
100
AcDbXrecord
280
     1
  1
CEILING
  1
CEILING
  1
*
  1
*
 70
     4
  1
*
  1
*
  0
XRECORD
  5
1F27
102
{ACAD_REACTORS
330
1F08
102
}
330
1F08
100
AcDbXrecord
280
     1
  1
cloud
  1
*cloud*
  1
*
  1
*
 70
     0
  1
*
  1
*
  0
XRECORD
  5
1F28
102
{ACAD_REACTORS
330
1F08
102
}
330
1F08
100
AcDbXrecord
280
     1
  1
co
  1
*
  1
*
  1
*
 70
     0
  1
*
  1
*
  0
XRECORD
  5
1F29
102
{ACAD_REACTORS
330
1F08
102
}
330
1F08
100
AcDbXrecord
280
     1
  1
co-
  1
*
  1
*
  1
*
 70
     0
  1
*
  1
*
  0
XRECORD
  5
1F2A
102
{ACAD_REACTORS
330
1F08
102
}
330
1F08
100
AcDbXrecord
280
     1
  1
color-7
  1
*
  1
7
  1
*
 70
     0
  1
*
  1
*
  0
XRECORD
  5
1F2B
102
{ACAD_REACTORS
330
1F08
102
}
330
1F08
100
AcDbXrecord
280
     1
  1
columns-propose
  1
*propose*
  1
*
  1
*
 70
     0
  1
*
  1
*
  0
XRECORD
  5
1F2C
102
{ACAD_REACTORS
330
1F08
102
}
330
1F08
100
AcDbXrecord
280
     1
  1
columns-proposed
  1
*propose*
  1
*
  1
*
 70
     0
  1
*
  1
*
  0
XRECORD
  5
1F2D
102
{ACAD_REACTORS
330
1F08
102
}
330
1F08
100
AcDbXrecord
280
     1
  1
Combo
  1
*Fc
  1
*
  1
*
 70
     0
  1
*
  1
*
  0
XRECORD
  5
1F2E
102
{ACAD_REACTORS
330
1F08
102
}
330
1F08
100
AcDbXrecord
280
     1
  1
complete-services
  1
*
  1
*
  1
*
 70
    13
  1
*
  1
*
  0
XRECORD
  5
1F2F
102
{ACAD_REACTORS
330
1F08
102
}
330
1F08
100
AcDbXrecord
280
     1
  1
CONSTRUCTION-DOC
  1
*
  1
*
  1
*
 70
     3
  1
*
  1
*
  0
XRECORD
  5
1F30
102
{ACAD_REACTORS
330
1F08
102
}
330
1F08
100
AcDbXrecord
280
     1
  1
cont整地
  1
cont*
  1
*
  1
*
 70
     0
  1
*
  1
*
  0
XRECORD
  5
1F31
102
{ACAD_REACTORS
330
1F08
102
}
330
1F08
100
AcDbXrecord
280
     1
  1
Core
  1
Core*
  1
*
  1
*
 70
     0
  1
*
  1
*
  0
XRECORD
  5
1F32
102
{ACAD_REACTORS
330
1F08
102
}
330
1F08
100
AcDbXrecord
280
     1
  1
CSD
  1
csd*
  1
*
  1
*
 70
     0
  1
*
  1
*
  0
XRECORD
  5
1F33
102
{ACAD_REACTORS
330
1F08
102
}
330
1F08
100
AcDbXrecord
280
     1
  1
CSD-TXT
  1
*TXT-CSD
  1
*
  1
*
 70
     0
  1
*
  1
*
  0
XRECORD
  5
1F34
102
{ACAD_REACTORS
330
1F08
102
}
330
1F08
100
AcDbXrecord
280
     1
  1
CYAN
  1
*
  1
CYAN
  1
*
 70
     0
  1
*
  1
*
  0
XRECORD
  5
3332
102
{ACAD_REACTORS
330
1F08
102
}
330
1F08
100
AcDbXrecord
280
     1
  1
ｄ
  1
ｄ*
  1
*
  1
*
 70
     0
  1
*
  1
*
  0
XRECORD
  5
1F36
102
{ACAD_REACTORS
330
1F08
102
}
330
1F08
100
AcDbXrecord
280
     1
  1
D
  1
T_*$0$WALL*
  1
*
  1
*
 70
     0
  1
*
  1
*
  0
XRECORD
  5
1F37
102
{ACAD_REACTORS
330
1F08
102
}
330
1F08
100
AcDbXrecord
280
     1
  1
dim尺寸
  1
dim*
  1
*
  1
*
 70
     0
  1
*
  1
*
  0
XRECORD
  5
1F38
102
{ACAD_REACTORS
330
1F08
102
}
330
1F08
100
AcDbXrecord
280
     1
  1
dnf
  1
dnf*
  1
*
  1
*
 70
     0
  1
*
  1
*
  0
XRECORD
  5
1F39
102
{ACAD_REACTORS
330
1F08
102
}
330
1F08
100
AcDbXrecord
280
     1
  1
drain
  1
ar-dr*
  1
*
  1
*
 70
     0
  1
*
  1
*
  0
XRECORD
  5
1F3A
102
{ACAD_REACTORS
330
1F08
102
}
330
1F08
100
AcDbXrecord
280
     1
  1
DT
  1
*DOOR*,*TEXT*
  1
*
  1
*
 70
     0
  1
*
  1
*
  0
XRECORD
  5
1F3B
102
{ACAD_REACTORS
330
1F08
102
}
330
1F08
100
AcDbXrecord
280
     1
  1
DW-GRID
  1
*DW-GRID
  1
*
  1
*
 70
     0
  1
*
  1
*
  0
XRECORD
  5
1F3C
102
{ACAD_REACTORS
330
1F08
102
}
330
1F08
100
AcDbXrecord
280
     1
  1
electrical
  1
elec*
  1
*
  1
*
 70
     0
  1
*
  1
*
  0
XRECORD
  5
1F3D
102
{ACAD_REACTORS
330
1F08
102
}
330
1F08
100
AcDbXrecord
280
     1
  1
ELEV
  1
EL_*
  1
*
  1
*
 70
    61
  1
*
  1
*
  0
XRECORD
  5
1F3E
102
{ACAD_REACTORS
330
1F08
102
}
330
1F08
100
AcDbXrecord
280
     1
  1
es立剖面
  1
es*
  1
*
  1
*
 70
     0
  1
*
  1
*
  0
XRECORD
  5
1F3F
102
{ACAD_REACTORS
330
1F08
102
}
330
1F08
100
AcDbXrecord
280
     1
  1
extg
  1
*extg*
  1
*
  1
*
 70
     0
  1
*
  1
*
  0
XRECORD
  5
1F40
102
{ACAD_REACTORS
330
1F08
102
}
330
1F08
100
AcDbXrecord
280
     1
  1
EXTG-~
  1
*
  1
*
  1
*
 70
   256
  1
*
  1
*
  0
XRECORD
  5
1F41
102
{ACAD_REACTORS
330
1F08
102
}
330
1F08
100
AcDbXrecord
280
     1
  1
F.S.
  1
3-*
  1
*
  1
*
 70
     0
  1
*
  1
*
  0
XRECORD
  5
1F42
102
{ACAD_REACTORS
330
1F08
102
}
330
1F08
100
AcDbXrecord
280
     1
  1
fire
  1
*fire*
  1
*
  1
*
 70
     0
  1
*
  1
*
  0
XRECORD
  5
1F43
102
{ACAD_REACTORS
330
1F08
102
}
330
1F08
100
AcDbXrecord
280
     1
  1
fireline
  1
fire*
  1
*
  1
*
 70
     0
  1
*
  1
*
  0
XRECORD
  5
1F44
102
{ACAD_REACTORS
330
1F08
102
}
330
1F08
100
AcDbXrecord
280
     1
  1
floor layout
  1
*
  1
*
  1
*
 70
     0
  1
*
  1
*
  0
XRECORD
  5
1F45
102
{ACAD_REACTORS
330
1F08
102
}
330
1F08
100
AcDbXrecord
280
     1
  1
Freeze
  1
*
  1
*
  1
*
 70
     4
  1
*
  1
*
  0
XRECORD
  5
1F46
102
{ACAD_REACTORS
330
1F08
102
}
330
1F08
100
AcDbXrecord
280
     1
  1
Frez
  1
*Frez
  1
*
  1
*
 70
     0
  1
*
  1
*
  0
XRECORD
  5
1F47
102
{ACAD_REACTORS
330
1F08
102
}
330
1F08
100
AcDbXrecord
280
     1
  1
FROOZEN
  1
*
  1
*
  1
*
 70
     4
  1
*
  1
*
  0
XRECORD
  5
1F48
102
{ACAD_REACTORS
330
1F08
102
}
330
1F08
100
AcDbXrecord
280
     1
  1
FROZEN
  1
*
  1
*
  1
*
 70
     4
  1
*
  1
*
  0
XRECORD
  5
1F49
102
{ACAD_REACTORS
330
1F08
102
}
330
1F08
100
AcDbXrecord
280
     1
  1
FS
  1
3-*
  1
*
  1
*
 70
     0
  1
*
  1
*
  0
XRECORD
  5
1F4A
102
{ACAD_REACTORS
330
1F08
102
}
330
1F08
100
AcDbXrecord
280
     1
  1
FUR
  1
*FUR*
  1
*
  1
*
 70
     0
  1
*
  1
*
  0
XRECORD
  5
1F4B
102
{ACAD_REACTORS
330
1F08
102
}
330
1F08
100
AcDbXrecord
280
     1
  1
furn\U+50A2\U+4FF1
  1
furn*
  1
*
  1
*
 70
     0
  1
*
  1
*
  0
XRECORD
  5
1F4C
102
{ACAD_REACTORS
330
1F08
102
}
330
1F08
100
AcDbXrecord
280
     1
  1
furniture
  1
fur*
  1
*
  1
*
 70
     0
  1
*
  1
*
  0
XRECORD
  5
1F4D
102
{ACAD_REACTORS
330
1F08
102
}
330
1F08
100
AcDbXrecord
280
     1
  1
GREEN
  1
*
  1
GREEN
  1
*
 70
     0
  1
*
  1
*
  0
XRECORD
  5
1F4E
102
{ACAD_REACTORS
330
1F08
102
}
330
1F08
100
AcDbXrecord
280
     1
  1
Grid
  1
Grid*
  1
*
  1
*
 70
     0
  1
*
  1
*
  0
XRECORD
  5
1F4F
102
{ACAD_REACTORS
330
1F08
102
}
330
1F08
100
AcDbXrecord
280
     1
  1
Grid and Fireline
  1
grid*
  1
*
  1
*
 70
     0
  1
*
  1
*
  0
XRECORD
  5
1F50
102
{ACAD_REACTORS
330
1F08
102
}
330
1F08
100
AcDbXrecord
280
     1
  1
hatches
  1
*h*
  1
*
  1
*
 70
     0
  1
*
  1
*
  0
XRECORD
  5
1F51
102
{ACAD_REACTORS
330
1F08
102
}
330
1F08
100
AcDbXrecord
280
     1
  1
hat鋪面質感
  1
hat*
  1
*
  1
*
 70
     0
  1
*
  1
*
  0
XRECORD
  5
1F52
102
{ACAD_REACTORS
330
1F08
102
}
330
1F08
100
AcDbXrecord
280
     1
  1
hd
  1
hd*
  1
*
  1
*
 70
     0
  1
*
  1
*
  0
XRECORD
  5
1F53
102
{ACAD_REACTORS
330
1F08
102
}
330
1F08
100
AcDbXrecord
280
     1
  1
ian1
  1
*door
  1
*
  1
*
 70
     0
  1
*
  1
*
  0
XRECORD
  5
1F54
102
{ACAD_REACTORS
330
1F08
102
}
330
1F08
100
AcDbXrecord
280
     1
  1
ian2
  1
*w*d*
  1
*
  1
*
 70
     0
  1
*
  1
*
  0
XRECORD
  5
1F55
102
{ACAD_REACTORS
330
1F08
102
}
330
1F08
100
AcDbXrecord
280
     1
  1
ian3
  1
*wall*
  1
*
  1
*
 70
     0
  1
*
  1
*
  0
XRECORD
  5
1F56
102
{ACAD_REACTORS
330
1F08
102
}
330
1F08
100
AcDbXrecord
280
     1
  1
idx索引圖
  1
idx*
  1
*
  1
*
 70
     0
  1
*
  1
*
  0
XRECORD
  5
1F57
102
{ACAD_REACTORS
330
1F08
102
}
330
1F08
100
AcDbXrecord
280
     1
  1
ims
  1
ims*
  1
*
  1
*
 70
     0
  1
*
  1
*
  0
XRECORD
  5
1F58
102
{ACAD_REACTORS
330
1F08
102
}
330
1F08
100
AcDbXrecord
280
     1
  1
Karsten
  1
k-*
  1
*
  1
*
 70
     0
  1
*
  1
*
  0
XRECORD
  5
1F59
102
{ACAD_REACTORS
330
1F08
102
}
330
1F08
100
AcDbXrecord
280
     1
  1
L-TEMP
  1
*L-TEMP
  1
*
  1
*
 70
     0
  1
*
  1
*
  0
XRECORD
  5
1F5A
102
{ACAD_REACTORS
330
1F08
102
}
330
1F08
100
AcDbXrecord
280
     1
  1
LANDSCAP
  1
L-*
  1
*
  1
*
 70
     0
  1
*
  1
*
  0
XRECORD
  5
1F5B
102
{ACAD_REACTORS
330
1F08
102
}
330
1F08
100
AcDbXrecord
280
     1
  1
LANDSCAPE
  1
L-*
  1
*
  1
*
 70
     0
  1
*
  1
*
  0
XRECORD
  5
1F5C
102
{ACAD_REACTORS
330
1F08
102
}
330
1F08
100
AcDbXrecord
280
     1
  1
law法規檢討
  1
law*
  1
*
  1
*
 70
     0
  1
*
  1
*
  0
XRECORD
  5
1F5D
102
{ACAD_REACTORS
330
1F08
102
}
330
1F08
100
AcDbXrecord
280
     1
  1
lea
  1
*lea*
  1
*
  1
*
 70
     0
  1
*
  1
*
  0
XRECORD
  5
1F5E
102
{ACAD_REACTORS
330
1F08
102
}
330
1F08
100
AcDbXrecord
280
     1
  1
list表格
  1
list*
  1
*
  1
*
 70
     0
  1
*
  1
*
  0
XRECORD
  5
1F5F
102
{ACAD_REACTORS
330
1F08
102
}
330
1F08
100
AcDbXrecord
280
     1
  1
MAGENTA
  1
*
  1
MAGENTA
  1
*
 70
     0
  1
*
  1
*
  0
XRECORD
  5
1F60
102
{ACAD_REACTORS
330
1F08
102
}
330
1F08
100
AcDbXrecord
280
     1
  1
move
  1
*
  1
*
  1
*
 70
     0
  1
*
  1
*
  0
XRECORD
  5
1F61
102
{ACAD_REACTORS
330
1F08
102
}
330
1F08
100
AcDbXrecord
280
     1
  1
N
  1
*NON-*
  1
*
  1
*
 70
     0
  1
*
  1
*
  0
XRECORD
  5
1F62
102
{ACAD_REACTORS
330
1F08
102
}
330
1F08
100
AcDbXrecord
280
     1
  1
Off
  1
*
  1
*
  1
*
 70
     3
  1
*
  1
*
  0
XRECORD
  5
1F63
102
{ACAD_REACTORS
330
1F08
102
}
330
1F08
100
AcDbXrecord
280
     1
  1
P
  1
*PAR*,*WIN*,*CURB*
  1
*
  1
*
 70
     0
  1
*
  1
*
  0
XRECORD
  5
1F64
102
{ACAD_REACTORS
330
1F08
102
}
330
1F08
100
AcDbXrecord
280
     1
  1
Pen weight
  1
*
  1
*
  1
*
 70
     0
  1
*
  1
*
  0
XRECORD
  5
1F65
102
{ACAD_REACTORS
330
1F08
102
}
330
1F08
100
AcDbXrecord
280
     1
  1
PHA
  1
*PHA*
  1
*
  1
*
 70
     0
  1
*
  1
*
  0
XRECORD
  5
1F66
102
{ACAD_REACTORS
330
1F08
102
}
330
1F08
100
AcDbXrecord
280
     1
  1
poche
  1
*poch*
  1
*
  1
*
 70
     0
  1
*
  1
*
  0
XRECORD
  5
1F67
102
{ACAD_REACTORS
330
1F08
102
}
330
1F08
100
AcDbXrecord
280
     1
  1
PORT
  1
*PORT
  1
*
  1
*
 70
     0
  1
*
  1
*
  0
XRECORD
  5
1F68
102
{ACAD_REACTORS
330
1F08
102
}
330
1F08
100
AcDbXrecord
280
     1
  1
R
  1
*RAIL*,*VOID*
  1
*
  1
*
 70
     0
  1
*
  1
*
  0
XRECORD
  5
1F69
102
{ACAD_REACTORS
330
1F08
102
}
330
1F08
100
AcDbXrecord
280
     1
  1
RAIL
  1
*RAIL
  1
*
  1
*
 70
     0
  1
*
  1
*
  0
XRECORD
  5
1F6A
102
{ACAD_REACTORS
330
1F08
102
}
330
1F08
100
AcDbXrecord
280
     1
  1
RED
  1
*
  1
RED
  1
*
 70
     0
  1
*
  1
*
  0
XRECORD
  5
1F6B
102
{ACAD_REACTORS
330
1F08
102
}
330
1F08
100
AcDbXrecord
280
     1
  1
S
  1
*SOLID*
  1
*
  1
*
 70
     0
  1
*
  1
*
  0
XRECORD
  5
1F6C
102
{ACAD_REACTORS
330
1F08
102
}
330
1F08
100
AcDbXrecord
280
     1
  1
search
  1
*comments*
  1
red
  1
*
 70
     0
  1
*
  1
*
  0
XRECORD
  5
1F6D
102
{ACAD_REACTORS
330
1F08
102
}
330
1F08
100
AcDbXrecord
280
     1
  1
sec
  1
*sec*
  1
*
  1
*
 70
     0
  1
*
  1
*
  0
XRECORD
  5
1F6E
102
{ACAD_REACTORS
330
1F08
102
}
330
1F08
100
AcDbXrecord
280
     1
  1
section
  1
*
  1
*
  1
*
 70
     0
  1
*
  1
*
  0
XRECORD
  5
1F6F
102
{ACAD_REACTORS
330
1F08
102
}
330
1F08
100
AcDbXrecord
280
     1
  1
Show all thawed Layers
  1
*
  1
*
  1
*
 70
    12
  1
*
  1
*
  0
XRECORD
  5
1F70
102
{ACAD_REACTORS
330
1F08
102
}
330
1F08
100
AcDbXrecord
280
     1
  1
show all thawed no xref
  1
~###*
  1
*
  1
*
 70
    12
  1
*
  1
*
  0
XRECORD
  5
1F71
102
{ACAD_REACTORS
330
1F08
102
}
330
1F08
100
AcDbXrecord
280
     1
  1
Show No xref layers
  1
~####*
  1
*
  1
*
 70
     0
  1
*
  1
*
  0
XRECORD
  5
1F72
102
{ACAD_REACTORS
330
1F08
102
}
330
1F08
100
AcDbXrecord
280
     1
  1
ｓｉｔｅ
  1
*
  1
*
  1
*
 70
     0
  1
*
  1
*
  0
XRECORD
  5
3333
102
{ACAD_REACTORS
330
1F08
102
}
330
1F08
100
AcDbXrecord
280
     1
  1
Site
  1
*S-*
  1
*
  1
*
 70
     0
  1
*
  1
*
  0
XRECORD
  5
1F74
102
{ACAD_REACTORS
330
1F08
102
}
330
1F08
100
AcDbXrecord
280
     1
  1
ST-UG-OL
  1
*ST-UG-OL
  1
*
  1
*
 70
     0
  1
*
  1
*
  0
XRECORD
  5
1F75
102
{ACAD_REACTORS
330
1F08
102
}
330
1F08
100
AcDbXrecord
280
     1
  1
stair
  1
*stair*
  1
*
  1
*
 70
     0
  1
*
  1
*
  0
XRECORD
  5
1F76
102
{ACAD_REACTORS
330
1F08
102
}
330
1F08
100
AcDbXrecord
280
     1
  1
sta樓梯
  1
sta*
  1
*
  1
*
 70
     0
  1
*
  1
*
  0
XRECORD
  5
1F77
102
{ACAD_REACTORS
330
1F08
102
}
330
1F08
100
AcDbXrecord
280
     1
  1
sym符號
  1
sym*
  1
*
  1
*
 70
     0
  1
*
  1
*
  0
XRECORD
  5
1F78
102
{ACAD_REACTORS
330
1F08
102
}
330
1F08
100
AcDbXrecord
280
     1
  1
t
  1
*
  1
*
  1
*
 70
     4
  1
*
  1
*
  0
XRECORD
  5
1F79
102
{ACAD_REACTORS
330
1F08
102
}
330
1F08
100
AcDbXrecord
280
     1
  1
test
  1
*
  1
*
  1
*
 70
     4
  1
*
  1
*
  0
XRECORD
  5
1F7A
102
{ACAD_REACTORS
330
1F08
102
}
330
1F08
100
AcDbXrecord
280
     1
  1
TEXT
  1
*text*
  1
*
  1
*
 70
     0
  1
*
  1
*
  0
XRECORD
  5
1F7B
102
{ACAD_REACTORS
330
1F08
102
}
330
1F08
100
AcDbXrecord
280
     1
  1
TEXT-0NLY
  1
*TXT*
  1
*
  1
*
 70
     0
  1
*
  1
*
  0
XRECORD
  5
1F7C
102
{ACAD_REACTORS
330
1F08
102
}
330
1F08
100
AcDbXrecord
280
     1
  1
TEXT-ONLY
  1
*TXT*
  1
*
  1
*
 70
     0
  1
*
  1
*
  0
XRECORD
  5
1F7D
102
{ACAD_REACTORS
330
1F08
102
}
330
1F08
100
AcDbXrecord
280
     1
  1
text文字
  1
text*
  1
*
  1
*
 70
     0
  1
*
  1
*
  0
XRECORD
  5
1F7E
102
{ACAD_REACTORS
330
1F08
102
}
330
1F08
100
AcDbXrecord
280
     1
  1
TL
  1
*tl*
  1
*
  1
*
 70
     0
  1
*
  1
*
  0
XRECORD
  5
1F7F
102
{ACAD_REACTORS
330
1F08
102
}
330
1F08
100
AcDbXrecord
280
     1
  1
toil衛浴
  1
toil*
  1
*
  1
*
 70
     0
  1
*
  1
*
  0
XRECORD
  5
1F80
102
{ACAD_REACTORS
330
1F08
102
}
330
1F08
100
AcDbXrecord
280
     1
  1
txt
  1
*txt*
  1
*
  1
*
 70
     0
  1
*
  1
*
  0
XRECORD
  5
1F81
102
{ACAD_REACTORS
330
1F08
102
}
330
1F08
100
AcDbXrecord
280
     1
  1
TXT-BW
  1
*-TXT-BW
  1
*
  1
*
 70
     0
  1
*
  1
*
  0
XRECORD
  5
1F82
102
{ACAD_REACTORS
330
1F08
102
}
330
1F08
100
AcDbXrecord
280
     1
  1
unlock all layers
  1
*
  1
*
  1
*
 70
     0
  1
*
  1
*
  0
XRECORD
  5
1F83
102
{ACAD_REACTORS
330
1F08
102
}
330
1F08
100
AcDbXrecord
280
     1
  1
VP THAW
  1
*
  1
*
  1
*
 70
    61
  1
*
  1
*
  0
XRECORD
  5
1F84
102
{ACAD_REACTORS
330
1F08
102
}
330
1F08
100
AcDbXrecord
280
     1
  1
vsit景觀環境
  1
vsit*
  1
*
  1
*
 70
     0
  1
*
  1
*
  0
XRECORD
  5
1F85
102
{ACAD_REACTORS
330
1F08
102
}
330
1F08
100
AcDbXrecord
280
     1
  1
W
  1
*WALL*
  1
*
  1
*
 70
     0
  1
*
  1
*
  0
XRECORD
  5
1F86
102
{ACAD_REACTORS
330
1F08
102
}
330
1F08
100
AcDbXrecord
280
     1
  1
WA
  1
*
  1
*
  1
*
 70
     0
  1
*
  1
*
  0
XRECORD
  5
1F87
102
{ACAD_REACTORS
330
1F08
102
}
330
1F08
100
AcDbXrecord
280
     1
  1
walk-distance
  1
*walk-distance*
  1
*
  1
*
 70
     0
  1
*
  1
*
  0
XRECORD
  5
1F88
102
{ACAD_REACTORS
330
1F08
102
}
330
1F08
100
AcDbXrecord
280
     1
  1
WALL
  1
*WALL
  1
*
  1
*
 70
     0
  1
*
  1
*
  0
XRECORD
  5
1F89
102
{ACAD_REACTORS
330
1F08
102
}
330
1F08
100
AcDbXrecord
280
     1
  1
WALL-90
  1
*WALL*
  1
*
  1
*
 70
     0
  1
*
  1
*
  0
XRECORD
  5
1F8A
102
{ACAD_REACTORS
330
1F08
102
}
330
1F08
100
AcDbXrecord
280
     1
  1
wd門窗
  1
wd*
  1
*
  1
*
 70
     0
  1
*
  1
*
  0
XRECORD
  5
1F8B
102
{ACAD_REACTORS
330
1F08
102
}
330
1F08
100
AcDbXrecord
280
     1
  1
WHITE
  1
*
  1
WHITE
  1
*
 70
     0
  1
*
  1
*
  0
XRECORD
  5
1F8C
102
{ACAD_REACTORS
330
1F08
102
}
330
1F08
100
AcDbXrecord
280
     1
  1
WIN
  1
*WIN*
  1
*
  1
*
 70
     0
  1
*
  1
*
  0
XRECORD
  5
1F8D
102
{ACAD_REACTORS
330
1F08
102
}
330
1F08
100
AcDbXrecord
280
     1
  1
YELLOW
  1
*
  1
YELLOW
  1
*
 70
     0
  1
*
  1
*
  0
XRECORD
  5
1F8E
102
{ACAD_REACTORS
330
1F08
102
}
330
1F08
100
AcDbXrecord
280
     1
  1
ｚｚｚ
  1
*
  1
*
  1
*
 70
     1
  1
*
  1
*
  0
XRECORD
  5
3334
102
{ACAD_REACTORS
330
1F08
102
}
330
1F08
100
AcDbXrecord
280
     1
  1
ZZZ
  1
*
  1
254
  1
*
 70
     0
  1
*
  1
*
  0
XRECORD
  5
1F90
102
{ACAD_REACTORS
330
1F08
102
}
330
1F08
100
AcDbXrecord
280
     1
  1
紅色
  1
*
  1
red*
  1
*
 70
     0
  1
*
  1
*
  0
XRECORD
  5
1F91
102
{ACAD_REACTORS
330
1F08
102
}
330
1F08
100
AcDbXrecord
280
     1
  1
青色
  1
*
  1
cyan*
  1
*
 70
     0
  1
*
  1
*
  0
XRECORD
  5
1F92
102
{ACAD_REACTORS
330
1F08
102
}
330
1F08
100
AcDbXrecord
280
     1
  1
白色
  1
*
  1
white*
  1
*
 70
     0
  1
*
  1
*
  0
ENDSEC
  0
EOF
