  0
SECTION
  2
HEADER
  9
$ACADVER
  1
AC1015
  9
$ACADMAINTVER
 70
     6
  9
$DWGCODEPAGE
  3
ANSI_932
  9
$INSBASE
 10
0.0
 20
0.0
 30
0.0
  9
$EXTMIN
 10
2831.395794961633
 20
133.9774665972748
 30
0.0
  9
$EXTMAX
 10
3251.554120156945
 20
431.0092964312591
 30
0.0
  9
$LIMMIN
 10
0.0
 20
0.0
  9
$LIMMAX
 10
12.0
 20
9.0
  9
$ORTHOMODE
 70
     0
  9
$REGENMODE
 70
     1
  9
$FILLMODE
 70
     1
  9
$QTEXTMODE
 70
     0
  9
$MIRRTEXT
 70
     1
  9
$LTSCALE
 40
12.7
  9
$ATTMODE
 70
     1
  9
$TEXTSIZE
 40
0.2
  9
$TRACEWID
 40
1.0
  9
$TEXTSTYLE
  7
STANDARD
  9
$CLAYER
  8
一般
  9
$CELTYPE
  6
ByLayer
  9
$CECOLOR
 62
   256
  9
$CELTSCALE
 40
1.0
  9
$DISPSILH
 70
     0
  9
$DIMSCALE
 40
1.0
  9
$DIMASZ
 40
0.29920654296875
  9
$DIMEXO
 40
0.014
  9
$DIMDLI
 40
0.075
  9
$DIMRND
 40
0.0
  9
$DIMDLE
 40
0.0
  9
$DIMEXE
 40
0.014
  9
$DIMTP
 40
0.0
  9
$DIMTM
 40
0.0
  9
$DIMTXT
 40
20.05167958656331
  9
$DIMCEN
 40
0.0
  9
$DIMTSZ
 40
0.0
  9
$DIMTOL
 70
     0
  9
$DIMLIM
 70
     0
  9
$DIMTIH
 70
     0
  9
$DIMTOH
 70
     0
  9
$DIMSE1
 70
     0
  9
$DIMSE2
 70
     0
  9
$DIMTAD
 70
     1
  9
$DIMZIN
 70
     8
  9
$DIMBLK
  1
VW_EMPTYARROW
  9
$DIMASO
 70
     1
  9
$DIMSHO
 70
     1
  9
$DIMPOST
  1
<>
  9
$DIMAPOST
  1
[]
  9
$DIMALT
 70
     0
  9
$DIMALTD
 70
     3
  9
$DIMALTF
 40
0.0393700787401575
  9
$DIMLFAC
 40
1.0
  9
$DIMTOFL
 70
     1
  9
$DIMTVP
 40
0.0
  9
$DIMTIX
 70
     1
  9
$DIMSOXD
 70
     0
  9
$DIMSAH
 70
     0
  9
$DIMBLK1
  1
VW_EMPTYARROW
  9
$DIMBLK2
  1
VW_EMPTYARROW
  9
$DIMSTYLE
  2
MSP明朝寸6
  9
$DIMCLRD
 70
     0
  9
$DIMCLRE
 70
     0
  9
$DIMCLRT
 70
     0
  9
$DIMTFAC
 40
1.0
  9
$DIMGAP
 40
0.014
  9
$DIMJUST
 70
     0
  9
$DIMSD1
 70
     0
  9
$DIMSD2
 70
     0
  9
$DIMTOLJ
 70
     1
  9
$DIMTZIN
 70
     8
  9
$DIMALTZ
 70
     8
  9
$DIMALTTZ
 70
     8
  9
$DIMUPT
 70
     0
  9
$DIMDEC
 70
     0
  9
$DIMTDEC
 70
     0
  9
$DIMALTU
 70
     4
  9
$DIMALTTD
 70
     2
  9
$DIMTXSTY
  7
Osaka
  9
$DIMAUNIT
 70
     0
  9
$DIMADEC
 70
     2
  9
$DIMALTRND
 40
0.0
  9
$DIMAZIN
 70
     0
  9
$DIMDSEP
 70
    46
  9
$DIMATFIT
 70
     0
  9
$DIMFRAC
 70
     2
  9
$DIMLDRBLK
  1
VW_EMPTYARROW
  9
$DIMLUNIT
 70
     2
  9
$DIMLWD
 70
    -2
  9
$DIMLWE
 70
    -2
  9
$DIMTMOVE
 70
     0
  9
$LUNITS
 70
     2
  9
$LUPREC
 70
     4
  9
$SKETCHINC
 40
0.1
  9
$FILLETRAD
 40
0.5
  9
$AUNITS
 70
     0
  9
$AUPREC
 70
     0
  9
$MENU
  1
.
  9
$ELEVATION
 40
0.0
  9
$PELEVATION
 40
0.0
  9
$THICKNESS
 40
0.0
  9
$LIMCHECK
 70
     0
  9
$CHAMFERA
 40
0.5
  9
$CHAMFERB
 40
0.5
  9
$CHAMFERC
 40
1.0
  9
$CHAMFERD
 40
0.0
  9
$SKPOLY
 70
     0
  9
$TDCREATE
 40
2456132.693310185
  9
$TDUCREATE
 40
2456132.318310185
  9
$TDUPDATE
 40
2456132.693321759
  9
$TDUUPDATE
 40
2456132.318321759
  9
$TDINDWG
 40
0.0000000116
  9
$TDUSRTIMER
 40
0.0000000116
  9
$USRTIMER
 70
     1
  9
$ANGBASE
 50
0.0
  9
$ANGDIR
 70
     0
  9
$PDMODE
 70
     1
  9
$PDSIZE
 40
-2.0
  9
$PLINEWID
 40
0.0
  9
$SPLFRAME
 70
     0
  9
$SPLINETYPE
 70
     6
  9
$SPLINESEGS
 70
     8
  9
$HANDSEED
  5
2BB
  9
$SURFTAB1
 70
     6
  9
$SURFTAB2
 70
     6
  9
$SURFTYPE
 70
     6
  9
$SURFU
 70
     6
  9
$SURFV
 70
     6
  9
$UCSBASE
  2

  9
$UCSNAME
  2

  9
$UCSORG
 10
0.0
 20
0.0
 30
0.0
  9
$UCSXDIR
 10
1.0
 20
0.0
 30
0.0
  9
$UCSYDIR
 10
0.0
 20
1.0
 30
0.0
  9
$UCSORTHOREF
  2

  9
$UCSORTHOVIEW
 70
     0
  9
$UCSORGTOP
 10
0.0
 20
0.0
 30
0.0
  9
$UCSORGBOTTOM
 10
0.0
 20
0.0
 30
0.0
  9
$UCSORGLEFT
 10
0.0
 20
0.0
 30
0.0
  9
$UCSORGRIGHT
 10
0.0
 20
0.0
 30
0.0
  9
$UCSORGFRONT
 10
0.0
 20
0.0
 30
0.0
  9
$UCSORGBACK
 10
0.0
 20
0.0
 30
0.0
  9
$PUCSBASE
  2

  9
$PUCSNAME
  2

  9
$PUCSORG
 10
0.0
 20
0.0
 30
0.0
  9
$PUCSXDIR
 10
1.0
 20
0.0
 30
0.0
  9
$PUCSYDIR
 10
0.0
 20
1.0
 30
0.0
  9
$PUCSORTHOREF
  2

  9
$PUCSORTHOVIEW
 70
     0
  9
$PUCSORGTOP
 10
0.0
 20
0.0
 30
0.0
  9
$PUCSORGBOTTOM
 10
0.0
 20
0.0
 30
0.0
  9
$PUCSORGLEFT
 10
0.0
 20
0.0
 30
0.0
  9
$PUCSORGRIGHT
 10
0.0
 20
0.0
 30
0.0
  9
$PUCSORGFRONT
 10
0.0
 20
0.0
 30
0.0
  9
$PUCSORGBACK
 10
0.0
 20
0.0
 30
0.0
  9
$USERI1
 70
     0
  9
$USERI2
 70
     0
  9
$USERI3
 70
     0
  9
$USERI4
 70
     0
  9
$USERI5
 70
     0
  9
$USERR1
 40
0.0
  9
$USERR2
 40
0.0
  9
$USERR3
 40
0.0
  9
$USERR4
 40
0.0
  9
$USERR5
 40
0.0
  9
$WORLDVIEW
 70
     1
  9
$SHADEDGE
 70
     3
  9
$SHADEDIF
 70
    70
  9
$TILEMODE
 70
     0
  9
$MAXACTVP
 70
    64
  9
$PINSBASE
 10
0.0
 20
0.0
 30
0.0
  9
$PLIMCHECK
 70
     0
  9
$PEXTMIN
 10
-195.673846751634
 20
-140.0
 30
0.0
  9
$PEXTMAX
 10
195.6738467516342
 20
140.0
 30
0.0
  9
$PLIMMIN
 10
-220.583120727539
 20
-155.9417106628417
  9
$PLIMMAX
 10
220.583120727539
 20
155.9417106628417
  9
$UNITMODE
 70
     0
  9
$VISRETAIN
 70
     1
  9
$PLINEGEN
 70
     0
  9
$PSLTSCALE
 70
     1
  9
$TREEDEPTH
 70
  3020
  9
$CMLSTYLE
  2
Standard
  9
$CMLJUST
 70
     0
  9
$CMLSCALE
 40
1.0
  9
$PROXYGRAPHICS
 70
     1
  9
$MEASUREMENT
 70
     1
  9
$CELWEIGHT
370
    -1
  9
$ENDCAPS
280
     0
  9
$JOINSTYLE
280
     0
  9
$LWDISPLAY
290
     1
  9
$INSUNITS
 70
     4
  9
$HYPERLINKBASE
  1

  9
$STYLESHEET
  1

  9
$XEDIT
290
     1
  9
$CEPSNTYPE
380
     0
  9
$PSTYLEMODE
290
     1
  9
$FINGERPRINTGUID
  2
{C96E7E09-0BD3-50AE-E2BD-99E10A1FA638}
  9
$VERSIONGUID
  2
{FAEB1C32-E019-11D5-929B-00C0DF256EC4}
  9
$EXTNAMES
290
     1
  9
$PSVPSCALE
 40
0.0
  9
$OLESTARTUP
290
     0
  0
ENDSEC
  0
SECTION
  2
CLASSES
  0
CLASS
  1
ACDBDICTIONARYWDFLT
  2
AcDbDictionaryWithDefault
  3
ObjectDBX Classes
 90
        0
280
     0
281
     0
  0
CLASS
  1
VISUALSTYLE
  2
AcDbVisualStyle
  3
ObjectDBX Classes
 90
     4095
280
     0
281
     0
  0
CLASS
  1
MATERIAL
  2
AcDbMaterial
  3
ObjectDBX Classes
 90
     1153
280
     0
281
     0
  0
CLASS
  1
WIPEOUTVARIABLES
  2
AcDbWipeoutVariables
  3
WipeOut|AutoCAD Express Tool|expresstools@autodesk.com
 90
        0
280
     0
281
     0
  0
CLASS
  1
DICTIONARYVAR
  2
AcDbDictionaryVar
  3
ObjectDBX Classes
 90
        0
280
     0
281
     0
  0
CLASS
  1
SCALE
  2
AcDbScale
  3
ObjectDBX Classes
 90
     1153
280
     0
281
     0
  0
CLASS
  1
ACDBPLACEHOLDER
  2
AcDbPlaceHolder
  3
ObjectDBX Classes
 90
        0
280
     0
281
     0
  0
CLASS
  1
LAYOUT
  2
AcDbLayout
  3
ObjectDBX Classes
 90
        0
280
     0
281
     0
  0
ENDSEC
  0
SECTION
  2
TABLES
  0
TABLE
  2
VPORT
  5
8
330
0
100
AcDbSymbolTable
 70
     1
  0
VPORT
  5
29
330
8
100
AcDbSymbolTableRecord
100
AcDbViewportTableRecord
  2
*Active
 70
     0
 10
0.0
 20
0.0
 11
1.0
 21
1.0
 12
3041.474957559289
 22
282.493381514267
 13
0.0
 23
0.0
 14
0.5
 24
0.5
 15
0.5
 25
0.5
 16
0.0
 26
0.0
 36
1.0
 17
0.0
 27
0.0
 37
0.0
 40
297.0318298339843
 41
0.0597806530215213
 42
2000.0
 43
0.0
 44
0.0
 50
0.0
 51
0.0
 71
     0
 72
   100
 73
     1
 74
     3
 75
     0
 76
     0
 77
     0
 78
     0
281
     0
 65
     1
110
0.0
120
0.0
130
0.0
111
1.0
121
0.0
131
0.0
112
0.0
122
1.0
132
0.0
 79
     0
146
0.0
  0
ENDTAB
  0
TABLE
  2
LTYPE
  5
5
330
0
100
AcDbSymbolTable
 70
    19
  0
LTYPE
  5
14
330
5
100
AcDbSymbolTableRecord
100
AcDbLinetypeTableRecord
  2
ByBlock
 70
     0
  3

 72
    65
 73
     0
 40
0.0
  0
LTYPE
  5
15
330
5
100
AcDbSymbolTableRecord
100
AcDbLinetypeTableRecord
  2
ByLayer
 70
     0
  3

 72
    65
 73
     0
 40
0.0
  0
LTYPE
  5
16
330
5
100
AcDbSymbolTableRecord
100
AcDbLinetypeTableRecord
  2
Continuous
 70
     0
  3
Solid line
 72
    65
 73
     0
 40
0.0
  0
LTYPE
  5
4F
330
5
100
AcDbSymbolTableRecord
100
AcDbLinetypeTableRecord
  2
ISO-02 破線
 70
     0
  3

 72
    65
 73
     2
 40
0.3937007874015748
 49
0.3937007874015748
 74
     0
 49
-0.078740157480315
 74
     0
  0
LTYPE
  5
50
330
5
100
AcDbSymbolTableRecord
100
AcDbLinetypeTableRecord
  2
ISO-03 跳び破線
 70
     0
  3

 72
    65
 73
     2
 40
0.24
 49
0.24
 74
     0
 49
-0.36
 74
     0
  0
LTYPE
  5
51
330
5
100
AcDbSymbolTableRecord
100
AcDbLinetypeTableRecord
  2
ISO-04 一点長鎖線
 70
     0
  3

 72
    65
 73
     4
 40
0.48
 49
0.48
 74
     0
 49
-0.0600000000000001
 74
     0
 49
0.01
 74
     0
 49
-0.0600000000000001
 74
     0
  0
LTYPE
  5
52
330
5
100
AcDbSymbolTableRecord
100
AcDbLinetypeTableRecord
  2
ISO-05 二点長鎖線
 70
     0
  3

 72
    65
 73
     6
 40
0.48
 49
0.48
 74
     0
 49
-0.0600000000000001
 74
     0
 49
0.01
 74
     0
 49
-0.0600000000000001
 74
     0
 49
0.01
 74
     0
 49
-0.0600000000000001
 74
     0
  0
LTYPE
  5
53
330
5
100
AcDbSymbolTableRecord
100
AcDbLinetypeTableRecord
  2
ISO-06 三点長鎖線
 70
     0
  3

 72
    65
 73
     8
 40
0.48
 49
0.48
 74
     0
 49
-0.0600000000000001
 74
     0
 49
0.01
 74
     0
 49
-0.0600000000000001
 74
     0
 49
0.01
 74
     0
 49
-0.0600000000000001
 74
     0
 49
0.01
 74
     0
 49
-0.0600000000000001
 74
     0
  0
LTYPE
  5
54
330
5
100
AcDbSymbolTableRecord
100
AcDbLinetypeTableRecord
  2
ISO-07 点線
 70
     0
  3

 72
    65
 73
     2
 40
0.01
 49
0.01
 74
     0
 49
-0.06
 74
     0
  0
LTYPE
  5
55
330
5
100
AcDbSymbolTableRecord
100
AcDbLinetypeTableRecord
  2
ISO-08 一点鎖線
 70
     0
  3

 72
    65
 73
     4
 40
0.48
 49
0.48
 74
     0
 49
-0.0600000000000001
 74
     0
 49
0.12
 74
     0
 49
-0.0599999999999999
 74
     0
  0
LTYPE
  5
56
330
5
100
AcDbSymbolTableRecord
100
AcDbLinetypeTableRecord
  2
ISO-09 二点鎖線
 70
     0
  3

 72
    65
 73
     6
 40
0.48
 49
0.48
 74
     0
 49
-0.0600000000000001
 74
     0
 49
0.12
 74
     0
 49
-0.0599999999999999
 74
     0
 49
0.12
 74
     0
 49
-0.0599999999999999
 74
     0
  0
LTYPE
  5
57
330
5
100
AcDbSymbolTableRecord
100
AcDbLinetypeTableRecord
  2
ISO-10 一点短鎖線
 70
     0
  3

 72
    65
 73
     4
 40
0.24
 49
0.24
 74
     0
 49
-0.06
 74
     0
 49
0.01
 74
     0
 49
-0.06
 74
     0
  0
LTYPE
  5
58
330
5
100
AcDbSymbolTableRecord
100
AcDbLinetypeTableRecord
  2
ISO-11 一点二短鎖線
 70
     0
  3

 72
    65
 73
     6
 40
0.24
 49
0.24
 74
     0
 49
-0.06
 74
     0
 49
0.24
 74
     0
 49
-0.0600000000000001
 74
     0
 49
0.01
 74
     0
 49
-0.0600000000000001
 74
     0
  0
LTYPE
  5
59
330
5
100
AcDbSymbolTableRecord
100
AcDbLinetypeTableRecord
  2
ISO-12 二点短鎖線
 70
     0
  3

 72
    65
 73
     6
 40
0.24
 49
0.24
 74
     0
 49
-0.06
 74
     0
 49
0.01
 74
     0
 49
-0.06
 74
     0
 49
0.01
 74
     0
 49
-0.06
 74
     0
  0
LTYPE
  5
5A
330
5
100
AcDbSymbolTableRecord
100
AcDbLinetypeTableRecord
  2
ISO-13 二点二短鎖線
 70
     0
  3

 72
    65
 73
     8
 40
0.24
 49
0.24
 74
     0
 49
-0.06
 74
     0
 49
0.24
 74
     0
 49
-0.0600000000000001
 74
     0
 49
0.01
 74
     0
 49
-0.0600000000000001
 74
     0
 49
0.01
 74
     0
 49
-0.0600000000000001
 74
     0
  0
LTYPE
  5
5B
330
5
100
AcDbSymbolTableRecord
100
AcDbLinetypeTableRecord
  2
ISO-14 三点短鎖線
 70
     0
  3

 72
    65
 73
     8
 40
0.24
 49
0.24
 74
     0
 49
-0.06
 74
     0
 49
0.01
 74
     0
 49
-0.06
 74
     0
 49
0.01
 74
     0
 49
-0.06
 74
     0
 49
0.01
 74
     0
 49
-0.06
 74
     0
  0
LTYPE
  5
5C
330
5
100
AcDbSymbolTableRecord
100
AcDbLinetypeTableRecord
  2
ISO-15 三点二短鎖線
 70
     0
  3

 72
    65
 73
    10
 40
0.24
 49
0.24
 74
     0
 49
-0.06
 74
     0
 49
0.24
 74
     0
 49
-0.0600000000000001
 74
     0
 49
0.01
 74
     0
 49
-0.0600000000000001
 74
     0
 49
0.01
 74
     0
 49
-0.0600000000000001
 74
     0
 49
0.01
 74
     0
 49
-0.0600000000000001
 74
     0
  0
LTYPE
  5
5D
330
5
100
AcDbSymbolTableRecord
100
AcDbLinetypeTableRecord
  2
VW-01 短破線
 70
     0
  3

 72
    65
 73
     2
 40
0.083312
 49
0.083312
 74
     0
 49
-0.083312
 74
     0
  0
LTYPE
  5
5E
330
5
100
AcDbSymbolTableRecord
100
AcDbLinetypeTableRecord
  2
VW-02 中破線
 70
     0
  3

 72
    65
 73
     2
 40
0.194428
 49
0.194428
 74
     0
 49
-0.083312
 74
     0
  0
LTYPE
  5
5F
330
5
100
AcDbSymbolTableRecord
100
AcDbLinetypeTableRecord
  2
HIDDEN
 70
     0
  3

 72
    65
 73
     2
 40
0.4
 49
0.4
 74
     0
 49
-0.2
 74
     0
  0
LTYPE
  5
60
330
5
100
AcDbSymbolTableRecord
100
AcDbLinetypeTableRecord
  2
CENTER
 70
     0
  3

 72
    65
 73
     4
 40
2.0
 49
2.0
 74
     0
 49
-0.3999999999999999
 74
     0
 49
0.3999999999999999
 74
     0
 49
-0.3999999999999999
 74
     0
  0
ENDTAB
  0
TABLE
  2
LAYER
  5
2
330
0
100
AcDbSymbolTable
 70
    11
  0
LAYER
  5
10
330
2
100
AcDbSymbolTableRecord
100
AcDbLayerTableRecord
  2
0
 70
     0
 62
     7
  6
Continuous
370
    15
390
F
1001
AcCmTransparency
1071
 33554687
  0
LAYER
  5
61
330
2
100
AcDbSymbolTableRecord
100
AcDbLayerTableRecord
  2
一般
 70
     0
 62
     7
  6
Continuous
370
     9
390
F
1001
AcCmTransparency
1071
 33554687
  0
LAYER
  5
63
330
2
100
AcDbSymbolTableRecord
100
AcDbLayerTableRecord
  2
寸法
 70
     0
 62
     7
  6
Continuous
370
     9
390
F
1001
AcCmTransparency
1071
 33554687
  0
LAYER
  5
64
330
2
100
AcDbSymbolTableRecord
100
AcDbLayerTableRecord
  2
ﾀｲﾄﾙ枠
 70
     0
 62
     5
  6
Continuous
370
    15
390
F
1001
AcCmTransparency
1071
 33554687
  0
LAYER
  5
65
330
2
100
AcDbSymbolTableRecord
100
AcDbLayerTableRecord
  2
SUNPO
 70
     0
 62
     3
  6
Continuous
370
    15
390
F
1001
AcCmTransparency
1071
 33554687
  0
LAYER
  5
66
330
2
100
AcDbSymbolTableRecord
100
AcDbLayerTableRecord
  2
Defpoints
 70
     0
 62
     7
  6
Continuous
290
     0
370
    15
390
F
1001
AcCmTransparency
1071
 33554687
  0
LAYER
  5
67
330
2
100
AcDbSymbolTableRecord
100
AcDbLayerTableRecord
  2
sen-c
 70
     0
 62
     8
  6
CENTER
370
    15
390
F
1001
AcCmTransparency
1071
 33554687
  0
LAYER
  5
68
330
2
100
AcDbSymbolTableRecord
100
AcDbLayerTableRecord
  2
sen-h
 70
     0
 62
     6
  6
HIDDEN
370
    15
390
F
1001
AcCmTransparency
1071
 33554687
  0
LAYER
  5
69
330
2
100
AcDbSymbolTableRecord
100
AcDbLayerTableRecord
  2
sen2
 70
     0
 62
     2
  6
Continuous
370
    15
390
F
1001
AcCmTransparency
1071
 33554687
  0
LAYER
  5
6A
330
2
100
AcDbSymbolTableRecord
100
AcDbLayerTableRecord
  2
text
 70
     0
 62
     2
  6
Continuous
370
    15
390
F
1001
AcCmTransparency
1071
 33554687
  0
LAYER
  5
6B
330
2
100
AcDbSymbolTableRecord
100
AcDbLayerTableRecord
  2
_Viewport_Crop
 70
     0
 62
    -7
  6
Continuous
370
    -3
390
F
  0
ENDTAB
  0
TABLE
  2
STYLE
  5
3
330
0
100
AcDbSymbolTable
 70
     3
  0
STYLE
  5
11
330
3
100
AcDbSymbolTableRecord
100
AcDbTextStyleTableRecord
  2
STANDARD
 70
     0
 40
0.0
 41
1.0
 50
0.0
 71
     0
 42
0.2
  3
txt
  4
BIGFONT.SHX
  0
STYLE
  5
4D
330
3
100
AcDbSymbolTableRecord
100
AcDbTextStyleTableRecord
  2
MS PMincho
 70
     0
 40
0.0
 41
1.0
 50
0.0
 71
     0
 42
0.0
  3
MS PMincho
  4

1001
ACAD
1000
MS PMincho
1071
        0
  0
STYLE
  5
4E
330
3
100
AcDbSymbolTableRecord
100
AcDbTextStyleTableRecord
  2
Osaka
 70
     0
 40
0.0
 41
1.0
 50
0.0
 71
     0
 42
0.0
  3

  4
Osaka
1001
ACAD
1000
Osaka
1071
        0
  0
ENDTAB
  0
TABLE
  2
VIEW
  5
6
330
0
100
AcDbSymbolTable
 70
     0
  0
ENDTAB
  0
TABLE
  2
UCS
  5
7
330
0
100
AcDbSymbolTable
 70
     0
  0
ENDTAB
  0
TABLE
  2
APPID
  5
9
330
0
100
AcDbSymbolTable
 70
     2
  0
APPID
  5
12
330
9
100
AcDbSymbolTableRecord
100
AcDbRegAppTableRecord
  2
ACAD
 70
     0
  0
APPID
  5
62
330
9
100
AcDbSymbolTableRecord
100
AcDbRegAppTableRecord
  2
AcCmTransparency
 70
     0
  0
ENDTAB
  0
TABLE
  2
DIMSTYLE
  5
A
330
0
100
AcDbSymbolTable
 70
     3
100
AcDbDimStyleTable
  0
DIMSTYLE
105
27
330
A
100
AcDbSymbolTableRecord
100
AcDbDimStyleTableRecord
  2
Standard
 70
     0
178
     0
340
11
  0
DIMSTYLE
105
6C
102
{ACAD_REACTORS
330
14A
102
}
330
A
100
AcDbSymbolTableRecord
100
AcDbDimStyleTableRecord
  2
MSP明朝寸1-5
 70
     0
  3
<>
  4
[]
 41
0.0899169921875
 42
0.014
 43
0.075
 44
0.014
 73
     0
 74
     0
 77
     1
 78
     8
140
20.05167958656331
141
0.0
143
0.0393700787401575
147
0.014
171
     3
172
     1
174
     1
178
     0
179
     2
271
     0
272
     0
273
     4
276
     2
284
     8
285
     8
286
     8
289
     0
340
4E
341
6D
342
6D
343
6D
344
6D
  0
DIMSTYLE
105
76
102
{ACAD_REACTORS
330
149
330
14B
330
14C
102
}
330
A
100
AcDbSymbolTableRecord
100
AcDbDimStyleTableRecord
  2
MSP明朝寸6
 70
     0
  3
<>
  4
[]
 41
0.29920654296875
 42
0.014
 43
0.075
 44
0.014
 73
     0
 74
     0
 77
     1
 78
     8
140
20.05167958656331
141
0.0
143
0.0393700787401575
147
0.014
171
     3
172
     1
174
     1
178
     0
179
     2
271
     0
272
     0
273
     4
276
     2
284
     8
285
     8
286
     8
289
     0
340
4E
341
77
342
77
343
77
344
77
  0
ENDTAB
  0
TABLE
  2
BLOCK_RECORD
  5
1
330
0
100
AcDbSymbolTable
 70
     7
  0
BLOCK_RECORD
  5
1F
330
1
100
AcDbSymbolTableRecord
100
AcDbBlockTableRecord
  2
*Model_Space
340
22
  0
BLOCK_RECORD
  5
1B
330
1
100
AcDbSymbolTableRecord
100
AcDbBlockTableRecord
  2
*Paper_Space
340
1E
  0
BLOCK_RECORD
  5
3F
330
1
100
AcDbSymbolTableRecord
100
AcDbBlockTableRecord
  2
*D1
340
0
  0
BLOCK_RECORD
  5
42
330
1
100
AcDbSymbolTableRecord
100
AcDbBlockTableRecord
  2
*D2
340
0
  0
BLOCK_RECORD
  5
45
330
1
100
AcDbSymbolTableRecord
100
AcDbBlockTableRecord
  2
*D3
340
0
  0
BLOCK_RECORD
  5
48
330
1
100
AcDbSymbolTableRecord
100
AcDbBlockTableRecord
  2
*D4
340
0
  0
BLOCK_RECORD
  5
6D
330
1
100
AcDbSymbolTableRecord
100
AcDbBlockTableRecord
  2
VW_FILLEDARROW
340
0
102
{BLKREFS
331
99
331
94
102
}
  0
BLOCK_RECORD
  5
77
330
1
100
AcDbSymbolTableRecord
100
AcDbBlockTableRecord
  2
VW_EMPTYARROW
340
0
102
{BLKREFS
331
88
331
83
331
AC
331
A7
331
BD
331
B8
102
}
  0
ENDTAB
  0
ENDSEC
  0
SECTION
  2
BLOCKS
  0
BLOCK
  5
20
330
1F
100
AcDbEntity
  8
0
100
AcDbBlockBegin
  2
*Model_Space
 70
     0
 10
0.0
 20
0.0
 30
0.0
  3
*Model_Space
  1

  0
ENDBLK
  5
21
330
1F
100
AcDbEntity
  8
0
100
AcDbBlockEnd
  0
BLOCK
  5
1C
330
1B
100
AcDbEntity
 67
     1
  8
0
100
AcDbBlockBegin
  2
*Paper_Space
 70
     0
 10
0.0
 20
0.0
 30
0.0
  3
*Paper_Space
  1

  0
ENDBLK
  5
1D
330
1B
100
AcDbEntity
 67
     1
  8
0
100
AcDbBlockEnd
  0
BLOCK
  5
40
330
3F
100
AcDbEntity
  8
0
100
AcDbBlockBegin
  2
*D1
 70
     1
 10
0.0
 20
0.0
 30
0.0
  3
*D1
  1

  0
LINE
  5
80
330
3F
100
AcDbEntity
  8
寸法
  6
Continuous
 62
     0
370
    -2
100
AcDbLine
 10
1676.165528605935
 20
1913.491658541702
 30
0.0
 11
1676.165528605935
 21
1996.014
 31
0.0
  0
LINE
  5
81
330
3F
100
AcDbEntity
  8
寸法
  6
Continuous
 62
     0
370
    -2
100
AcDbLine
 10
476.1655286059349
 20
1913.491658541702
 30
0.0
 11
476.1655286059349
 21
1996.014
 31
0.0
  0
LINE
  5
82
330
3F
100
AcDbEntity
  8
寸法
  6
Continuous
 62
     0
370
    -2
100
AcDbLine
 10
1661.205201457497
 20
1996.0
 30
0.0
 11
491.1258557543724
 21
1996.0
 31
0.0
  0
INSERT
  5
83
330
3F
100
AcDbEntity
  8
寸法
 62
     0
370
    -2
100
AcDbBlockReference
  2
VW_EMPTYARROW
 10
1676.165528605935
 20
1996.0
 30
0.0
 41
14.9603271484375
 42
14.9603271484375
 43
14.9603271484375
  0
INSERT
  5
88
330
3F
100
AcDbEntity
  8
寸法
 62
     0
370
    -2
100
AcDbBlockReference
  2
VW_EMPTYARROW
 10
476.1655286059349
 20
1996.0
 30
0.0
 41
14.9603271484375
 42
14.9603271484375
 43
14.9603271484375
 50
180.0
  0
MTEXT
  5
8D
330
3F
100
AcDbEntity
  8
寸法
 62
     0
370
     9
100
AcDbMText
 10
1076.165528605935
 20
2006.725839793282
 30
0.0
 40
20.05167958656331
 41
0.0
 71
     5
 72
     1
  1
\A1;間口750～1800対応
  7
Osaka
 73
     1
 44
1.0
  0
POINT
  5
8E
330
3F
100
AcDbEntity
  8
Defpoints
 62
     0
100
AcDbPoint
 10
1676.165528605935
 20
1913.477658541702
 30
0.0
  0
POINT
  5
8F
330
3F
100
AcDbEntity
  8
Defpoints
 62
     0
100
AcDbPoint
 10
476.1655286059349
 20
1913.477658541702
 30
0.0
  0
POINT
  5
90
330
3F
100
AcDbEntity
  8
Defpoints
 62
     0
100
AcDbPoint
 10
476.1655286059349
 20
1996.0
 30
0.0
  0
ENDBLK
  5
41
330
3F
100
AcDbEntity
  8
0
100
AcDbBlockEnd
  0
BLOCK
  5
43
330
42
100
AcDbEntity
  8
0
100
AcDbBlockBegin
  2
*D2
 70
     1
 10
0.0
 20
0.0
 30
0.0
  3
*D2
  1

  0
LINE
  5
91
330
42
100
AcDbEntity
  8
寸法
  6
Continuous
 62
     0
370
    -2
100
AcDbLine
 10
1676.179528605935
 20
1833.4776585417
 30
0.0
 11
1730.014
 21
1833.4776585417
 31
0.0
  0
LINE
  5
92
330
42
100
AcDbEntity
  8
寸法
  6
Continuous
 62
     0
370
    -2
100
AcDbLine
 10
1676.879528605935
 20
1913.477658541702
 30
0.0
 11
1730.014
 21
1913.477658541702
 31
0.0
  0
LINE
  5
93
330
42
100
AcDbEntity
  8
寸法
  6
Continuous
 62
     0
370
    -2
100
AcDbLine
 10
1730.0
 20
1837.973508151075
 30
0.0
 11
1730.0
 21
1908.981808932327
 31
0.0
  0
INSERT
  5
94
102
{ACAD_REACTORS
330
99
102
}
330
42
100
AcDbEntity
  8
寸法
 62
     0
370
    -2
100
AcDbBlockReference
  2
VW_FILLEDARROW
 10
1730.0
 20
1833.4776585417
 30
0.0
 41
4.495849609374999
 42
4.495849609374999
 43
4.495849609374999
 50
270.0
  0
INSERT
  5
99
330
42
100
AcDbEntity
  8
寸法
 62
     0
370
    -2
100
AcDbBlockReference
  2
VW_FILLEDARROW
 10
1730.0
 20
1913.477658541702
 30
0.0
 41
4.495849609374999
 42
4.495849609374999
 43
4.495849609374999
 50
90.0
  0
MTEXT
  5
9A
102
{ACAD_REACTORS
330
9F
102
}
330
42
100
AcDbEntity
  8
寸法
 62
     0
370
     9
100
AcDbMText
 10
1719.274160206718
 20
1873.477658541701
 30
0.0
 40
20.05167958656331
 41
0.0
 71
     5
 72
     1
  1
\A1;80
  7
Osaka
 11
0.0
 21
1.0
 31
0.0
 73
     1
 44
1.0
  0
POINT
  5
9F
330
42
100
AcDbEntity
  8
Defpoints
 62
     0
100
AcDbPoint
 10
1676.165528605935
 20
1833.4776585417
 30
0.0
  0
POINT
  5
A0
330
42
100
AcDbEntity
  8
Defpoints
 62
     0
100
AcDbPoint
 10
1676.865528605935
 20
1913.477658541702
 30
0.0
  0
POINT
  5
A1
330
42
100
AcDbEntity
  8
Defpoints
 62
     0
100
AcDbPoint
 10
1730.0
 20
1913.477658541702
 30
0.0
  0
ENDBLK
  5
44
330
42
100
AcDbEntity
  8
0
100
AcDbBlockEnd
  0
BLOCK
  5
46
330
45
100
AcDbEntity
  8
0
100
AcDbBlockBegin
  2
*D3
 70
     1
 10
0.0
 20
0.0
 30
0.0
  3
*D3
  1

  0
LINE
  5
A4
330
45
100
AcDbEntity
  8
寸法
  6
Continuous
 62
     0
370
    -2
100
AcDbLine
 10
1676.179528605935
 20
1313.477658541702
 30
0.0
 11
1772.014
 21
1313.477658541702
 31
0.0
  0
LINE
  5
A5
330
45
100
AcDbEntity
  8
寸法
  6
Continuous
 62
     0
370
    -2
100
AcDbLine
 10
1676.179528605935
 20
1913.477658541702
 30
0.0
 11
1772.014
 21
1913.477658541702
 31
0.0
  0
LINE
  5
A6
330
45
100
AcDbEntity
  8
寸法
  6
Continuous
 62
     0
370
    -2
100
AcDbLine
 10
1772.0
 20
1328.43798569014
 30
0.0
 11
1772.0
 21
1898.517331393265
 31
0.0
  0
INSERT
  5
A7
330
45
100
AcDbEntity
  8
寸法
 62
     0
370
    -2
100
AcDbBlockReference
  2
VW_EMPTYARROW
 10
1772.0
 20
1313.477658541702
 30
0.0
 41
14.9603271484375
 42
14.9603271484375
 43
14.9603271484375
 50
270.0
  0
INSERT
  5
AC
330
45
100
AcDbEntity
  8
寸法
 62
     0
370
    -2
100
AcDbBlockReference
  2
VW_EMPTYARROW
 10
1772.0
 20
1913.477658541702
 30
0.0
 41
14.9603271484375
 42
14.9603271484375
 43
14.9603271484375
 50
90.0
  0
MTEXT
  5
B1
330
45
100
AcDbEntity
  8
寸法
 62
     0
370
     9
100
AcDbMText
 10
1761.274160206718
 20
1613.477658541702
 30
0.0
 40
20.05167958656331
 41
0.0
 71
     5
 72
     1
  1
\A1;600
  7
Osaka
 11
0.0
 21
1.0
 31
0.0
 73
     1
 44
1.0
  0
POINT
  5
B2
330
45
100
AcDbEntity
  8
Defpoints
 62
     0
100
AcDbPoint
 10
1676.165528605935
 20
1313.477658541702
 30
0.0
  0
POINT
  5
B3
330
45
100
AcDbEntity
  8
Defpoints
 62
     0
100
AcDbPoint
 10
1676.165528605935
 20
1913.477658541702
 30
0.0
  0
POINT
  5
B4
330
45
100
AcDbEntity
  8
Defpoints
 62
     0
100
AcDbPoint
 10
1772.0
 20
1913.477658541702
 30
0.0
  0
ENDBLK
  5
47
330
45
100
AcDbEntity
  8
0
100
AcDbBlockEnd
  0
BLOCK
  5
49
330
48
100
AcDbEntity
  8
0
100
AcDbBlockBegin
  2
*D4
 70
     1
 10
0.0
 20
0.0
 30
0.0
  3
*D4
  1

  0
LINE
  5
B5
330
48
100
AcDbEntity
  8
寸法
  6
Continuous
 62
     0
370
    -2
100
AcDbLine
 10
1401.165528605935
 20
1383.463658541702
 30
0.0
 11
1401.165528605935
 21
1233.986
 31
0.0
  0
LINE
  5
B6
330
48
100
AcDbEntity
  8
寸法
  6
Continuous
 62
     0
370
    -2
100
AcDbLine
 10
751.1655286059358
 20
1383.463658541702
 30
0.0
 11
751.1655286059358
 21
1233.986
 31
0.0
  0
LINE
  5
B7
330
48
100
AcDbEntity
  8
寸法
  6
Continuous
 62
     0
370
    -2
100
AcDbLine
 10
1386.205201457497
 20
1234.0
 30
0.0
 11
766.1258557543733
 21
1234.0
 31
0.0
  0
INSERT
  5
B8
330
48
100
AcDbEntity
  8
寸法
 62
     0
370
    -2
100
AcDbBlockReference
  2
VW_EMPTYARROW
 10
1401.165528605935
 20
1234.0
 30
0.0
 41
14.9603271484375
 42
14.9603271484375
 43
14.9603271484375
  0
INSERT
  5
BD
330
48
100
AcDbEntity
  8
寸法
 62
     0
370
    -2
100
AcDbBlockReference
  2
VW_EMPTYARROW
 10
751.1655286059358
 20
1234.0
 30
0.0
 41
14.9603271484375
 42
14.9603271484375
 43
14.9603271484375
 50
180.0
  0
MTEXT
  5
C2
330
48
100
AcDbEntity
  8
寸法
 62
     0
370
     9
100
AcDbMText
 10
1076.165528605935
 20
1249.977470161191
 30
0.0
 40
20.05167958656331
 41
0.0
 71
     5
 72
     1
  1
\A1;650(Rエンド)
  7
Osaka
 73
     1
 44
1.0
  0
POINT
  5
C3
330
48
100
AcDbEntity
  8
Defpoints
 62
     0
100
AcDbPoint
 10
1401.165528605935
 20
1383.477658541702
 30
0.0
  0
POINT
  5
C4
330
48
100
AcDbEntity
  8
Defpoints
 62
     0
100
AcDbPoint
 10
751.1655286059358
 20
1383.477658541702
 30
0.0
  0
POINT
  5
C5
330
48
100
AcDbEntity
  8
Defpoints
 62
     0
100
AcDbPoint
 10
751.1655286059358
 20
1234.0
 30
0.0
  0
ENDBLK
  5
4A
330
48
100
AcDbEntity
  8
0
100
AcDbBlockEnd
  0
BLOCK
  5
6E
330
6D
100
AcDbEntity
  8
0
100
AcDbBlockBegin
  2
VW_FILLEDARROW
 70
     0
 10
0.0
 20
0.0
 30
0.0
  3
VW_FILLEDARROW
  1

  0
POLYLINE
  5
70
102
{ACAD_REACTORS
330
75
102
}
330
6D
100
AcDbEntity
  8
0
  6
Continuous
 62
     0
370
    20
100
AcDb2dPolyline
 66
     1
 10
0.0
 20
0.0
 30
0.0
 70
   129
  0
VERTEX
  5
71
330
70
100
AcDbEntity
  8
0
  6
Continuous
 62
     0
370
    20
100
AcDbVertex
100
AcDb2dVertex
 10
-0.99993896484375
 20
0.1227770667280446
 30
0.0
  0
VERTEX
  5
72
330
70
100
AcDbEntity
  8
0
  6
Continuous
 62
     0
370
    20
100
AcDbVertex
100
AcDb2dVertex
 10
0.0
 20
0.0
 30
0.0
  0
VERTEX
  5
73
330
70
100
AcDbEntity
  8
0
  6
Continuous
 62
     0
370
    20
100
AcDbVertex
100
AcDb2dVertex
 10
-0.9999389648437499
 20
-0.1227770667280449
 30
0.0
  0
SEQEND
  5
74
330
70
100
AcDbEntity
  8
0
  6
Continuous
 62
     0
370
    20
  0
HATCH
  5
75
330
6D
100
AcDbEntity
  8
0
  6
Continuous
 62
     0
370
     0
100
AcDbHatch
 10
0.0
 20
0.0
 30
0.0
210
0.0
220
0.0
230
1.0
  2
SOLID
 70
     1
 71
     1
 91
        1
 92
        1
 93
        3
 72
     1
 10
-0.99993896484375
 20
0.1227770667280446
 11
0.0
 21
0.0
 72
     1
 10
0.0
 20
0.0
 11
-0.9999389648437499
 21
-0.1227770667280449
 72
     1
 10
-0.9999389648437499
 20
-0.1227770667280449
 11
-0.99993896484375
 21
0.1227770667280446
 97
        1
330
70
 75
     0
 76
     1
 98
        1
 10
0.0
 20
0.0
  0
ENDBLK
  5
6F
330
6D
100
AcDbEntity
  8
0
100
AcDbBlockEnd
  0
BLOCK
  5
78
330
77
100
AcDbEntity
  8
0
100
AcDbBlockBegin
  2
VW_EMPTYARROW
 70
     0
 10
0.0
 20
0.0
 30
0.0
  3
VW_EMPTYARROW
  1

  0
LINE
  5
7A
330
77
100
AcDbEntity
  8
0
  6
ByBlock
 62
     0
370
    -2
100
AcDbLine
 10
0.0
 20
0.0
 30
0.0
 11
-1.0
 21
0.0
 31
0.0
  0
POLYLINE
  5
7B
330
77
100
AcDbEntity
  8
0
  6
Continuous
 62
     0
370
    20
100
AcDb2dPolyline
 66
     1
 10
0.0
 20
0.0
 30
0.0
 70
   128
  0
VERTEX
  5
7C
330
7B
100
AcDbEntity
  8
0
  6
Continuous
 62
     0
370
    20
100
AcDbVertex
100
AcDb2dVertex
 10
-0.9999389648437499
 20
0.2679328381102956
 30
0.0
  0
VERTEX
  5
7D
330
7B
100
AcDbEntity
  8
0
  6
Continuous
 62
     0
370
    20
100
AcDbVertex
100
AcDb2dVertex
 10
0.0
 20
0.0
 30
0.0
  0
VERTEX
  5
7E
330
7B
100
AcDbEntity
  8
0
  6
Continuous
 62
     0
370
    20
100
AcDbVertex
100
AcDb2dVertex
 10
-0.9999389648437498
 20
-0.2679328381102958
 30
0.0
  0
SEQEND
  5
7F
330
7B
100
AcDbEntity
  8
0
  6
Continuous
 62
     0
370
    20
  0
ENDBLK
  5
79
330
77
100
AcDbEntity
  8
0
100
AcDbBlockEnd
  0
ENDSEC
  0
SECTION
  2
ENTITIES
  0
MTEXT
  5
C7
330
1F
100
AcDbEntity
  8
0
 62
     3
100
AcDbMText
 10
6047.842648682924
 20
-1932.951507147046
 30
0.0
 40
2.5
 41
0.0
 71
     6
 72
     1
  1
{\fOsaka|b0|i0|c128|p0; }
 73
     1
 44
1.004016064257028
  0
MTEXT
  5
C8
330
1F
100
AcDbEntity
  8
0
 62
     3
100
AcDbMText
 10
6075.741647721796
 20
-1931.701507147046
 30
0.0
 40
2.5
 41
0.0
 71
     4
 72
     1
  1
{\fOsaka|b0|i0|c128|p0; }
 73
     1
 44
1.004016064257028
  0
MTEXT
  5
C9
330
1F
100
AcDbEntity
  8
0
 62
     3
100
AcDbMText
 10
6047.842648682924
 20
-1932.951507147046
 30
0.0
 40
2.5
 41
0.0
 71
     6
 72
     1
  1
{\fOsaka|b0|i0|c128|p0; }
 73
     1
 44
1.004016064257028
  0
MTEXT
  5
CA
330
1F
100
AcDbEntity
  8
0
 62
     3
100
AcDbMText
 10
6075.741647721796
 20
-1931.701507147046
 30
0.0
 40
2.5
 41
0.0
 71
     4
 72
     1
  1
{\fOsaka|b0|i0|c128|p0; }
 73
     1
 44
1.004016064257028
  0
MTEXT
  5
CB
330
1F
100
AcDbEntity
  8
0
 62
     3
100
AcDbMText
 10
6082.059247792347
 20
-1931.701507147046
 30
0.0
 40
2.5
 41
0.0
 71
     4
 72
     1
  1
{\fOsaka|b0|i0|c128|p0; }
 73
     1
 44
1.004016064257028
  0
POLYLINE
  5
CC
330
1F
100
AcDbEntity
  8
SUNPO
100
AcDb2dPolyline
 66
     1
 10
0.0
 20
0.0
 30
0.0
 70
   129
  0
VERTEX
  5
CD
330
CC
100
AcDbEntity
  8
SUNPO
100
AcDbVertex
100
AcDb2dVertex
 10
0.0
 20
0.0
 30
0.0
  0
VERTEX
  5
CE
330
CC
100
AcDbEntity
  8
SUNPO
100
AcDbVertex
100
AcDb2dVertex
 10
2500.0
 20
0.0
 30
0.0
  0
VERTEX
  5
CF
330
CC
100
AcDbEntity
  8
SUNPO
100
AcDbVertex
100
AcDb2dVertex
 10
2500.0
 20
2500.0
 30
0.0
  0
VERTEX
  5
D0
330
CC
100
AcDbEntity
  8
SUNPO
100
AcDbVertex
100
AcDb2dVertex
 10
0.0
 20
2500.0
 30
0.0
  0
SEQEND
  5
D1
330
CC
100
AcDbEntity
  8
SUNPO
  0
LINE
  5
D2
330
1F
100
AcDbEntity
  8
0
 62
     7
100
AcDbLine
 10
476.1655286059349
 20
1313.477658541702
 30
0.0
 11
476.1655286059349
 21
1913.477658541702
 31
0.0
  0
LINE
  5
D3
330
1F
100
AcDbEntity
  8
0
 62
     7
100
AcDbLine
 10
476.1655286059349
 20
1313.477658541702
 30
0.0
 11
1676.165528605935
 21
1313.477658541702
 31
0.0
  0
LINE
  5
D4
330
1F
100
AcDbEntity
  8
0
 62
     7
100
AcDbLine
 10
1984.055411825807
 20
1913.477658541702
 30
0.0
 11
1986.07378418918
 21
1836.399127696777
 31
0.0
  0
LINE
  5
D5
330
1F
100
AcDbEntity
  8
0
 62
     7
100
AcDbLine
 10
1991.055411825807
 20
1913.477658541702
 30
0.0
 11
1991.055411825807
 21
1841.4776585417
 31
0.0
  0
LINE
  5
D6
330
1F
100
AcDbEntity
  8
0
 62
     7
100
AcDbLine
 10
1676.165528605935
 20
1313.477658541702
 30
0.0
 11
1676.165528605935
 21
1913.477658541702
 31
0.0
  0
LWPOLYLINE
  5
D7
330
1F
100
AcDbEntity
  8
0
 62
     7
100
AcDbPolyline
 90
        8
 70
   129
 43
0.0
 10
756.1655286059358
 20
1378.477658541702
 10
1396.165528605935
 20
1378.477658541702
 42
0.4142135623730951
 10
1401.165528605935
 20
1383.477658541702
 10
1401.165528605935
 20
1733.477658541702
 42
0.4142135623730951
 10
1396.165528605935
 20
1738.477658541702
 10
756.1655286059358
 20
1738.477658541702
 42
0.4142135623730951
 10
751.1655286059358
 20
1733.477658541702
 10
751.1655286059358
 20
1383.477658541702
 42
0.4142135623730951
  0
ARC
  5
D8
330
1F
100
AcDbEntity
  8
0
 62
     7
100
AcDbCircle
 10
1076.165528605935
 20
1275.999995542903
 30
0.0
 40
334.0
100
AcDbArc
 50
277.4438661589145
 51
319.4936212936235
  0
ARC
  5
D9
330
1F
100
AcDbEntity
  8
sen-h
 62
     7
100
AcDbCircle
 10
1076.165528605935
 20
1275.999995542903
 30
0.0
 40
328.0
100
AcDbArc
 50
220.5063787063764
 51
319.4936212936235
  0
ARC
  5
DA
330
1F
100
AcDbEntity
  8
sen2
 62
     7
100
AcDbCircle
 10
1076.165528605939
 20
5473.144883877112
 30
0.0
 40
3748.351542210854
100
AcDbArc
 50
265.1026488183863
 51
274.8973511816136
  0
LINE
  5
DB
330
1F
100
AcDbEntity
  8
0
 62
     7
100
AcDbLine
 10
751.1655286059358
 20
1738.477658541702
 30
0.0
 11
1401.165528605935
 21
1738.477658541702
 31
0.0
  0
ARC
  5
DC
330
1F
100
AcDbEntity
  8
sen2
 62
     7
100
AcDbCircle
 10
1076.165528605935
 20
-55.83104106902738
 30
0.0
 40
1469.571857984162
100
AcDbArc
 50
77.42305696700022
 51
102.5769430329998
  0
LINE
  5
DD
330
1F
100
AcDbEntity
  8
0
 62
     7
100
AcDbLine
 10
1401.165528605935
 20
1378.477658541702
 30
0.0
 11
751.1655286059358
 21
1378.477658541702
 31
0.0
  0
LINE
  5
DE
330
1F
100
AcDbEntity
  8
0
 62
     7
100
AcDbLine
 10
1676.165528605935
 20
1833.4776585417
 30
0.0
 11
476.1655286059349
 21
1833.4776585417
 31
0.0
  0
LINE
  5
DF
330
1F
100
AcDbEntity
  8
0
 62
     7
100
AcDbLine
 10
822.697962917875
 20
1058.0
 30
0.0
 11
1329.633094293996
 21
1058.0
 31
0.0
  0
LINE
  5
E0
330
1F
100
AcDbEntity
  8
0
 62
     7
100
AcDbLine
 10
476.1655286059349
 20
1118.0
 30
0.0
 11
1676.165528605935
 21
1118.0
 31
0.0
  0
LINE
  5
E1
330
1F
100
AcDbEntity
  8
0
 62
     7
100
AcDbLine
 10
476.1655286059349
 20
1097.999999999999
 30
0.0
 11
1676.165528605935
 21
1097.999999999999
 31
0.0
  0
ARC
  5
E2
330
1F
100
AcDbEntity
  8
0
 62
     7
100
AcDbCircle
 10
1076.165528605935
 20
1275.999995542903
 30
0.0
 40
334.0000000000001
100
AcDbArc
 50
220.5063787063764
 51
262.5561338410854
  0
ARC
  5
E3
330
1F
100
AcDbEntity
  8
sen-h
 62
     7
100
AcDbCircle
 10
749.9420940812579
 20
996.5995977770749
 30
0.0
 40
95.51990537074204
100
AcDbArc
 50
40.83313130878434
 51
92.86632643856264
  0
ARC
  5
E4
330
1F
100
AcDbEntity
  8
sen-h
 62
     7
100
AcDbCircle
 10
750.7427228928991
 20
997.999999999998
 30
0.0
 40
100.0000000000001
100
AcDbArc
 50
40.50637870637148
 51
90.0
  0
LINE
  5
E5
330
1F
100
AcDbEntity
  8
0
 62
     7
100
AcDbLine
 10
476.1655286059349
 20
1058.0
 30
0.0
 11
822.697962917875
 21
1058.0
 31
0.0
  0
LINE
  5
E6
330
1F
100
AcDbEntity
  8
sen-h
 62
     7
100
AcDbLine
 10
476.1655286059349
 20
1091.999999999998
 30
0.0
 11
745.1655286059367
 21
1091.999999999998
 31
0.0
  0
LINE
  5
E7
330
1F
100
AcDbEntity
  8
sen-c
 62
     7
100
AcDbLine
 10
1076.165528605935
 20
1129.138935476227
 30
0.0
 11
1076.165528605935
 21
906.0123046713509
 31
0.0
  0
LINE
  5
E8
330
1F
100
AcDbEntity
  8
sen-h
 62
     7
100
AcDbLine
 10
1100.261663422494
 20
938.0002891286771
 30
0.0
 11
1052.844325770531
 21
938.0002891286771
 31
0.0
  0
LINE
  5
E9
330
1F
100
AcDbEntity
  8
0
 62
     7
100
AcDbLine
 10
1111.891603102727
 20
934.000289128677
 30
0.0
 11
1040.689454109144
 21
934.000289128677
 31
0.0
  0
LINE
  5
EA
330
1F
100
AcDbEntity
  8
sen-h
 62
     7
100
AcDbLine
 10
1107.68243103777
 20
941.000289128677
 30
0.0
 11
1044.648626174099
 21
941.000289128677
 31
0.0
  0
ARC
  5
EB
330
1F
100
AcDbEntity
  8
sen-h
 62
     7
100
AcDbCircle
 10
1038.865297950655
 20
945.0956395832658
 30
0.0
 40
4.999999999999911
100
AcDbArc
 50
4.26456152308125
 51
83.56864778551419
  0
ARC
  5
EC
330
1F
100
AcDbEntity
  8
0
 62
     7
100
AcDbCircle
 10
1032.24645444774
 20
939.8569978096658
 30
0.0
 40
4.999999999999989
100
AcDbArc
 50
5.00000000001419
 51
82.55613384108543
  0
LINE
  5
ED
330
1F
100
AcDbEntity
  8
sen-h
 62
     7
100
AcDbLine
 10
1051.665528605935
 20
941.000289128677
 30
0.0
 11
1051.848131072438
 21
938.913133385928
 31
0.0
  0
ARC
  5
EE
330
1F
100
AcDbEntity
  8
sen-h
 62
     7
100
AcDbCircle
 10
1052.844325770531
 20
939.0002891286771
 30
0.0
 40
1.000000000000067
100
AcDbArc
 50
184.9999999999995
 51
270.0
  0
ARC
  5
EF
330
1F
100
AcDbEntity
  8
sen-h
 62
     7
100
AcDbCircle
 10
1044.648626174099
 20
941.5002891286771
 30
0.0
 40
0.4999999999999201
100
AcDbArc
 50
185.0000000000006
 51
270.0
  0
LINE
  5
F0
330
1F
100
AcDbEntity
  8
sen-h
 62
     7
100
AcDbLine
 10
1043.851454543046
 20
945.4674492605922
 30
0.0
 11
1044.150528825053
 21
941.4567112573025
 31
0.0
  0
LINE
  5
F1
330
1F
100
AcDbEntity
  8
0
 62
     7
100
AcDbLine
 10
1037.165881323174
 20
940.9962575521897
 30
0.0
 11
1037.450870014869
 21
936.7388219004335
 31
0.0
  0
ARC
  5
F2
330
1F
100
AcDbEntity
  8
0
 62
     7
100
AcDbCircle
 10
1040.657750432256
 20
937.2470347608053
 30
0.0
 40
3.246900417762837
100
AcDbArc
 50
189.0051049720746
 51
270.5594614902216
  0
ARC
  5
F3
330
1F
100
AcDbEntity
  8
0
 62
     7
100
AcDbCircle
 10
1120.084602764131
 20
939.8569978096658
 30
0.0
 40
5.000000000000041
100
AcDbArc
 50
97.44386615891459
 51
174.9999999999858
  0
LINE
  5
F4
330
1F
100
AcDbEntity
  8
sen-h
 62
     7
100
AcDbLine
 10
1101.440460587089
 20
941.000289128677
 30
0.0
 11
1101.257858120587
 21
938.913133385928
 31
0.0
  0
ARC
  5
F5
330
1F
100
AcDbEntity
  8
sen-h
 62
     7
100
AcDbCircle
 10
1100.261663422495
 20
939.0002891286771
 30
0.0
 40
1.0
100
AcDbArc
 50
270.0
 51
355.0000000000006
  0
ARC
  5
F6
330
1F
100
AcDbEntity
  8
0
 62
     7
100
AcDbCircle
 10
1111.891603102727
 20
937.0002891286771
 30
0.0
 40
3.0
100
AcDbArc
 50
270.0
 51
355.0000000000002
  0
LINE
  5
F7
330
1F
100
AcDbEntity
  8
0
 62
     7
100
AcDbLine
 10
1115.165175888694
 20
940.9962575521879
 30
0.0
 11
1114.880187197002
 21
936.7388219004335
 31
0.0
  0
ARC
  5
F8
330
1F
100
AcDbEntity
  8
sen-h
 62
     7
100
AcDbCircle
 10
1107.682431037772
 20
941.5002891286771
 30
0.0
 40
0.5
100
AcDbArc
 50
270.0
 51
354.9999999999994
  0
LINE
  5
F9
330
1F
100
AcDbEntity
  8
sen-c
 62
     7
100
AcDbLine
 10
990.675852696837
 20
1068.0
 30
0.0
 11
1091.937863742754
 21
1068.0
 31
0.0
  0
LINE
  5
FA
330
1F
100
AcDbEntity
  8
sen-c
 62
     7
100
AcDbLine
 10
1016.165528605935
 20
1088.489675909099
 30
0.0
 11
1016.165528605935
 21
1042.510324090901
 31
0.0
  0
LINE
  5
FB
330
1F
100
AcDbEntity
  8
sen-c
 62
     7
100
AcDbLine
 10
1019.238006485968
 20
1638.477658541702
 30
0.0
 11
1133.093050725903
 21
1638.477658541702
 31
0.0
  0
CIRCLE
  5
FC
330
1F
100
AcDbEntity
  8
0
 62
     7
370
    15
100
AcDbCircle
 10
1076.165528605935
 20
1638.477658541702
 30
0.0
 40
32.75
  0
CIRCLE
  5
FD
330
1F
100
AcDbEntity
  8
0
 62
     7
370
    15
100
AcDbCircle
 10
1076.165528605935
 20
1638.477658541702
 30
0.0
 40
24.75
  0
ARC
  5
FE
330
1F
100
AcDbEntity
  8
sen-h
 62
     7
100
AcDbCircle
 10
1402.052301266144
 20
997.3869754283298
 30
0.0
 40
94.75109240756746
100
AcDbArc
 50
86.90653984280206
 51
139.3940024098358
  0
ARC
  5
FF
330
1F
100
AcDbEntity
  8
sen-h
 62
     7
100
AcDbCircle
 10
1401.588334318972
 20
997.999999999998
 30
0.0
 40
100.0
100
AcDbArc
 50
90.0
 51
139.4936212936285
  0
LINE
  5
100
330
1F
100
AcDbEntity
  8
0
 62
     7
100
AcDbLine
 10
1329.633094293996
 20
1058.0
 30
0.0
 11
1676.165528605935
 21
1058.0
 31
0.0
  0
LINE
  5
101
330
1F
100
AcDbEntity
  8
sen-h
 62
     7
100
AcDbLine
 10
1407.165528605936
 20
1091.999999999998
 30
0.0
 11
1676.165528605935
 21
1091.999999999998
 31
0.0
  0
LINE
  5
102
330
1F
100
AcDbEntity
  8
0
 62
     7
100
AcDbLine
 10
2004.055411825807
 20
1828.561302867371
 30
0.0
 11
2004.055411825808
 21
1348.321823166777
 31
0.0
  0
LINE
  5
103
330
1F
100
AcDbEntity
  8
0
 62
     7
100
AcDbLine
 10
2042.055411825808
 20
1383.102001535391
 30
0.0
 11
2011.52496261583
 21
1374.703807808291
 31
0.0
  0
LINE
  5
104
330
1F
100
AcDbEntity
  8
0
  6
ISO-02 破線
 62
     7
370
     9
100
AcDbLine
 10
2032.055411825808
 20
1386.574103049079
 30
0.0
 11
2007.729288800866
 21
1379.332418535155
 31
0.0
  0
LINE
  5
105
330
1F
100
AcDbEntity
  8
0
 62
     7
100
AcDbLine
 10
2007.055411825808
 20
1313.477658541702
 30
0.0
 11
2044.055411825808
 21
1313.477658541702
 31
0.0
  0
LINE
  5
106
330
1F
100
AcDbEntity
  8
0
 62
     7
100
AcDbLine
 10
2012.055411825808
 20
1319.477658541702
 30
0.0
 11
2044.055411825808
 21
1319.477658541702
 31
0.0
  0
ARC
  5
107
330
1F
100
AcDbEntity
  8
0
  6
ISO-02 破線
 62
     7
370
     9
100
AcDbCircle
 10
2009.055411825809
 20
1374.511485251783
 30
0.0
 40
5.000000000000013
100
AcDbArc
 50
105.3802992858646
 51
180.0
  0
ARC
  5
108
330
1F
100
AcDbEntity
  8
0
 62
     7
100
AcDbCircle
 10
2012.055411825808
 20
1321.477658541702
 30
0.0
 40
2.0
100
AcDbArc
 50
180.0
 51
270.0
  0
ARC
  5
109
330
1F
100
AcDbEntity
  8
0
 62
     7
100
AcDbCircle
 10
2012.055411825808
 20
1372.775434494942
 30
0.0
 40
2.000000000000025
100
AcDbArc
 50
105.3802992858618
 51
180.0
  0
ARC
  5
10A
330
1F
100
AcDbEntity
  8
0
 62
     7
100
AcDbCircle
 10
2007.055411825808
 20
1316.477658541702
 30
0.0
 40
3.0
100
AcDbArc
 50
180.0
 51
270.0
  0
LINE
  5
10B
330
1F
100
AcDbEntity
  8
0
 62
     7
100
AcDbLine
 10
2004.055411825808
 20
1348.321823166777
 30
0.0
 11
2004.055411825808
 21
1316.477658541702
 31
0.0
  0
LINE
  5
10C
330
1F
100
AcDbEntity
  8
0
 62
     7
100
AcDbLine
 10
2004.055411825808
 20
1374.511485251785
 30
0.0
 11
2004.055411825808
 21
1348.321823166777
 31
0.0
  0
LINE
  5
10D
330
1F
100
AcDbEntity
  8
0
 62
     7
100
AcDbLine
 10
2010.055411825808
 20
1372.775434494942
 30
0.0
 11
2010.055411825808
 21
1321.477658541702
 31
0.0
  0
ARC
  5
10E
330
1F
100
AcDbEntity
  8
0
 62
     7
100
AcDbCircle
 10
653.4009456150939
 20
1588.139761000664
 30
0.0
 40
1506.785546496911
100
AcDbArc
 50
353.4688388862263
 51
0.3293581690547853
  0
LINE
  5
10F
330
1F
100
AcDbEntity
  8
0
  6
ISO-02 破線
 62
     7
370
     9
100
AcDbLine
 10
2138.849999317196
 20
1412.64981862595
 30
0.0
 11
2032.055411825808
 21
1386.574103049079
 31
0.0
  0
LINE
  5
110
330
1F
100
AcDbEntity
  8
0
 62
     7
100
AcDbLine
 10
2142.397095661729
 20
1407.40267821165
 30
0.0
 11
2042.055411825808
 21
1383.102001535391
 31
0.0
  0
LINE
  5
111
330
1F
100
AcDbEntity
  8
0
 62
     7
100
AcDbLine
 10
2044.055411825808
 20
1319.477658541702
 30
0.0
 11
2044.055411825808
 21
1313.477658541702
 31
0.0
  0
ARC
  5
112
330
1F
100
AcDbEntity
  8
0
 62
     7
100
AcDbCircle
 10
2139.479625006856
 20
1418.008731435067
 30
0.0
 40
11.00000000000015
100
AcDbArc
 50
285.3802992858642
 51
353.4117311567358
  0
ARC
  5
113
330
1F
100
AcDbEntity
  8
0
  6
ISO-02 破線
 62
     7
370
     9
100
AcDbCircle
 10
2136.728202477289
 20
1420.363311879346
 30
0.0
 40
8.000000000000101
100
AcDbArc
 50
285.3802992858618
 51
353.5468048561396
  0
LINE
  5
114
330
1F
100
AcDbEntity
  8
0
 62
     7
100
AcDbLine
 10
2034.648364781181
 20
1741.624773244011
 30
0.0
 11
2014.103822299628
 21
1743.665085553021
 31
0.0
  0
LINE
  5
115
330
1F
100
AcDbEntity
  8
0
  6
ISO-02 破線
 62
     7
370
     9
100
AcDbLine
 10
2146.846019559206
 20
1725.445840225965
 30
0.0
 11
2010.926405129333
 21
1737.747474359941
 31
0.0
  0
LINE
  5
116
330
1F
100
AcDbEntity
  8
0
 62
     7
100
AcDbLine
 10
2012.302158634801
 20
1745.602941215241
 30
0.0
 11
2010.0989671901
 21
1829.739428024782
 31
0.0
  0
LINE
  5
117
330
1F
100
AcDbEntity
  8
0
  6
ISO-02 破線
 62
     7
370
     9
100
AcDbLine
 10
2006.37841784873
 20
1742.612175025547
 30
0.0
 11
2004.152024148354
 21
1827.63472023155
 31
0.0
  0
ARC
  5
118
330
1F
100
AcDbEntity
  8
0
  6
ISO-02 破線
 62
     7
370
     9
100
AcDbCircle
 10
2011.377096424035
 20
1742.727120668353
 30
0.0
 40
5.000000000000106
100
AcDbArc
 50
181.3172960904666
 51
264.8284389265444
  0
LINE
  5
119
330
1F
100
AcDbEntity
  8
0
 62
     7
100
AcDbLine
 10
2004.055411825807
 20
1743.483643468966
 30
0.0
 11
2004.055411825807
 21
1743.161366714836
 31
0.0
  0
ARC
  5
11A
330
1F
100
AcDbEntity
  8
0
 62
     7
100
AcDbCircle
 10
2000.102393940344
 20
1829.477658541703
 30
0.0
 40
9.999999999999996
100
AcDbArc
 50
1.500000000002721
 51
90.00000000002606
  0
ARC
  5
11B
330
1F
100
AcDbEntity
  8
0
 62
     7
100
AcDbCircle
 10
1998.1540801985
 20
1827.477658541702
 30
0.0
 40
6.000000000000043
100
AcDbArc
 50
1.500000000002709
 51
90.00000000000001
  0
ARC
  5
11C
330
1F
100
AcDbEntity
  8
0
 62
     7
100
AcDbCircle
 10
1993.055411825807
 20
1841.4776585417
 30
0.0
 40
2.0
100
AcDbArc
 50
180.0
 51
270.000000000026
  0
ARC
  5
11D
330
1F
100
AcDbEntity
  8
0
 62
     7
100
AcDbCircle
 10
1989.072756164106
 20
1836.4776585417
 30
0.0
 40
3.000000000000021
100
AcDbArc
 50
181.5000000000027
 51
270.0
  0
LINE
  5
11E
330
1F
100
AcDbEntity
  8
0
 62
     7
100
AcDbLine
 10
1998.154080198499
 20
1833.477658541702
 30
0.0
 11
1989.072756164107
 21
1833.4776585417
 31
0.0
  0
LINE
  5
11F
330
1F
100
AcDbEntity
  8
0
 62
     7
100
AcDbLine
 10
2000.102393940339
 20
1839.477658541704
 30
0.0
 11
1993.055411825807
 21
1839.4776585417
 31
0.0
  0
LINE
  5
120
330
1F
100
AcDbEntity
  8
0
 62
     7
100
AcDbLine
 10
2150.18286096091
 20
1731.143968827251
 30
0.0
 11
2044.055411825808
 21
1740.690543927694
 31
0.0
  0
LINE
  5
121
330
1F
100
AcDbEntity
  8
0
 62
     7
100
AcDbLine
 10
2044.055411825808
 20
1740.690543927694
 30
0.0
 11
2034.648364781181
 21
1741.624773244011
 31
0.0
  0
ARC
  5
122
330
1F
100
AcDbEntity
  8
0
 62
     7
100
AcDbCircle
 10
2149.175609581353
 20
1719.269464607163
 30
0.0
 40
11.9163499414182
100
AcDbArc
 50
4.488327378788941
 51
84.91740818155446
  0
LINE
  5
123
330
1F
100
AcDbEntity
  8
0
 62
     7
100
AcDbLine
 10
2161.055415618766
 20
1720.201990445836
 30
0.0
 11
2161.055415618768
 21
1679.260952733586
 31
0.0
  0
ARC
  5
124
330
1F
100
AcDbEntity
  8
0
  6
ISO-02 破線
 62
     7
370
     9
100
AcDbCircle
 10
2146.055415618766
 20
1717.485001990618
 30
0.0
 40
8.0
100
AcDbArc
 50
0.0
 51
84.32845886253159
  0
LINE
  5
125
330
1F
100
AcDbEntity
  8
0
 62
     7
100
AcDbLine
 10
1676.165528605935
 20
1913.477658541702
 30
0.0
 11
476.1655286059349
 21
1913.477658541702
 31
0.0
  0
LINE
  5
126
330
1F
100
AcDbEntity
  8
0
 62
     7
100
AcDbLine
 10
1991.055411825807
 20
1913.477658541702
 30
0.0
 11
1984.055411825807
 21
1913.477658541702
 31
0.0
  0
ARC
  5
127
330
1F
100
AcDbEntity
  8
0
 62
     7
100
AcDbCircle
 10
2014.301473284752
 20
1745.655295111857
 30
0.0
 40
2.000000000000084
100
AcDbArc
 50
181.4999999999962
 51
264.3284588625515
  0
ARC
  5
128
330
1F
100
AcDbEntity
  8
sen-h
 62
     7
100
AcDbCircle
 10
1113.465759261216
 20
945.0956395832658
 30
0.0
 40
5.00000000000003
100
AcDbArc
 50
96.43135221448583
 51
175.7354384769188
  0
LINE
  5
129
330
1F
100
AcDbEntity
  8
sen-h
 62
     7
100
AcDbLine
 10
1108.479602668825
 20
945.4674492605922
 30
0.0
 11
1108.180528386818
 21
941.4567112573025
 31
0.0
  0
ARC
  5
12A
330
1F
100
AcDbEntity
  8
0
  6
ISO-02 破線
 62
     7
370
     9
100
AcDbCircle
 10
2162.055415618767
 20
1612.548861377098
 30
0.0
 40
1.000000000000027
100
AcDbArc
 50
94.99999999997353
 51
180.0
  0
LINE
  5
12B
330
1F
100
AcDbEntity
  8
0
 62
     7
100
AcDbLine
 10
2168.055415618767
 20
1602.751584044901
 30
0.0
 11
2168.055415618767
 21
1674.203733038485
 31
0.0
  0
LINE
  5
12C
330
1F
100
AcDbEntity
  8
0
  6
ISO-02 破線
 62
     7
370
     9
100
AcDbLine
 10
2161.055415618767
 20
1612.548861377098
 30
0.0
 11
2161.055415618767
 21
1664.406455706289
 31
0.0
  0
ARC
  5
12D
330
1F
100
AcDbEntity
  8
0
 62
     7
100
AcDbCircle
 10
2163.161547561267
 20
1596.818540989624
 30
0.0
 40
2.999999999999965
100
AcDbArc
 50
114.2330057578019
 51
180.3293581690482
  0
ARC
  5
12E
330
1F
100
AcDbEntity
  8
0
 62
     7
100
AcDbCircle
 10
2165.055415618767
 20
1602.751584044901
 30
0.0
 40
3.000000000000081
100
AcDbArc
 50
274.9999999999735
 51
0.0
  0
LINE
  5
12F
330
1F
100
AcDbEntity
  8
0
  6
ISO-02 破線
 62
     7
370
     9
100
AcDbLine
 10
2155.881104133273
 20
1605.362453608687
 30
0.0
 11
2160.598993490141
 21
1605.687726779656
 31
0.0
  0
ARC
  5
130
330
1F
100
AcDbEntity
  8
0
  6
ISO-02 破線
 62
     7
370
     9
100
AcDbCircle
 10
2156.055415618767
 20
1603.370064212503
 30
0.0
 40
1.999999999999986
100
AcDbArc
 50
95.000000000026
 51
167.2114693115644
  0
LINE
  5
131
330
1F
100
AcDbEntity
  8
0
  6
ISO-02 破線
 62
     7
370
     9
100
AcDbLine
 10
2161.055415618767
 20
1606.185824128701
 30
0.0
 11
2161.055415618767
 21
1612.548861377098
 31
0.0
  0
ARC
  5
132
330
1F
100
AcDbEntity
  8
0
  6
ISO-02 破線
 62
     7
370
     9
100
AcDbCircle
 10
2160.555415618767
 20
1606.185824128703
 30
0.0
 40
0.4999999999999003
100
AcDbArc
 50
274.9999999999746
 51
0.0
  0
LINE
  5
133
330
1F
100
AcDbEntity
  8
0
 62
     7
100
AcDbLine
 10
2161.930202358472
 20
1599.554192464421
 30
0.0
 11
2165.31688284701
 21
1599.762999950627
 31
0.0
  0
LINE
  5
134
330
1F
100
AcDbEntity
  8
sen-c
 62
     7
100
AcDbLine
 10
2134.055415618767
 20
1638.477658541702
 30
0.0
 11
2187.055415618769
 21
1638.477658541702
 31
0.0
  0
ARC
  5
135
330
1F
100
AcDbEntity
  8
0
 62
     7
100
AcDbCircle
 10
2165.055415618767
 20
1674.203733038487
 30
0.0
 40
3.0
100
AcDbArc
 50
0.0
 51
85.00000000002655
  0
LINE
  5
136
330
1F
100
AcDbEntity
  8
0
  6
ISO-02 破線
 62
     7
370
     9
100
AcDbLine
 10
2155.852293684324
 20
1671.595384062374
 30
0.0
 11
2160.598993490141
 21
1671.267590303731
 31
0.0
  0
ARC
  5
137
330
1F
100
AcDbEntity
  8
0
  6
ISO-02 破線
 62
     7
370
     9
100
AcDbCircle
 10
2156.026605169818
 20
1673.587773458558
 30
0.0
 40
1.9999999999998
100
AcDbArc
 50
178.2532384751309
 51
265.0000000000265
  0
LINE
  5
138
330
1F
100
AcDbEntity
  8
0
  6
ISO-02 破線
 62
     7
370
     9
100
AcDbLine
 10
2164.055415618767
 20
1614.643989715711
 30
0.0
 11
2164.055415618767
 21
1662.311327367676
 31
0.0
  0
LINE
  5
139
330
1F
100
AcDbEntity
  8
0
  6
ISO-02 破線
 62
     7
370
     9
100
AcDbLine
 10
2161.055415618767
 20
1664.406455706289
 30
0.0
 11
2161.055415618767
 21
1670.769492954685
 31
0.0
  0
ARC
  5
13A
330
1F
100
AcDbEntity
  8
0
  6
ISO-02 破線
 62
     7
370
     9
100
AcDbCircle
 10
2163.055415618767
 20
1662.311327367676
 30
0.0
 40
1.0
100
AcDbArc
 50
0.0
 51
85.00000000002655
  0
ARC
  5
13B
330
1F
100
AcDbEntity
  8
0
  6
ISO-02 破線
 62
     7
370
     9
100
AcDbCircle
 10
2162.055415618767
 20
1664.406455706289
 30
0.0
 40
1.0
100
AcDbArc
 50
180.0
 51
265.0000000000265
  0
LINE
  5
13C
330
1F
100
AcDbEntity
  8
0
  6
ISO-02 破線
 62
     7
370
     9
100
AcDbLine
 10
2161.96825987602
 20
1663.410261008197
 30
0.0
 11
2163.142571361514
 21
1663.307522065767
 31
0.0
  0
ARC
  5
13D
330
1F
100
AcDbEntity
  8
0
  6
ISO-02 破線
 62
     7
370
     9
100
AcDbCircle
 10
2160.555415618767
 20
1670.769492954685
 30
0.0
 40
0.5
100
AcDbArc
 50
0.0
 51
85.00000000002535
  0
ARC
  5
13E
330
1F
100
AcDbEntity
  8
0
 62
     7
100
AcDbCircle
 10
2163.890799416708
 20
1680.241054115259
 30
0.0
 40
2.999999999999883
100
AcDbArc
 50
199.0686287497742
 51
265.0000000000265
  0
LINE
  5
13F
330
1F
100
AcDbEntity
  8
0
  6
ISO-02 破線
 62
     7
370
     9
100
AcDbLine
 10
2163.629332188464
 20
1677.252470020984
 30
0.0
 11
2165.31688284701
 21
1677.192317132762
 31
0.0
  0
LINE
  5
140
330
1F
100
AcDbEntity
  8
0
  6
ISO-02 破線
 62
     7
370
     9
100
AcDbLine
 10
2161.96825987602
 20
1613.545056075189
 30
0.0
 11
2163.142571361514
 21
1613.64779501762
 31
0.0
  0
ARC
  5
141
330
1F
100
AcDbEntity
  8
0
  6
ISO-02 破線
 62
     7
370
     9
100
AcDbCircle
 10
2163.055415618767
 20
1614.643989715711
 30
0.0
 40
1.000000000000027
100
AcDbArc
 50
274.9999999999735
 51
0.0
  0
LINE
  5
142
330
1F
100
AcDbEntity
  8
0
  6
ISO-02 破線
 62
     7
370
     9
100
AcDbLine
 10
2154.055415618765
 20
1717.485001990619
 30
0.0
 11
2154.055415618767
 21
1607.974534304716
 31
0.0
  0
ARC
  5
143
330
1F
100
AcDbEntity
  8
0
  6
ISO-02 破線
 62
     7
370
     9
100
AcDbCircle
 10
653.4009456150934
 20
1588.139761000665
 30
0.0
 40
1500.785546496911
100
AcDbArc
 50
353.5468048561403
 51
0.7572580153134255
  0
CIRCLE
  5
144
330
1F
100
AcDbEntity
  8
sen-h
 62
     7
100
AcDbCircle
 10
1016.165528605935
 20
1068.0
 30
0.0
 40
15.0
  0
CIRCLE
  5
145
330
1F
100
AcDbEntity
  8
sen-h
 62
     7
100
AcDbCircle
 10
1016.165528605935
 20
1068.0
 30
0.0
 40
11.0
  0
LINE
  5
146
330
1F
100
AcDbEntity
  8
0
 62
     7
100
AcDbLine
 10
476.1655286059349
 20
1058.0
 30
0.0
 11
476.1655286059349
 21
1118.0
 31
0.0
  0
LINE
  5
147
330
1F
100
AcDbEntity
  8
sen-c
 62
     7
100
AcDbLine
 10
1076.165528605935
 20
1700.036458155011
 30
0.0
 11
1076.165528605935
 21
1582.0
 31
0.0
  0
LINE
  5
148
330
1F
100
AcDbEntity
  8
0
 62
     7
100
AcDbLine
 10
1676.165528605935
 20
1058.0
 30
0.0
 11
1676.165528605935
 21
1118.0
 31
0.0
  0
DIMENSION
  5
149
330
1F
100
AcDbEntity
  8
寸法
  6
Continuous
 62
     7
370
     9
100
AcDbDimension
  2
*D1
 10
476.1655286059349
 20
1996.0
 30
0.0
 11
1076.165528605935
 21
2006.725839793282
 31
0.0
 70
    32
  1
間口750～1800対応
 71
     5
 42
1200.0
  3
MSP明朝寸6
100
AcDbAlignedDimension
 13
1676.165528605935
 23
1913.477658541702
 33
0.0
 14
476.1655286059349
 24
1913.477658541702
 34
0.0
100
AcDbRotatedDimension
1001
ACAD
1000
DSTYLE
1002
{
1070
    41
1040
14.9603271484375
1070
   147
1040
0.7000000000000001
1070
   340
1005
4E
1070
   279
1070
     2
1002
}
  0
DIMENSION
  5
14A
330
1F
100
AcDbEntity
  8
寸法
  6
Continuous
 62
     7
370
     9
100
AcDbDimension
  2
*D2
 10
1730.0
 20
1913.477658541702
 30
0.0
 11
1719.274160206718
 21
1873.477658541701
 31
0.0
 70
    32
 71
     5
 42
80.00000000000206
  3
MSP明朝寸1-5
100
AcDbAlignedDimension
 13
1676.165528605935
 23
1833.4776585417
 33
0.0
 14
1676.865528605935
 24
1913.477658541702
 34
0.0
 50
-90.0
100
AcDbRotatedDimension
1001
ACAD
1000
DSTYLE
1002
{
1070
    41
1040
4.495849609374999
1070
   147
1040
0.7000000000000001
1070
   340
1005
4E
1070
   279
1070
     2
1002
}
  0
DIMENSION
  5
14B
330
1F
100
AcDbEntity
  8
寸法
  6
Continuous
 62
     7
370
     9
100
AcDbDimension
  2
*D3
 10
1772.0
 20
1913.477658541702
 30
0.0
 11
1761.274160206718
 21
1613.477658541702
 31
0.0
 70
    32
 71
     5
 42
600.0
  3
MSP明朝寸6
100
AcDbAlignedDimension
 13
1676.165528605935
 23
1313.477658541702
 33
0.0
 14
1676.165528605935
 24
1913.477658541702
 34
0.0
 50
-90.0
100
AcDbRotatedDimension
1001
ACAD
1000
DSTYLE
1002
{
1070
    41
1040
14.9603271484375
1070
   147
1040
0.7000000000000001
1070
   340
1005
4E
1070
   279
1070
     2
1002
}
  0
DIMENSION
  5
14C
330
1F
100
AcDbEntity
  8
寸法
  6
Continuous
 62
     7
370
     9
100
AcDbDimension
  2
*D4
 10
751.1655286059358
 20
1234.0
 30
0.0
 11
1076.165528605935
 21
1249.977470161191
 31
0.0
 70
    32
 71
     5
 42
649.9999999999991
  3
MSP明朝寸6
100
AcDbAlignedDimension
 13
1401.165528605935
 23
1383.477658541702
 33
0.0
 14
751.1655286059358
 24
1383.477658541702
 34
0.0
100
AcDbRotatedDimension
1001
ACAD
1000
DSTYLE
1002
{
1070
    41
1040
14.9603271484375
1070
   147
1040
0.7000000000000001
1070
     3
1000
<>(Rエンド)
1070
   340
1005
4E
1070
   279
1070
     2
1002
}
  0
VIEWPORT
  5
4B
330
1B
100
AcDbEntity
 67
     1
  8
0
100
AcDbViewport
 10
0.0
 20
0.0
 30
0.0
 40
466.7538834594727
 41
329.9726597625731
 68
     1
 69
     1
 12
0.0
 22
0.0
 13
0.0
 23
0.0
 14
10.0
 24
10.0
 15
10.0
 25
10.0
 16
0.0
 26
0.0
 36
1.0
 17
0.0
 27
0.0
 37
0.0
 42
50.0
 43
0.0
 44
0.0
 45
326.7350128173828
 50
0.0
 51
0.0
 72
  2000
 90
   557152
  1

281
     0
 71
     1
 74
     0
110
0.0
120
0.0
130
0.0
111
1.0
121
0.0
131
0.0
112
0.0
122
1.0
132
0.0
 79
     0
146
0.0
  0
LINE
  5
14D
330
1B
100
AcDbEntity
 67
     1
  8
ﾀｲﾄﾙ枠
  6
Continuous
100
AcDbLine
 10
195.6738467516342
 20
-140.0
 30
0.0
 11
-190.3261532483656
 21
-140.0
 31
0.0
  0
LINE
  5
14E
330
1B
100
AcDbEntity
 67
     1
  8
ﾀｲﾄﾙ枠
  6
Continuous
100
AcDbLine
 10
-190.3261532483656
 20
140.0
 30
0.0
 11
195.6738467516342
 21
140.0
 31
0.0
  0
LINE
  5
14F
330
1B
100
AcDbEntity
 67
     1
  8
ﾀｲﾄﾙ枠
100
AcDbLine
 10
-190.3261532483656
 20
140.0
 30
0.0
 11
-190.3261532483656
 21
-140.0
 31
0.0
  0
LINE
  5
150
330
1B
100
AcDbEntity
 67
     1
  8
ﾀｲﾄﾙ枠
  6
Continuous
100
AcDbLine
 10
195.6738467516342
 20
140.0
 30
0.0
 11
195.6738467516342
 21
-140.0
 31
0.0
  0
VIEWPORT
  5
151
330
1B
100
AcDbEntity
 67
     1
  8
一般
100
AcDbViewport
 10
-4.022664494383278
 20
-4.400176166527757
 30
0.0
 40
383.3023645145014
 41
258.8003523330554
 68
     2
 69
     2
 12
1292.53276677144
 22
1429.69943360344
 13
0.0
 23
0.0
 14
10.0
 24
10.0
 15
10.0
 25
10.0
 16
0.0
 26
0.0
 36
1.0
 17
0.0
 27
0.0
 37
0.0
 42
50.0
 43
0.0
 44
0.0
 45
1294.001779916011
 50
0.0
 51
0.0
 72
   100
 90
   639072
340
152
  1

281
     0
 71
     1
 74
     0
110
0.0
120
0.0
130
0.0
111
1.0
121
0.0
131
0.0
112
0.0
122
1.0
132
0.0
 79
     0
146
0.0
  0
POLYLINE
  5
152
102
{ACAD_REACTORS
330
151
102
}
330
1B
100
AcDbEntity
 67
     1
  8
_Viewport_Crop
100
AcDb2dPolyline
 66
     1
 10
0.0
 20
0.0
 30
0.0
 70
   129
  0
VERTEX
  5
153
330
152
100
AcDbEntity
 67
     1
  8
_Viewport_Crop
100
AcDbVertex
100
AcDb2dVertex
 10
-195.673846751634
 20
124.9999999999999
 30
0.0
  0
VERTEX
  5
154
330
152
100
AcDbEntity
 67
     1
  8
_Viewport_Crop
100
AcDbVertex
100
AcDb2dVertex
 10
187.6285177628674
 20
124.9999999999999
 30
0.0
  0
VERTEX
  5
155
330
152
100
AcDbEntity
 67
     1
  8
_Viewport_Crop
100
AcDbVertex
100
AcDb2dVertex
 10
187.6285177628674
 20
-133.8003523330555
 30
0.0
  0
VERTEX
  5
156
330
152
100
AcDbEntity
 67
     1
  8
_Viewport_Crop
100
AcDbVertex
100
AcDb2dVertex
 10
-195.673846751634
 20
-133.8003523330555
 30
0.0
  0
SEQEND
  5
157
330
152
100
AcDbEntity
 67
     1
  8
_Viewport_Crop
  0
MTEXT
  5
158
330
1B
100
AcDbEntity
 67
     1
  8
0
100
AcDbMText
 10
143.3709734108934
 20
-119.7856056054334
 30
0.0
 40
3.0
 41
0.0
 71
     2
 72
     1
  1
{\fMS PMincho|b0|i0|c128|p0;TQ洗面ｶｳﾝﾀｰ}
 73
     1
 44
0.8811854561101549
  0
LINE
  5
159
330
1B
100
AcDbEntity
 67
     1
  8
ﾀｲﾄﾙ枠
100
AcDbLine
 10
172.1243261820916
 20
-131.7003523330553
 30
0.0
 11
174.3864991862885
 21
-132.831438835154
 31
0.0
  0
LINE
  5
15A
330
1B
100
AcDbEntity
 67
     1
  8
ﾀｲﾄﾙ枠
100
AcDbLine
 10
174.6364991862886
 20
-133.330843835868
 30
0.0
 11
171.8964991862886
 21
-131.960843835868
 31
0.0
  0
LINE
  5
15B
330
1B
100
AcDbEntity
 67
     1
  8
ﾀｲﾄﾙ枠
100
AcDbLine
 10
172.6113849206529
 20
-131.4503523330553
 30
0.0
 11
174.6364991862886
 21
-132.58203383444
 31
0.0
  0
LINE
  5
15C
330
1B
100
AcDbEntity
 67
     1
  8
ﾀｲﾄﾙ枠
100
AcDbLine
 10
170.1964991862885
 20
-133.5953523330554
 30
0.0
 11
173.5964991862886
 21
-133.5953523330554
 31
0.0
  0
LINE
  5
15D
330
1B
100
AcDbEntity
 67
     1
  8
ﾀｲﾄﾙ枠
100
AcDbLine
 10
173.5964991862886
 20
-133.4853523330553
 30
0.0
 11
170.1964991862885
 21
-133.4853523330553
 31
0.0
  0
LINE
  5
15E
330
1B
100
AcDbEntity
 67
     1
  8
ﾀｲﾄﾙ枠
100
AcDbLine
 10
173.8031658529553
 20
-136.2703523330554
 30
0.0
 11
172.5061761860379
 21
-134.6320495958967
 31
0.0
  0
LINE
  5
15F
330
1B
100
AcDbEntity
 67
     1
  8
ﾀｲﾄﾙ枠
100
AcDbLine
 10
172.7230569391006
 20
-134.4603523330554
 30
0.0
 11
174.3618069391005
 21
-136.5303523330554
 31
0.0
  0
LINE
  5
160
330
1B
100
AcDbEntity
 67
     1
  8
ﾀｲﾄﾙ枠
100
AcDbLine
 10
172.0095247668095
 20
-134.4503523330553
 30
0.0
 11
173.6561914334766
 21
-136.5303523330554
 31
0.0
  0
LINE
  5
161
330
1B
100
AcDbEntity
 67
     1
  8
ﾀｲﾄﾙ枠
100
AcDbLine
 10
174.6364991862886
 20
-134.4503523330553
 30
0.0
 11
169.1564991862886
 21
-134.4503523330553
 31
0.0
  0
LINE
  5
162
330
1B
100
AcDbEntity
 67
     1
  8
ﾀｲﾄﾙ枠
100
AcDbLine
 10
174.3618069391005
 20
-136.5303523330554
 30
0.0
 11
169.4311914334762
 21
-136.5303523330554
 31
0.0
  0
LINE
  5
163
330
1B
100
AcDbEntity
 67
     1
  8
ﾀｲﾄﾙ枠
100
AcDbLine
 10
141.8864991862885
 20
-132.1003523330554
 30
0.0
 11
139.4164991862885
 21
-132.1003523330554
 31
0.0
  0
LINE
  5
164
330
1B
100
AcDbEntity
 67
     1
  8
ﾀｲﾄﾙ枠
100
AcDbLine
 10
140.6480467810309
 20
-133.2703523330554
 30
0.0
 11
139.4036873124786
 21
-133.2703523330554
 31
0.0
  0
LINE
  5
165
330
1B
100
AcDbEntity
 67
     1
  8
ﾀｲﾄﾙ枠
100
AcDbLine
 10
139.9580467810308
 20
-132.1203523330553
 30
0.0
 11
140.6480467810309
 21
-133.2703523330554
 31
0.0
  0
LINE
  5
166
330
1B
100
AcDbEntity
 67
     1
  8
ﾀｲﾄﾙ枠
100
AcDbLine
 10
139.9433820861016
 20
-133.2903523330554
 30
0.0
 11
144.8964991862886
 21
-133.2903523330554
 31
0.0
  0
LINE
  5
167
330
1B
100
AcDbEntity
 67
     1
  8
ﾀｲﾄﾙ枠
100
AcDbLine
 10
133.9314991862885
 20
-133.511910861768
 30
0.0
 11
131.6464991862886
 21
-135.6211416309987
 31
0.0
  0
LINE
  5
168
330
1B
100
AcDbEntity
 67
     1
  8
ﾀｲﾄﾙ枠
100
AcDbLine
 10
133.9314991862885
 20
-133.1444656599604
 30
0.0
 11
131.3964991862886
 21
-135.4844656599603
 31
0.0
  0
LINE
  5
169
330
1B
100
AcDbEntity
 67
     1
  8
ﾀｲﾄﾙ枠
100
AcDbLine
 10
131.3964991862886
 20
-132.6403523330554
 30
0.0
 11
133.9314991862885
 21
-132.6403523330554
 31
0.0
  0
LINE
  5
16A
330
1B
100
AcDbEntity
 67
     1
  8
ﾀｲﾄﾙ枠
100
AcDbLine
 10
133.9314991862885
 20
-132.4903523330553
 30
0.0
 11
131.3964991862886
 21
-132.4903523330553
 31
0.0
  0
LINE
  5
16B
330
1B
100
AcDbEntity
 67
     1
  8
ﾀｲﾄﾙ枠
100
AcDbLine
 10
131.3964991862886
 20
-136.2193560635753
 30
0.0
 11
133.9314991862885
 21
-133.8793560635754
 31
0.0
  0
LINE
  5
16C
330
1B
100
AcDbEntity
 67
     1
  8
ﾀｲﾄﾙ枠
100
AcDbLine
 10
129.3764991862886
 20
-133.5303523330554
 30
0.0
 11
129.3764991862886
 21
-133.6803523330553
 31
0.0
  0
LINE
  5
16D
330
1B
100
AcDbEntity
 67
     1
  8
ﾀｲﾄﾙ枠
100
AcDbLine
 10
131.3964991862886
 20
-132.4903523330553
 30
0.0
 11
131.3964991862886
 21
-132.6403523330554
 31
0.0
  0
LINE
  5
16E
330
1B
100
AcDbEntity
 67
     1
  8
ﾀｲﾄﾙ枠
100
AcDbLine
 10
129.8964991862886
 20
-132.3603523330553
 30
0.0
 11
129.8964991862886
 21
-132.5103523330554
 31
0.0
  0
LINE
  5
16F
330
1B
100
AcDbEntity
 67
     1
  8
ﾀｲﾄﾙ枠
100
AcDbLine
 10
131.3964991862886
 20
-135.4844656599603
 30
0.0
 11
131.3964991862886
 21
-136.2193560635753
 31
0.0
  0
LINE
  5
170
330
1B
100
AcDbEntity
 67
     1
  8
ﾀｲﾄﾙ枠
100
AcDbLine
 10
129.1114991862884
 20
-136.3903523330554
 30
0.0
 11
129.1114991862884
 21
-134.7203523330554
 31
0.0
  0
LINE
  5
171
330
1B
100
AcDbEntity
 67
     1
  8
ﾀｲﾄﾙ枠
100
AcDbLine
 10
129.3764991862886
 20
-134.5703523330553
 30
0.0
 11
129.3764991862886
 21
-136.5403523330554
 31
0.0
  0
LINE
  5
172
330
1B
100
AcDbEntity
 67
     1
  8
ﾀｲﾄﾙ枠
100
AcDbLine
 10
128.7114991862886
 20
-136.3903523330554
 30
0.0
 11
128.7114991862886
 21
-134.7203523330554
 31
0.0
  0
LINE
  5
173
330
1B
100
AcDbEntity
 67
     1
  8
ﾀｲﾄﾙ枠
100
AcDbLine
 10
128.4464991862885
 20
-136.3903523330554
 30
0.0
 11
128.4464991862885
 21
-134.7203523330554
 31
0.0
  0
LINE
  5
174
330
1B
100
AcDbEntity
 67
     1
  8
ﾀｲﾄﾙ枠
100
AcDbLine
 10
128.9114991862886
 20
-136.3903523330554
 30
0.0
 11
128.9114991862886
 21
-134.7203523330554
 31
0.0
  0
LINE
  5
175
330
1B
100
AcDbEntity
 67
     1
  8
ﾀｲﾄﾙ枠
100
AcDbLine
 10
126.6964991862885
 20
-133.4303523330553
 30
0.0
 11
126.6964991862885
 21
-131.7003523330553
 31
0.0
  0
LINE
  5
176
330
1B
100
AcDbEntity
 67
     1
  8
ﾀｲﾄﾙ枠
100
AcDbLine
 10
127.0964991862886
 20
-133.4303523330553
 30
0.0
 11
127.0964991862886
 21
-131.7003523330553
 31
0.0
  0
LINE
  5
177
330
1B
100
AcDbEntity
 67
     1
  8
ﾀｲﾄﾙ枠
100
AcDbLine
 10
126.8964991862886
 20
-133.4303523330553
 30
0.0
 11
126.8964991862886
 21
-131.7003523330553
 31
0.0
  0
LINE
  5
178
330
1B
100
AcDbEntity
 67
     1
  8
ﾀｲﾄﾙ枠
100
AcDbLine
 10
127.3614991862885
 20
-132.5103523330554
 30
0.0
 11
127.3614991862885
 21
-133.5303523330554
 31
0.0
  0
LINE
  5
179
330
1B
100
AcDbEntity
 67
     1
  8
ﾀｲﾄﾙ枠
100
AcDbLine
 10
127.3614991862885
 20
-131.4503523330553
 30
0.0
 11
127.3614991862885
 21
-132.3603523330553
 31
0.0
  0
LINE
  5
17A
330
1B
100
AcDbEntity
 67
     1
  8
ﾀｲﾄﾙ枠
100
AcDbLine
 10
124.4164991862885
 20
-133.6803523330553
 30
0.0
 11
124.4164991862885
 21
-133.5303523330554
 31
0.0
  0
LINE
  5
17B
330
1B
100
AcDbEntity
 67
     1
  8
ﾀｲﾄﾙ枠
100
AcDbLine
 10
123.8964991862886
 20
-132.3603523330553
 30
0.0
 11
126.4314991862885
 21
-132.3603523330553
 31
0.0
  0
LINE
  5
17C
330
1B
100
AcDbEntity
 67
     1
  8
ﾀｲﾄﾙ枠
100
AcDbLine
 10
126.4314991862885
 20
-132.5103523330554
 30
0.0
 11
123.8964991862886
 21
-132.5103523330554
 31
0.0
  0
LINE
  5
17D
330
1B
100
AcDbEntity
 67
     1
  8
ﾀｲﾄﾙ枠
100
AcDbLine
 10
124.4164991862885
 20
-133.5303523330554
 30
0.0
 11
126.4314991862885
 21
-133.5303523330554
 31
0.0
  0
LINE
  5
17E
330
1B
100
AcDbEntity
 67
     1
  8
ﾀｲﾄﾙ枠
100
AcDbLine
 10
123.8964991862886
 20
-132.5103523330554
 30
0.0
 11
123.8964991862886
 21
-132.3603523330553
 31
0.0
  0
LINE
  5
17F
330
1B
100
AcDbEntity
 67
     1
  8
ﾀｲﾄﾙ枠
100
AcDbLine
 10
126.4314991862885
 20
-132.3603523330553
 30
0.0
 11
126.4314991862885
 21
-131.4503523330553
 31
0.0
  0
LINE
  5
180
330
1B
100
AcDbEntity
 67
     1
  8
ﾀｲﾄﾙ枠
100
AcDbLine
 10
126.4314991862885
 20
-133.5303523330554
 30
0.0
 11
126.4314991862885
 21
-132.5103523330554
 31
0.0
  0
LINE
  5
181
330
1B
100
AcDbEntity
 67
     1
  8
ﾀｲﾄﾙ枠
100
AcDbLine
 10
126.4314991862885
 20
-131.4503523330553
 30
0.0
 11
127.3614991862885
 21
-131.4503523330553
 31
0.0
  0
LINE
  5
182
330
1B
100
AcDbEntity
 67
     1
  8
ﾀｲﾄﾙ枠
100
AcDbLine
 10
124.4164991862885
 20
-136.5403523330554
 30
0.0
 11
124.4164991862885
 21
-134.5703523330553
 31
0.0
  0
LINE
  5
183
330
1B
100
AcDbEntity
 67
     1
  8
ﾀｲﾄﾙ枠
100
AcDbLine
 10
124.6814991862885
 20
-134.7203523330554
 30
0.0
 11
124.6814991862885
 21
-136.3903523330554
 31
0.0
  0
LINE
  5
184
330
1B
100
AcDbEntity
 67
     1
  8
ﾀｲﾄﾙ枠
100
AcDbLine
 10
125.0814991862885
 20
-134.7203523330554
 30
0.0
 11
125.0814991862885
 21
-136.3903523330554
 31
0.0
  0
LINE
  5
185
330
1B
100
AcDbEntity
 67
     1
  8
ﾀｲﾄﾙ枠
100
AcDbLine
 10
124.8814991862886
 20
-134.7203523330554
 30
0.0
 11
124.8814991862886
 21
-136.3903523330554
 31
0.0
  0
LINE
  5
186
330
1B
100
AcDbEntity
 67
     1
  8
ﾀｲﾄﾙ枠
100
AcDbLine
 10
125.3464991862886
 20
-134.7203523330554
 30
0.0
 11
125.3464991862886
 21
-136.3903523330554
 31
0.0
  0
LINE
  5
187
330
1B
100
AcDbEntity
 67
     1
  8
ﾀｲﾄﾙ枠
100
AcDbLine
 10
128.4464991862885
 20
-134.7203523330554
 30
0.0
 11
125.3464991862886
 21
-134.7203523330554
 31
0.0
  0
LINE
  5
188
330
1B
100
AcDbEntity
 67
     1
  8
ﾀｲﾄﾙ枠
100
AcDbLine
 10
125.3464991862886
 20
-136.3903523330554
 30
0.0
 11
128.4464991862885
 21
-136.3903523330554
 31
0.0
  0
LINE
  5
189
330
1B
100
AcDbEntity
 67
     1
  8
ﾀｲﾄﾙ枠
100
AcDbLine
 10
129.8964991862886
 20
-132.5103523330554
 30
0.0
 11
127.3614991862885
 21
-132.5103523330554
 31
0.0
  0
LINE
  5
18A
330
1B
100
AcDbEntity
 67
     1
  8
ﾀｲﾄﾙ枠
100
AcDbLine
 10
127.3614991862885
 20
-132.3603523330553
 30
0.0
 11
129.8964991862886
 21
-132.3603523330553
 31
0.0
  0
LINE
  5
18B
330
1B
100
AcDbEntity
 67
     1
  8
ﾀｲﾄﾙ枠
100
AcDbLine
 10
127.3614991862885
 20
-133.5303523330554
 30
0.0
 11
129.3764991862886
 21
-133.5303523330554
 31
0.0
  0
LINE
  5
18C
330
1B
100
AcDbEntity
 67
     1
  8
ﾀｲﾄﾙ枠
100
AcDbLine
 10
129.3764991862886
 20
-133.6803523330553
 30
0.0
 11
124.4164991862885
 21
-133.6803523330553
 31
0.0
  0
LINE
  5
18D
330
1B
100
AcDbEntity
 67
     1
  8
ﾀｲﾄﾙ枠
100
AcDbLine
 10
124.4164991862885
 20
-134.5703523330553
 30
0.0
 11
129.3764991862886
 21
-134.5703523330553
 31
0.0
  0
LINE
  5
18E
330
1B
100
AcDbEntity
 67
     1
  8
ﾀｲﾄﾙ枠
100
AcDbLine
 10
129.3764991862886
 20
-136.5403523330554
 30
0.0
 11
124.4164991862885
 21
-136.5403523330554
 31
0.0
  0
LINE
  5
18F
330
1B
100
AcDbEntity
 67
     1
  8
ﾀｲﾄﾙ枠
100
AcDbLine
 10
139.9433820861016
 20
-133.2903523330554
 30
0.0
 11
139.8506551661069
 21
-135.0521638129513
 31
0.0
  0
LINE
  5
190
330
1B
100
AcDbEntity
 67
     1
  8
ﾀｲﾄﾙ枠
100
AcDbLine
 10
139.5810283521872
 20
-135.0379729280083
 30
0.0
 11
139.6609031203425
 21
-133.5203523330554
 31
0.0
  0
LINE
  5
191
330
1B
100
AcDbEntity
 67
     1
  8
ﾀｲﾄﾙ枠
100
AcDbLine
 10
139.4036873124786
 20
-133.2703523330554
 30
0.0
 11
139.3114015382675
 21
-135.023782043065
 31
0.0
  0
LINE
  5
192
330
1B
100
AcDbEntity
 67
     1
  8
ﾀｲﾄﾙ枠
100
AcDbLine
 10
139.4164991862885
 20
-132.1203523330553
 30
0.0
 11
139.9580467810308
 21
-132.1203523330553
 31
0.0
  0
LINE
  5
193
330
1B
100
AcDbEntity
 67
     1
  8
ﾀｲﾄﾙ枠
100
AcDbLine
 10
139.4164991862885
 20
-132.1003523330554
 30
0.0
 11
139.4164991862885
 21
-132.1203523330553
 31
0.0
  0
LINE
  5
194
330
1B
100
AcDbEntity
 67
     1
  8
ﾀｲﾄﾙ枠
100
AcDbLine
 10
137.3964991862886
 20
-132.6403523330554
 30
0.0
 11
137.3964991862886
 21
-132.4903523330553
 31
0.0
  0
LINE
  5
195
330
1B
100
AcDbEntity
 67
     1
  8
ﾀｲﾄﾙ枠
100
AcDbLine
 10
139.5811347810599
 20
-136.5403523330554
 30
0.0
 11
139.0120495289216
 21
-136.5403523330554
 31
0.0
  0
LINE
  5
196
330
1B
100
AcDbEntity
 67
     1
  8
ﾀｲﾄﾙ枠
100
AcDbLine
 10
137.3964991862886
 20
-136.2193560635753
 30
0.0
 11
137.3964991862886
 21
-135.4844656599603
 31
0.0
  0
ARC
  5
197
330
1B
100
AcDbEntity
 67
     1
  8
ﾀｲﾄﾙ枠
100
AcDbCircle
 10
133.8689343684052
 20
-134.737336402546
 30
0.0
 40
5.450000000000021
100
AcDbArc
 50
340.6809234802237
 51
356.9872124958168
  0
ARC
  5
198
330
1B
100
AcDbEntity
 67
     1
  8
ﾀｲﾄﾙ枠
100
AcDbCircle
 10
133.8689343684052
 20
-134.737336402546
 30
0.0
 40
5.990000000000015
100
AcDbArc
 50
342.482064570996
 51
356.9872124958168
  0
ARC
  5
199
330
1B
100
AcDbEntity
 67
     1
  8
ﾀｲﾄﾙ枠
100
AcDbCircle
 10
133.8689343684052
 20
-134.737336402546
 30
0.0
 40
5.720000000000014
100
AcDbArc
 50
344.2460809455041
 51
356.987212495817
  0
LINE
  5
19A
330
1B
100
AcDbEntity
 67
     1
  8
ﾀｲﾄﾙ枠
100
AcDbLine
 10
134.8614991862884
 20
-132.4903523330553
 30
0.0
 11
134.8614991862884
 21
-131.4503523330553
 31
0.0
  0
LINE
  5
19B
330
1B
100
AcDbEntity
 67
     1
  8
ﾀｲﾄﾙ枠
100
AcDbLine
 10
134.8614991862884
 20
-133.1444656599604
 30
0.0
 11
134.8614991862884
 21
-132.6403523330554
 31
0.0
  0
LINE
  5
19C
330
1B
100
AcDbEntity
 67
     1
  8
ﾀｲﾄﾙ枠
100
AcDbLine
 10
133.9314991862885
 20
-132.6403523330554
 30
0.0
 11
133.9314991862885
 21
-133.1444656599604
 31
0.0
  0
LINE
  5
19D
330
1B
100
AcDbEntity
 67
     1
  8
ﾀｲﾄﾙ枠
100
AcDbLine
 10
133.9314991862885
 20
-131.4503523330553
 30
0.0
 11
133.9314991862885
 21
-132.4903523330553
 31
0.0
  0
LINE
  5
19E
330
1B
100
AcDbEntity
 67
     1
  8
ﾀｲﾄﾙ枠
100
AcDbLine
 10
134.8614991862884
 20
-131.4503523330553
 30
0.0
 11
133.9314991862885
 21
-131.4503523330553
 31
0.0
  0
LINE
  5
19F
330
1B
100
AcDbEntity
 67
     1
  8
ﾀｲﾄﾙ枠
100
AcDbLine
 10
135.8364991862886
 20
-135.7403523330553
 30
0.0
 11
134.8614991862884
 21
-135.7403523330553
 31
0.0
  0
LINE
  5
1A0
330
1B
100
AcDbEntity
 67
     1
  8
ﾀｲﾄﾙ枠
100
AcDbLine
 10
135.8364991862886
 20
-135.8903523330554
 30
0.0
 11
135.8364991862886
 21
-135.7403523330553
 31
0.0
  0
LINE
  5
1A1
330
1B
100
AcDbEntity
 67
     1
  8
ﾀｲﾄﾙ枠
100
AcDbLine
 10
134.8614991862884
 20
-135.8903523330554
 30
0.0
 11
135.8364991862886
 21
-135.8903523330554
 31
0.0
  0
LINE
  5
1A2
330
1B
100
AcDbEntity
 67
     1
  8
ﾀｲﾄﾙ枠
100
AcDbLine
 10
134.8614991862884
 20
-136.5403523330554
 30
0.0
 11
134.8614991862884
 21
-135.8903523330554
 31
0.0
  0
LINE
  5
1A3
330
1B
100
AcDbEntity
 67
     1
  8
ﾀｲﾄﾙ枠
100
AcDbLine
 10
133.9314991862885
 20
-135.8903523330554
 30
0.0
 11
133.9314991862885
 21
-136.5403523330554
 31
0.0
  0
LINE
  5
1A4
330
1B
100
AcDbEntity
 67
     1
  8
ﾀｲﾄﾙ枠
100
AcDbLine
 10
132.9564991862885
 20
-135.8903523330554
 30
0.0
 11
133.9314991862885
 21
-135.8903523330554
 31
0.0
  0
LINE
  5
1A5
330
1B
100
AcDbEntity
 67
     1
  8
ﾀｲﾄﾙ枠
100
AcDbLine
 10
132.9564991862885
 20
-135.7403523330553
 30
0.0
 11
132.9564991862885
 21
-135.8903523330554
 31
0.0
  0
LINE
  5
1A6
330
1B
100
AcDbEntity
 67
     1
  8
ﾀｲﾄﾙ枠
100
AcDbLine
 10
133.9314991862885
 20
-135.7403523330553
 30
0.0
 11
132.9564991862885
 21
-135.7403523330553
 31
0.0
  0
LINE
  5
1A7
330
1B
100
AcDbEntity
 67
     1
  8
ﾀｲﾄﾙ枠
100
AcDbLine
 10
133.9314991862885
 20
-136.5403523330554
 30
0.0
 11
134.8614991862884
 21
-136.5403523330554
 31
0.0
  0
LINE
  5
1A8
330
1B
100
AcDbEntity
 67
     1
  8
ﾀｲﾄﾙ枠
100
AcDbLine
 10
134.1964991862885
 20
-136.2903523330554
 30
0.0
 11
134.1964991862885
 21
-131.7003523330553
 31
0.0
  0
LINE
  5
1A9
330
1B
100
AcDbEntity
 67
     1
  8
ﾀｲﾄﾙ枠
100
AcDbLine
 10
134.5964991862886
 20
-136.2903523330554
 30
0.0
 11
134.5964991862886
 21
-131.7003523330553
 31
0.0
  0
LINE
  5
1AA
330
1B
100
AcDbEntity
 67
     1
  8
ﾀｲﾄﾙ枠
100
AcDbLine
 10
134.3964991862886
 20
-136.2903523330554
 30
0.0
 11
134.3964991862886
 21
-131.7003523330553
 31
0.0
  0
LINE
  5
1AB
330
1B
100
AcDbEntity
 67
     1
  8
ﾀｲﾄﾙ枠
100
AcDbLine
 10
133.9314991862885
 20
-133.8793560635754
 30
0.0
 11
133.9314991862885
 21
-135.7403523330553
 31
0.0
  0
LINE
  5
1AC
330
1B
100
AcDbEntity
 67
     1
  8
ﾀｲﾄﾙ枠
100
AcDbLine
 10
134.8614991862884
 20
-135.7403523330553
 30
0.0
 11
134.8614991862884
 21
-133.8793560635754
 31
0.0
  0
LINE
  5
1AD
330
1B
100
AcDbEntity
 67
     1
  8
ﾀｲﾄﾙ枠
100
AcDbLine
 10
137.1464991862886
 20
-135.6211416309987
 30
0.0
 11
134.8614991862884
 21
-133.511910861768
 31
0.0
  0
LINE
  5
1AE
330
1B
100
AcDbEntity
 67
     1
  8
ﾀｲﾄﾙ枠
100
AcDbLine
 10
137.3964991862886
 20
-135.4844656599603
 30
0.0
 11
134.8614991862884
 21
-133.1444656599604
 31
0.0
  0
LINE
  5
1AF
330
1B
100
AcDbEntity
 67
     1
  8
ﾀｲﾄﾙ枠
100
AcDbLine
 10
137.3964991862886
 20
-132.4903523330553
 30
0.0
 11
134.8614991862884
 21
-132.4903523330553
 31
0.0
  0
LINE
  5
1B0
330
1B
100
AcDbEntity
 67
     1
  8
ﾀｲﾄﾙ枠
100
AcDbLine
 10
134.8614991862884
 20
-132.6403523330554
 30
0.0
 11
137.3964991862886
 21
-132.6403523330554
 31
0.0
  0
LINE
  5
1B1
330
1B
100
AcDbEntity
 67
     1
  8
ﾀｲﾄﾙ枠
100
AcDbLine
 10
134.8614991862884
 20
-133.8793560635754
 30
0.0
 11
137.3964991862886
 21
-136.2193560635753
 31
0.0
  0
LINE
  5
1B2
330
1B
100
AcDbEntity
 67
     1
  8
ﾀｲﾄﾙ枠
100
AcDbLine
 10
156.2364991862885
 20
-131.4503523330553
 30
0.0
 11
156.6464991862886
 21
-131.4503523330553
 31
0.0
  0
LINE
  5
1B3
330
1B
100
AcDbEntity
 67
     1
  8
ﾀｲﾄﾙ枠
100
AcDbLine
 10
159.5064991862886
 20
-132.6303523330554
 30
0.0
 11
156.2364991862885
 21
-132.6303523330554
 31
0.0
  0
LINE
  5
1B4
330
1B
100
AcDbEntity
 67
     1
  8
ﾀｲﾄﾙ枠
100
AcDbLine
 10
156.2364991862885
 20
-133.8003523330553
 30
0.0
 11
159.3764991862886
 21
-133.8003523330553
 31
0.0
  0
LINE
  5
1B5
330
1B
100
AcDbEntity
 67
     1
  8
ﾀｲﾄﾙ枠
100
AcDbLine
 10
156.4594016188636
 20
-136.5403523330554
 30
0.0
 11
157.2494016188635
 21
-134.9603523330554
 31
0.0
  0
LINE
  5
1B6
330
1B
100
AcDbEntity
 67
     1
  8
ﾀｲﾄﾙ枠
100
AcDbLine
 10
156.7910076834763
 20
-134.9603523330554
 30
0.0
 11
156.001007683476
 21
-136.5403523330554
 31
0.0
  0
LINE
  5
1B7
330
1B
100
AcDbEntity
 67
     1
  8
ﾀｲﾄﾙ枠
100
AcDbLine
 10
147.3064991862885
 20
-134.2553523330554
 30
0.0
 11
148.9314991862885
 21
-134.2553523330554
 31
0.0
  0
LINE
  5
1B8
330
1B
100
AcDbEntity
 67
     1
  8
ﾀｲﾄﾙ枠
100
AcDbLine
 10
148.9314991862885
 20
-135.0353523330554
 30
0.0
 11
146.6564991862886
 21
-135.0353523330554
 31
0.0
  0
LINE
  5
1B9
330
1B
100
AcDbEntity
 67
     1
  8
ﾀｲﾄﾙ枠
100
AcDbLine
 10
147.3115357611479
 20
-131.4503523330553
 30
0.0
 11
148.6404420111479
 21
-133.4753523330554
 31
0.0
  0
LINE
  5
1BA
330
1B
100
AcDbEntity
 67
     1
  8
ﾀｲﾄﾙ枠
100
AcDbLine
 10
148.4764991862885
 20
-132.4353523330553
 30
0.0
 11
147.957942011148
 21
-132.4353523330553
 31
0.0
  0
LINE
  5
1BB
330
1B
100
AcDbEntity
 67
     1
  8
ﾀｲﾄﾙ枠
100
AcDbLine
 10
151.8764991862886
 20
-133.4753523330554
 30
0.0
 11
146.9164991862885
 21
-133.4753523330554
 31
0.0
  0
LINE
  5
1BC
330
1B
100
AcDbEntity
 67
     1
  8
ﾀｲﾄﾙ枠
100
AcDbLine
 10
148.9314991862885
 20
-135.0595574134734
 30
0.0
 11
146.6564991862886
 21
-136.3595574134733
 31
0.0
  0
LINE
  5
1BD
330
1B
100
AcDbEntity
 67
     1
  8
ﾀｲﾄﾙ枠
100
AcDbLine
 10
147.1346150349602
 20
-131.7003523330553
 30
0.0
 11
148.1592244099598
 21
-133.2253523330554
 31
0.0
  0
LINE
  5
1BE
330
1B
100
AcDbEntity
 67
     1
  8
ﾀｲﾄﾙ枠
100
AcDbLine
 10
147.2989443087723
 20
-132.4353523330553
 30
0.0
 11
146.3964991862886
 21
-132.4353523330553
 31
0.0
  0
LINE
  5
1BF
330
1B
100
AcDbEntity
 67
     1
  8
ﾀｲﾄﾙ枠
100
AcDbLine
 10
148.0139443087722
 20
-133.4753523330554
 30
0.0
 11
146.6217568087723
 21
-131.4503523330553
 31
0.0
  0
LINE
  5
1C0
330
1B
100
AcDbEntity
 67
     1
  8
ﾀｲﾄﾙ枠
100
AcDbLine
 10
146.6217568087723
 20
-131.4503523330553
 30
0.0
 11
147.3115357611479
 21
-131.4503523330553
 31
0.0
  0
LINE
  5
1C1
330
1B
100
AcDbEntity
 67
     1
  8
ﾀｲﾄﾙ枠
100
AcDbLine
 10
146.6564991862886
 20
-136.3595574134733
 30
0.0
 11
146.6564991862886
 21
-135.895432966923
 31
0.0
  0
LINE
  5
1C2
330
1B
100
AcDbEntity
 67
     1
  8
ﾀｲﾄﾙ枠
100
AcDbLine
 10
146.6564991862886
 20
-135.895432966923
 30
0.0
 11
148.1616402955572
 21
-135.0353523330554
 31
0.0
  0
LINE
  5
1C3
330
1B
100
AcDbEntity
 67
     1
  8
ﾀｲﾄﾙ枠
100
AcDbLine
 10
144.6364991862885
 20
-135.5003523330554
 30
0.0
 11
144.6364991862885
 21
-135.4803523330554
 31
0.0
  0
LINE
  5
1C4
330
1B
100
AcDbEntity
 67
     1
  8
ﾀｲﾄﾙ枠
100
AcDbLine
 10
144.8964991862886
 20
-134.4603523330554
 30
0.0
 11
144.8964991862886
 21
-134.4403523330553
 31
0.0
  0
LINE
  5
1C5
330
1B
100
AcDbEntity
 67
     1
  8
ﾀｲﾄﾙ枠
100
AcDbLine
 10
144.8964991862886
 20
-132.1203523330553
 30
0.0
 11
144.8964991862886
 21
-132.1003523330554
 31
0.0
  0
LINE
  5
1C6
330
1B
100
AcDbEntity
 67
     1
  8
ﾀｲﾄﾙ枠
100
AcDbLine
 10
144.6149515915463
 20
-132.1203523330553
 30
0.0
 11
144.8964991862886
 21
-132.1203523330553
 31
0.0
  0
LINE
  5
1C7
330
1B
100
AcDbEntity
 67
     1
  8
ﾀｲﾄﾙ枠
100
AcDbLine
 10
144.8964991862886
 20
-133.2903523330554
 30
0.0
 11
144.8964991862886
 21
-133.2703523330554
 31
0.0
  0
LINE
  5
1C8
330
1B
100
AcDbEntity
 67
     1
  8
ﾀｲﾄﾙ枠
100
AcDbLine
 10
144.8964991862886
 20
-136.5403523330554
 30
0.0
 11
144.8964991862886
 21
-136.5203523330554
 31
0.0
  0
LINE
  5
1C9
330
1B
100
AcDbEntity
 67
     1
  8
ﾀｲﾄﾙ枠
100
AcDbLine
 10
143.0764991862885
 20
-135.4803523330554
 30
0.0
 11
143.0764991862885
 21
-134.4603523330554
 31
0.0
  0
LINE
  5
1CA
330
1B
100
AcDbEntity
 67
     1
  8
ﾀｲﾄﾙ枠
100
AcDbLine
 10
143.0764991862885
 20
-134.4403523330553
 30
0.0
 11
143.0764991862885
 21
-134.0503523330553
 31
0.0
  0
LINE
  5
1CB
330
1B
100
AcDbEntity
 67
     1
  8
ﾀｲﾄﾙ枠
100
AcDbLine
 10
143.2860076834759
 20
-133.2703523330554
 30
0.0
 11
143.8610076834759
 21
-132.1203523330553
 31
0.0
  0
LINE
  5
1CC
330
1B
100
AcDbEntity
 67
     1
  8
ﾀｲﾄﾙ枠
100
AcDbLine
 10
140.8464991862886
 20
-135.5003523330554
 30
0.0
 11
142.2764991862886
 21
-135.5003523330554
 31
0.0
  0
LINE
  5
1CD
330
1B
100
AcDbEntity
 67
     1
  8
ﾀｲﾄﾙ枠
100
AcDbLine
 10
142.2764991862886
 20
-135.4803523330554
 30
0.0
 11
140.8464991862886
 21
-135.4803523330554
 31
0.0
  0
LINE
  5
1CE
330
1B
100
AcDbEntity
 67
     1
  8
ﾀｲﾄﾙ枠
100
AcDbLine
 10
140.8464991862886
 20
-134.4603523330554
 30
0.0
 11
142.2764991862886
 21
-134.4603523330554
 31
0.0
  0
LINE
  5
1CF
330
1B
100
AcDbEntity
 67
     1
  8
ﾀｲﾄﾙ枠
100
AcDbLine
 10
141.1264991862885
 20
-134.0503523330553
 30
0.0
 11
140.8464991862886
 21
-134.0503523330553
 31
0.0
  0
LINE
  5
1D0
330
1B
100
AcDbEntity
 67
     1
  8
ﾀｲﾄﾙ枠
100
AcDbLine
 10
140.8464991862886
 20
-135.4803523330554
 30
0.0
 11
140.8464991862886
 21
-135.5003523330554
 31
0.0
  0
LINE
  5
1D1
330
1B
100
AcDbEntity
 67
     1
  8
ﾀｲﾄﾙ枠
100
AcDbLine
 10
140.8464991862886
 20
-134.0503523330553
 30
0.0
 11
140.8464991862886
 21
-134.4603523330554
 31
0.0
  0
LINE
  5
1D2
330
1B
100
AcDbEntity
 67
     1
  8
ﾀｲﾄﾙ枠
100
AcDbLine
 10
142.2764991862886
 20
-134.4603523330554
 30
0.0
 11
142.2764991862886
 21
-135.4803523330554
 31
0.0
  0
LINE
  5
1D3
330
1B
100
AcDbEntity
 67
     1
  8
ﾀｲﾄﾙ枠
100
AcDbLine
 10
141.1264991862885
 20
-134.4403523330553
 30
0.0
 11
141.1264991862885
 21
-134.0503523330553
 31
0.0
  0
LINE
  5
1D4
330
1B
100
AcDbEntity
 67
     1
  8
ﾀｲﾄﾙ枠
100
AcDbLine
 10
142.2764991862886
 20
-134.4403523330553
 30
0.0
 11
141.1264991862885
 21
-134.4403523330553
 31
0.0
  0
LINE
  5
1D5
330
1B
100
AcDbEntity
 67
     1
  8
ﾀｲﾄﾙ枠
100
AcDbLine
 10
142.2764991862886
 20
-134.0503523330553
 30
0.0
 11
142.2764991862886
 21
-134.4403523330553
 31
0.0
  0
LINE
  5
1D6
330
1B
100
AcDbEntity
 67
     1
  8
ﾀｲﾄﾙ枠
100
AcDbLine
 10
140.7119906891012
 20
-132.1203523330553
 30
0.0
 11
141.2869906891012
 21
-133.2703523330554
 31
0.0
  0
LINE
  5
1D7
330
1B
100
AcDbEntity
 67
     1
  8
ﾀｲﾄﾙ枠
100
AcDbLine
 10
140.4615187350659
 20
-132.3503523330554
 30
0.0
 11
140.8410187350659
 21
-133.0403523330554
 31
0.0
  0
LINE
  5
1D8
330
1B
100
AcDbEntity
 67
     1
  8
ﾀｲﾄﾙ枠
100
AcDbLine
 10
142.6864991862885
 20
-131.4503523330553
 30
0.0
 11
141.8864991862885
 21
-131.4503523330553
 31
0.0
  0
LINE
  5
1D9
330
1B
100
AcDbEntity
 67
     1
  8
ﾀｲﾄﾙ枠
100
AcDbLine
 10
142.0864991862886
 20
-131.8703523330553
 30
0.0
 11
142.0864991862886
 21
-131.7003523330553
 31
0.0
  0
LINE
  5
1DA
330
1B
100
AcDbEntity
 67
     1
  8
ﾀｲﾄﾙ枠
100
AcDbLine
 10
142.2864991862886
 20
-131.8703523330553
 30
0.0
 11
142.2864991862886
 21
-131.7003523330553
 31
0.0
  0
LINE
  5
1DB
330
1B
100
AcDbEntity
 67
     1
  8
ﾀｲﾄﾙ枠
100
AcDbLine
 10
141.8864991862885
 20
-131.4503523330553
 30
0.0
 11
141.8864991862885
 21
-132.1003523330554
 31
0.0
  0
LINE
  5
1DC
330
1B
100
AcDbEntity
 67
     1
  8
ﾀｲﾄﾙ枠
100
AcDbLine
 10
142.6864991862885
 20
-132.1003523330554
 30
0.0
 11
142.6864991862885
 21
-131.4503523330553
 31
0.0
  0
LINE
  5
1DD
330
1B
100
AcDbEntity
 67
     1
  8
ﾀｲﾄﾙ枠
100
AcDbLine
 10
142.4864991862884
 20
-131.8703523330553
 30
0.0
 11
142.4864991862884
 21
-131.7003523330553
 31
0.0
  0
LINE
  5
1DE
330
1B
100
AcDbEntity
 67
     1
  8
ﾀｲﾄﾙ枠
100
AcDbLine
 10
143.8610076834759
 20
-132.1203523330553
 30
0.0
 11
140.7119906891012
 21
-132.1203523330553
 31
0.0
  0
LINE
  5
1DF
330
1B
100
AcDbEntity
 67
     1
  8
ﾀｲﾄﾙ枠
100
AcDbLine
 10
141.2869906891012
 20
-133.2703523330554
 30
0.0
 11
143.2860076834759
 21
-133.2703523330554
 31
0.0
  0
LINE
  5
1E0
330
1B
100
AcDbEntity
 67
     1
  8
ﾀｲﾄﾙ枠
100
AcDbLine
 10
143.0764991862885
 20
-134.0503523330553
 30
0.0
 11
142.2764991862886
 21
-134.0503523330553
 31
0.0
  0
LINE
  5
1E1
330
1B
100
AcDbEntity
 67
     1
  8
ﾀｲﾄﾙ枠
100
AcDbLine
 10
142.2764991862886
 20
-136.5203523330554
 30
0.0
 11
140.4564991862885
 21
-136.5203523330554
 31
0.0
  0
LINE
  5
1E2
330
1B
100
AcDbEntity
 67
     1
  8
ﾀｲﾄﾙ枠
100
AcDbLine
 10
140.4564991862885
 20
-136.5203523330554
 30
0.0
 11
140.4564991862885
 21
-136.5403523330554
 31
0.0
  0
LINE
  5
1E3
330
1B
100
AcDbEntity
 67
     1
  8
ﾀｲﾄﾙ枠
100
AcDbLine
 10
142.2764991862886
 20
-135.5003523330554
 30
0.0
 11
142.2764991862886
 21
-136.5203523330554
 31
0.0
  0
LINE
  5
1E4
330
1B
100
AcDbEntity
 67
     1
  8
ﾀｲﾄﾙ枠
100
AcDbLine
 10
142.4764991862885
 20
-134.3003523330553
 30
0.0
 11
142.4764991862885
 21
-136.2903523330554
 31
0.0
  0
LINE
  5
1E5
330
1B
100
AcDbEntity
 67
     1
  8
ﾀｲﾄﾙ枠
100
AcDbLine
 10
142.8764991862885
 20
-134.3003523330553
 30
0.0
 11
142.8764991862885
 21
-136.2903523330554
 31
0.0
  0
LINE
  5
1E6
330
1B
100
AcDbEntity
 67
     1
  8
ﾀｲﾄﾙ枠
100
AcDbLine
 10
142.6764991862885
 20
-134.3003523330553
 30
0.0
 11
142.6764991862885
 21
-136.2903523330554
 31
0.0
  0
LINE
  5
1E7
330
1B
100
AcDbEntity
 67
     1
  8
ﾀｲﾄﾙ枠
100
AcDbLine
 10
143.0764991862885
 20
-136.5203523330554
 30
0.0
 11
143.0764991862885
 21
-135.5003523330554
 31
0.0
  0
LINE
  5
1E8
330
1B
100
AcDbEntity
 67
     1
  8
ﾀｲﾄﾙ枠
100
AcDbLine
 10
144.6364991862885
 20
-135.4803523330554
 30
0.0
 11
143.0764991862885
 21
-135.4803523330554
 31
0.0
  0
LINE
  5
1E9
330
1B
100
AcDbEntity
 67
     1
  8
ﾀｲﾄﾙ枠
100
AcDbLine
 10
143.0764991862885
 20
-135.5003523330554
 30
0.0
 11
144.6364991862885
 21
-135.5003523330554
 31
0.0
  0
LINE
  5
1EA
330
1B
100
AcDbEntity
 67
     1
  8
ﾀｲﾄﾙ枠
100
AcDbLine
 10
143.0764991862885
 20
-134.4603523330554
 30
0.0
 11
144.8964991862886
 21
-134.4603523330554
 31
0.0
  0
LINE
  5
1EB
330
1B
100
AcDbEntity
 67
     1
  8
ﾀｲﾄﾙ枠
100
AcDbLine
 10
144.8964991862886
 20
-134.4403523330553
 30
0.0
 11
143.0764991862885
 21
-134.4403523330553
 31
0.0
  0
LINE
  5
1EC
330
1B
100
AcDbEntity
 67
     1
  8
ﾀｲﾄﾙ枠
100
AcDbLine
 10
143.7319796375112
 20
-133.0403523330554
 30
0.0
 11
144.1114796375113
 21
-132.3503523330554
 31
0.0
  0
LINE
  5
1ED
330
1B
100
AcDbEntity
 67
     1
  8
ﾀｲﾄﾙ枠
100
AcDbLine
 10
143.9249515915462
 20
-133.2703523330554
 30
0.0
 11
144.6149515915463
 21
-132.1203523330553
 31
0.0
  0
LINE
  5
1EE
330
1B
100
AcDbEntity
 67
     1
  8
ﾀｲﾄﾙ枠
100
AcDbLine
 10
144.8964991862886
 20
-133.2703523330554
 30
0.0
 11
143.9249515915462
 21
-133.2703523330554
 31
0.0
  0
LINE
  5
1EF
330
1B
100
AcDbEntity
 67
     1
  8
ﾀｲﾄﾙ枠
100
AcDbLine
 10
144.8964991862886
 20
-132.1003523330554
 30
0.0
 11
142.6864991862885
 21
-132.1003523330554
 31
0.0
  0
LINE
  5
1F0
330
1B
100
AcDbEntity
 67
     1
  8
ﾀｲﾄﾙ枠
100
AcDbLine
 10
144.8964991862886
 20
-136.5203523330554
 30
0.0
 11
143.0764991862885
 21
-136.5203523330554
 31
0.0
  0
LINE
  5
1F1
330
1B
100
AcDbEntity
 67
     1
  8
ﾀｲﾄﾙ枠
100
AcDbLine
 10
140.4564991862885
 20
-136.5403523330554
 30
0.0
 11
144.8964991862886
 21
-136.5403523330554
 31
0.0
  0
LINE
  5
1F2
330
1B
100
AcDbEntity
 67
     1
  8
ﾀｲﾄﾙ枠
100
AcDbLine
 10
155.3464991862886
 20
-133.4936856663887
 30
0.0
 11
155.3464991862886
 21
-133.9603523330554
 31
0.0
  0
LINE
  5
1F3
330
1B
100
AcDbEntity
 67
     1
  8
ﾀｲﾄﾙ枠
100
AcDbLine
 10
153.8964991862886
 20
-134.238497933947
 30
0.0
 11
154.5397574266452
 21
-132.6303523330554
 31
0.0
  0
LINE
  5
1F4
330
1B
100
AcDbEntity
 67
     1
  8
ﾀｲﾄﾙ枠
100
AcDbLine
 10
155.3464991862886
 20
-133.9603523330554
 30
0.0
 11
154.9564991862885
 21
-133.4403523330553
 31
0.0
  0
LINE
  5
1F5
330
1B
100
AcDbEntity
 67
     1
  8
ﾀｲﾄﾙ枠
100
AcDbLine
 10
154.4164991862885
 20
-134.548961223787
 30
0.0
 11
153.8964991862886
 21
-135.4589612237867
 31
0.0
  0
LINE
  5
1F6
330
1B
100
AcDbEntity
 67
     1
  8
ﾀｲﾄﾙ枠
100
AcDbLine
 10
154.1464991862886
 20
-134.5075458774473
 30
0.0
 11
154.4781283064669
 21
-133.789656778421
 31
0.0
  0
LINE
  5
1F7
330
1B
100
AcDbEntity
 67
     1
  8
ﾀｲﾄﾙ枠
100
AcDbLine
 10
153.8964991862886
 20
-135.4589612237867
 30
0.0
 11
153.8964991862886
 21
-134.238497933947
 31
0.0
  0
LINE
  5
1F8
330
1B
100
AcDbEntity
 67
     1
  8
ﾀｲﾄﾙ枠
100
AcDbLine
 10
156.2364991862885
 20
-132.6303523330554
 30
0.0
 11
156.2364991862885
 21
-131.4503523330553
 31
0.0
  0
LINE
  5
1F9
330
1B
100
AcDbEntity
 67
     1
  8
ﾀｲﾄﾙ枠
100
AcDbLine
 10
154.9564991862885
 20
-131.4503523330553
 30
0.0
 11
154.9564991862885
 21
-132.6303523330554
 31
0.0
  0
LINE
  5
1FA
330
1B
100
AcDbEntity
 67
     1
  8
ﾀｲﾄﾙ枠
100
AcDbLine
 10
154.4164991862885
 20
-132.6303523330554
 30
0.0
 11
154.4164991862885
 21
-131.4503523330553
 31
0.0
  0
LINE
  5
1FB
330
1B
100
AcDbEntity
 67
     1
  8
ﾀｲﾄﾙ枠
100
AcDbLine
 10
154.4164991862885
 20
-131.4503523330553
 30
0.0
 11
154.9564991862885
 21
-131.4503523330553
 31
0.0
  0
LINE
  5
1FC
330
1B
100
AcDbEntity
 67
     1
  8
ﾀｲﾄﾙ枠
100
AcDbLine
 10
155.3464991862886
 20
-132.6303523330554
 30
0.0
 11
153.8964991862886
 21
-132.6303523330554
 31
0.0
  0
LINE
  5
1FD
330
1B
100
AcDbEntity
 67
     1
  8
ﾀｲﾄﾙ枠
100
AcDbLine
 10
154.6989991862886
 20
-132.6303523330554
 30
0.0
 11
155.3464991862886
 21
-133.4936856663887
 31
0.0
  0
LINE
  5
1FE
330
1B
100
AcDbEntity
 67
     1
  8
ﾀｲﾄﾙ枠
100
AcDbLine
 10
156.001007683476
 20
-136.5403523330554
 30
0.0
 11
156.4594016188636
 21
-136.5403523330554
 31
0.0
  0
LINE
  5
1FF
330
1B
100
AcDbEntity
 67
     1
  8
ﾀｲﾄﾙ枠
100
AcDbLine
 10
154.9564991862885
 20
-136.5403523330554
 30
0.0
 11
154.4164991862885
 21
-136.5403523330554
 31
0.0
  0
LINE
  5
200
330
1B
100
AcDbEntity
 67
     1
  8
ﾀｲﾄﾙ枠
100
AcDbLine
 10
154.9564991862885
 20
-133.4403523330553
 30
0.0
 11
154.9564991862885
 21
-136.5403523330554
 31
0.0
  0
LINE
  5
201
330
1B
100
AcDbEntity
 67
     1
  8
ﾀｲﾄﾙ枠
100
AcDbLine
 10
154.6864991862885
 20
-131.7003523330553
 30
0.0
 11
154.6864991862885
 21
-136.2903523330554
 31
0.0
  0
LINE
  5
202
330
1B
100
AcDbEntity
 67
     1
  8
ﾀｲﾄﾙ枠
100
AcDbLine
 10
154.4164991862885
 20
-136.5403523330554
 30
0.0
 11
154.4164991862885
 21
-134.548961223787
 31
0.0
  0
LINE
  5
203
330
1B
100
AcDbEntity
 67
     1
  8
ﾀｲﾄﾙ枠
100
AcDbLine
 10
151.4814626114293
 20
-131.4503523330553
 30
0.0
 11
152.1712415638048
 21
-131.4503523330553
 31
0.0
  0
LINE
  5
204
330
1B
100
AcDbEntity
 67
     1
  8
ﾀｲﾄﾙ枠
100
AcDbLine
 10
149.8414991862884
 20
-132.4353523330553
 30
0.0
 11
148.9514991862885
 21
-132.4353523330553
 31
0.0
  0
LINE
  5
205
330
1B
100
AcDbEntity
 67
     1
  8
ﾀｲﾄﾙ枠
100
AcDbLine
 10
148.4764991862885
 20
-131.4503523330553
 30
0.0
 11
148.4764991862885
 21
-132.4353523330553
 31
0.0
  0
LINE
  5
206
330
1B
100
AcDbEntity
 67
     1
  8
ﾀｲﾄﾙ枠
100
AcDbLine
 10
148.9514991862885
 20
-131.4503523330553
 30
0.0
 11
148.4764991862885
 21
-131.4503523330553
 31
0.0
  0
LINE
  5
207
330
1B
100
AcDbEntity
 67
     1
  8
ﾀｲﾄﾙ枠
100
AcDbLine
 10
148.9514991862885
 20
-132.4353523330553
 30
0.0
 11
148.9514991862885
 21
-131.4503523330553
 31
0.0
  0
LINE
  5
208
330
1B
100
AcDbEntity
 67
     1
  8
ﾀｲﾄﾙ枠
100
AcDbLine
 10
150.8350563614292
 20
-132.4353523330553
 30
0.0
 11
150.3164991862885
 21
-132.4353523330553
 31
0.0
  0
LINE
  5
209
330
1B
100
AcDbEntity
 67
     1
  8
ﾀｲﾄﾙ枠
100
AcDbLine
 10
149.8414991862884
 20
-131.4503523330553
 30
0.0
 11
149.8414991862884
 21
-132.4353523330553
 31
0.0
  0
LINE
  5
20A
330
1B
100
AcDbEntity
 67
     1
  8
ﾀｲﾄﾙ枠
100
AcDbLine
 10
150.3164991862885
 20
-131.4503523330553
 30
0.0
 11
149.8414991862884
 21
-131.4503523330553
 31
0.0
  0
LINE
  5
20B
330
1B
100
AcDbEntity
 67
     1
  8
ﾀｲﾄﾙ枠
100
AcDbLine
 10
150.3164991862885
 20
-132.4353523330553
 30
0.0
 11
150.3164991862885
 21
-131.4503523330553
 31
0.0
  0
LINE
  5
20C
330
1B
100
AcDbEntity
 67
     1
  8
ﾀｲﾄﾙ枠
100
AcDbLine
 10
152.1364991862885
 20
-135.0353523330554
 30
0.0
 11
149.8614991862885
 21
-135.0353523330554
 31
0.0
  0
LINE
  5
20D
330
1B
100
AcDbEntity
 67
     1
  8
ﾀｲﾄﾙ枠
100
AcDbLine
 10
149.8614991862885
 20
-134.2553523330554
 30
0.0
 11
151.4864991862884
 21
-134.2553523330554
 31
0.0
  0
LINE
  5
20E
330
1B
100
AcDbEntity
 67
     1
  8
ﾀｲﾄﾙ枠
100
AcDbLine
 10
150.1525563614292
 20
-133.4753523330554
 30
0.0
 11
151.4814626114293
 21
-131.4503523330553
 31
0.0
  0
LINE
  5
20F
330
1B
100
AcDbEntity
 67
     1
  8
ﾀｲﾄﾙ枠
100
AcDbLine
 10
150.6337739626171
 20
-133.2253523330554
 30
0.0
 11
151.6583833376172
 21
-131.7003523330553
 31
0.0
  0
LINE
  5
210
330
1B
100
AcDbEntity
 67
     1
  8
ﾀｲﾄﾙ枠
100
AcDbLine
 10
152.1712415638048
 20
-131.4503523330553
 30
0.0
 11
150.7790540638049
 21
-133.4753523330554
 31
0.0
  0
LINE
  5
211
330
1B
100
AcDbEntity
 67
     1
  8
ﾀｲﾄﾙ枠
100
AcDbLine
 10
152.1364991862885
 20
-136.3595574134733
 30
0.0
 11
152.1364991862885
 21
-135.895432966923
 31
0.0
  0
LINE
  5
212
330
1B
100
AcDbEntity
 67
     1
  8
ﾀｲﾄﾙ枠
100
AcDbLine
 10
148.9314991862885
 20
-136.5403523330554
 30
0.0
 11
149.8614991862885
 21
-136.5403523330554
 31
0.0
  0
LINE
  5
213
330
1B
100
AcDbEntity
 67
     1
  8
ﾀｲﾄﾙ枠
100
AcDbLine
 10
149.8614991862885
 20
-136.5403523330554
 30
0.0
 11
149.8614991862885
 21
-133.4753523330554
 31
0.0
  0
LINE
  5
214
330
1B
100
AcDbEntity
 67
     1
  8
ﾀｲﾄﾙ枠
100
AcDbLine
 10
148.9314991862885
 20
-133.4753523330554
 30
0.0
 11
148.9314991862885
 21
-136.5403523330554
 31
0.0
  0
LINE
  5
215
330
1B
100
AcDbEntity
 67
     1
  8
ﾀｲﾄﾙ枠
100
AcDbLine
 10
149.8614991862885
 20
-135.0595574134734
 30
0.0
 11
152.1364991862885
 21
-136.3595574134733
 31
0.0
  0
LINE
  5
216
330
1B
100
AcDbEntity
 67
     1
  8
ﾀｲﾄﾙ枠
100
AcDbLine
 10
152.1364991862885
 20
-135.895432966923
 30
0.0
 11
150.6313580770199
 21
-135.0353523330554
 31
0.0
  0
LINE
  5
217
330
1B
100
AcDbEntity
 67
     1
  8
ﾀｲﾄﾙ枠
100
AcDbLine
 10
149.1964991862885
 20
-133.7253523330554
 30
0.0
 11
149.1964991862885
 21
-136.2903523330554
 31
0.0
  0
LINE
  5
218
330
1B
100
AcDbEntity
 67
     1
  8
ﾀｲﾄﾙ枠
100
AcDbLine
 10
149.5964991862886
 20
-133.7253523330554
 30
0.0
 11
149.5964991862886
 21
-136.2903523330554
 31
0.0
  0
LINE
  5
219
330
1B
100
AcDbEntity
 67
     1
  8
ﾀｲﾄﾙ枠
100
AcDbLine
 10
149.3964991862886
 20
-133.7253523330554
 30
0.0
 11
149.3964991862886
 21
-136.2903523330554
 31
0.0
  0
LINE
  5
21A
330
1B
100
AcDbEntity
 67
     1
  8
ﾀｲﾄﾙ枠
100
AcDbLine
 10
152.3964991862886
 20
-132.4353523330553
 30
0.0
 11
151.4940540638053
 21
-132.4353523330553
 31
0.0
  0
LINE
  5
21B
330
1B
100
AcDbEntity
 67
     1
  8
ﾀｲﾄﾙ枠
100
AcDbLine
 10
164.6032559007679
 20
-131.4503523330553
 30
0.0
 11
165.5109052625068
 21
-131.4503523330553
 31
0.0
  0
LINE
  5
21C
330
1B
100
AcDbEntity
 67
     1
  8
ﾀｲﾄﾙ枠
100
AcDbLine
 10
164.9569768310005
 20
-132.6203523330553
 30
0.0
 11
164.6032559007679
 21
-131.4503523330553
 31
0.0
  0
LINE
  5
21D
330
1B
100
AcDbEntity
 67
     1
  8
ﾀｲﾄﾙ枠
100
AcDbLine
 10
161.6564991862886
 20
-132.6303523330554
 30
0.0
 11
167.0064991862886
 21
-132.6303523330554
 31
0.0
  0
LINE
  5
21E
330
1B
100
AcDbEntity
 67
     1
  8
ﾀｲﾄﾙ枠
100
AcDbLine
 10
163.2364991862885
 20
-135.1325458992957
 30
0.0
 11
163.2364991862885
 21
-133.5403523330554
 31
0.0
  0
LINE
  5
21F
330
1B
100
AcDbEntity
 67
     1
  8
ﾀｲﾄﾙ枠
100
AcDbLine
 10
162.4364991862885
 20
-135.2285458992957
 30
0.0
 11
162.4364991862885
 21
-133.5403523330554
 31
0.0
  0
LINE
  5
220
330
1B
100
AcDbEntity
 67
     1
  8
ﾀｲﾄﾙ枠
100
AcDbLine
 10
162.8364991862886
 20
-133.7903523330554
 30
0.0
 11
162.8364991862886
 21
-135.1805458992957
 31
0.0
  0
LINE
  5
221
330
1B
100
AcDbEntity
 67
     1
  8
ﾀｲﾄﾙ枠
100
AcDbLine
 10
164.19139861219
 20
-135.7218950402198
 30
0.0
 11
161.94139861219
 21
-136.0818950402198
 31
0.0
  0
LINE
  5
222
330
1B
100
AcDbEntity
 67
     1
  8
ﾀｲﾄﾙ枠
100
AcDbLine
 10
164.1564991862886
 20
-135.5037736283357
 30
0.0
 11
161.9064991862886
 21
-135.8637736283357
 31
0.0
  0
LINE
  5
223
330
1B
100
AcDbEntity
 67
     1
  8
ﾀｲﾄﾙ枠
100
AcDbLine
 10
164.4064991862886
 20
-134.9921458992957
 30
0.0
 11
164.4064991862886
 21
-135.9354013573757
 31
0.0
  0
LINE
  5
224
330
1B
100
AcDbEntity
 67
     1
  8
ﾀｲﾄﾙ枠
100
AcDbLine
 10
161.6564991862886
 20
-136.4854013573757
 30
0.0
 11
161.6564991862886
 21
-135.3221458992957
 31
0.0
  0
LINE
  5
225
330
1B
100
AcDbEntity
 67
     1
  8
ﾀｲﾄﾙ枠
100
AcDbLine
 10
157.6664991862885
 20
-134.9603523330554
 30
0.0
 11
156.7910076834763
 21
-134.9603523330554
 31
0.0
  0
LINE
  5
226
330
1B
100
AcDbEntity
 67
     1
  8
ﾀｲﾄﾙ枠
100
AcDbLine
 10
158.3364991862886
 20
-134.9603523330554
 30
0.0
 11
159.1932490692475
 21
-134.9603523330554
 31
0.0
  0
LINE
  5
227
330
1B
100
AcDbEntity
 67
     1
  8
ﾀｲﾄﾙ枠
100
AcDbLine
 10
156.6464991862886
 20
-131.4503523330553
 30
0.0
 11
156.6464991862886
 21
-132.6303523330554
 31
0.0
  0
LINE
  5
228
330
1B
100
AcDbEntity
 67
     1
  8
ﾀｲﾄﾙ枠
100
AcDbLine
 10
157.6664991862885
 20
-131.4503523330553
 30
0.0
 11
158.3364991862886
 21
-131.4503523330553
 31
0.0
  0
LINE
  5
229
330
1B
100
AcDbEntity
 67
     1
  8
ﾀｲﾄﾙ枠
100
AcDbLine
 10
159.7857490692475
 20
-136.5403523330554
 30
0.0
 11
159.3478688773
 21
-136.5403523330554
 31
0.0
  0
LINE
  5
22A
330
1B
100
AcDbEntity
 67
     1
  8
ﾀｲﾄﾙ枠
100
AcDbLine
 10
158.3364991862886
 20
-136.5403523330554
 30
0.0
 11
157.6664991862885
 21
-136.5403523330554
 31
0.0
  0
LINE
  5
22B
330
1B
100
AcDbEntity
 67
     1
  8
ﾀｲﾄﾙ枠
100
AcDbLine
 10
159.3478688773
 20
-136.5403523330554
 30
0.0
 11
158.7553688772999
 21
-134.9603523330554
 31
0.0
  0
LINE
  5
22C
330
1B
100
AcDbEntity
 67
     1
  8
ﾀｲﾄﾙ枠
100
AcDbLine
 10
159.1932490692475
 20
-134.9603523330554
 30
0.0
 11
159.7857490692475
 21
-136.5403523330554
 31
0.0
  0
LINE
  5
22D
330
1B
100
AcDbEntity
 67
     1
  8
ﾀｲﾄﾙ枠
100
AcDbLine
 10
157.6664991862885
 20
-136.5403523330554
 30
0.0
 11
157.6664991862885
 21
-131.4503523330553
 31
0.0
  0
LINE
  5
22E
330
1B
100
AcDbEntity
 67
     1
  8
ﾀｲﾄﾙ枠
100
AcDbLine
 10
158.3364991862886
 20
-131.4503523330553
 30
0.0
 11
158.3364991862886
 21
-136.5403523330554
 31
0.0
  0
LINE
  5
22F
330
1B
100
AcDbEntity
 67
     1
  8
ﾀｲﾄﾙ枠
100
AcDbLine
 10
158.0014991862885
 20
-136.2903523330554
 30
0.0
 11
158.0014991862885
 21
-131.7003523330553
 31
0.0
  0
LINE
  5
230
330
1B
100
AcDbEntity
 67
     1
  8
ﾀｲﾄﾙ枠
100
AcDbLine
 10
161.6564991862886
 20
-135.3221458992957
 30
0.0
 11
164.4064991862886
 21
-134.9921458992957
 31
0.0
  0
LINE
  5
231
330
1B
100
AcDbEntity
 67
     1
  8
ﾀｲﾄﾙ枠
100
AcDbLine
 10
164.4064991862886
 20
-133.5403523330554
 30
0.0
 11
161.6564991862886
 21
-133.5403523330554
 31
0.0
  0
LINE
  5
232
330
1B
100
AcDbEntity
 67
     1
  8
ﾀｲﾄﾙ枠
100
AcDbLine
 10
164.4064991862886
 20
-135.9354013573757
 30
0.0
 11
161.6564991862886
 21
-136.4854013573757
 31
0.0
  0
LINE
  5
233
330
1B
100
AcDbEntity
 67
     1
  8
ﾀｲﾄﾙ枠
100
AcDbLine
 10
164.121599760387
 20
-135.2856522164516
 30
0.0
 11
161.871599760387
 21
-135.6456522164516
 31
0.0
  0
LINE
  5
234
330
1B
100
AcDbEntity
 67
     1
  8
ﾀｲﾄﾙ枠
100
AcDbLine
 10
171.6686721904856
 20
-131.7003523330553
 30
0.0
 11
172.1243261820916
 21
-131.7003523330553
 31
0.0
  0
LINE
  5
235
330
1B
100
AcDbEntity
 67
     1
  8
ﾀｲﾄﾙ枠
100
AcDbLine
 10
170.1964991862885
 20
-133.4853523330553
 30
0.0
 11
170.1964991862885
 21
-133.5953523330554
 31
0.0
  0
LINE
  5
236
330
1B
100
AcDbEntity
 67
     1
  8
ﾀｲﾄﾙ枠
100
AcDbLine
 10
171.1816134519242
 20
-131.4503523330553
 30
0.0
 11
172.6113849206529
 21
-131.4503523330553
 31
0.0
  0
LINE
  5
237
330
1B
100
AcDbEntity
 67
     1
  8
ﾀｲﾄﾙ枠
100
AcDbLine
 10
170.1368069391009
 20
-136.5303523330554
 30
0.0
 11
171.7834736057675
 21
-134.4503523330553
 31
0.0
  0
LINE
  5
238
330
1B
100
AcDbEntity
 67
     1
  8
ﾀｲﾄﾙ枠
100
AcDbLine
 10
169.1564991862886
 20
-133.330843835868
 30
0.0
 11
169.1564991862886
 21
-132.58203383444
 31
0.0
  0
LINE
  5
239
330
1B
100
AcDbEntity
 67
     1
  8
ﾀｲﾄﾙ枠
100
AcDbLine
 10
165.5109052625068
 20
-131.4503523330553
 30
0.0
 11
165.8646261927396
 21
-132.6203523330553
 31
0.0
  0
LINE
  5
23A
330
1B
100
AcDbEntity
 67
     1
  8
ﾀｲﾄﾙ枠
100
AcDbLine
 10
166.4664991862886
 20
-131.7103523330554
 30
0.0
 11
167.0064991862886
 21
-131.7103523330554
 31
0.0
  0
LINE
  5
23B
330
1B
100
AcDbEntity
 67
     1
  8
ﾀｲﾄﾙ枠
100
AcDbLine
 10
167.0064991862886
 20
-131.8603523330553
 30
0.0
 11
166.4664991862886
 21
-131.8603523330553
 31
0.0
  0
LINE
  5
23C
330
1B
100
AcDbEntity
 67
     1
  8
ﾀｲﾄﾙ枠
100
AcDbLine
 10
166.4664991862886
 20
-131.8603523330553
 30
0.0
 11
166.4664991862886
 21
-131.7103523330554
 31
0.0
  0
LINE
  5
23D
330
1B
100
AcDbEntity
 67
     1
  8
ﾀｲﾄﾙ枠
100
AcDbLine
 10
167.0064991862886
 20
-131.7103523330554
 30
0.0
 11
167.0064991862886
 21
-131.8603523330553
 31
0.0
  0
LINE
  5
23E
330
1B
100
AcDbEntity
 67
     1
  8
ﾀｲﾄﾙ枠
100
AcDbLine
 10
167.0497424718092
 20
-136.5403523330554
 30
0.0
 11
166.1420931100702
 21
-136.5403523330554
 31
0.0
  0
LINE
  5
23F
330
1B
100
AcDbEntity
 67
     1
  8
ﾀｲﾄﾙ枠
100
AcDbLine
 10
165.8706727043675
 20
-132.6403523330554
 30
0.0
 11
167.0497424718092
 21
-136.5403523330554
 31
0.0
  0
LINE
  5
240
330
1B
100
AcDbEntity
 67
     1
  8
ﾀｲﾄﾙ枠
100
AcDbLine
 10
164.8930929660426
 20
-131.6712480556272
 30
0.0
 11
166.2983653198363
 21
-136.3194566104834
 31
0.0
  0
LINE
  5
241
330
1B
100
AcDbEntity
 67
     1
  8
ﾀｲﾄﾙ枠
100
AcDbLine
 10
165.3546330527407
 20
-131.6712480556272
 30
0.0
 11
166.7599054065344
 21
-136.3194566104834
 31
0.0
  0
LINE
  5
242
330
1B
100
AcDbEntity
 67
     1
  8
ﾀｲﾄﾙ枠
100
AcDbLine
 10
165.1238630093918
 20
-131.6712480556272
 30
0.0
 11
166.5291353631853
 21
-136.3194566104834
 31
0.0
  0
LINE
  5
243
330
1B
100
AcDbEntity
 67
     1
  8
ﾀｲﾄﾙ枠
100
AcDbLine
 10
166.1420931100702
 20
-136.5403523330554
 30
0.0
 11
164.9630233426283
 21
-132.6403523330554
 31
0.0
  0
LINE
  5
244
330
1B
100
AcDbEntity
 67
     1
  8
ﾀｲﾄﾙ枠
100
AcDbLine
 10
169.1564991862886
 20
-132.58203383444
 30
0.0
 11
171.1816134519242
 21
-131.4503523330553
 31
0.0
  0
LINE
  5
245
330
1B
100
AcDbEntity
 67
     1
  8
ﾀｲﾄﾙ枠
100
AcDbLine
 10
169.4064991862886
 20
-132.831438835154
 30
0.0
 11
171.6686721904856
 21
-131.7003523330553
 31
0.0
  0
LINE
  5
246
330
1B
100
AcDbEntity
 67
     1
  8
ﾀｲﾄﾙ枠
100
AcDbLine
 10
171.8964991862886
 20
-131.960843835868
 30
0.0
 11
169.1564991862886
 21
-133.330843835868
 31
0.0
  0
LINE
  5
247
330
1B
100
AcDbEntity
 67
     1
  8
ﾀｲﾄﾙ枠
100
AcDbLine
 10
171.2868221865392
 20
-134.6320495958967
 30
0.0
 11
169.9898325196218
 21
-136.2703523330554
 31
0.0
  0
LINE
  5
248
330
1B
100
AcDbEntity
 67
     1
  8
ﾀｲﾄﾙ枠
100
AcDbLine
 10
169.4311914334762
 20
-136.5303523330554
 30
0.0
 11
171.0699414334765
 21
-134.4603523330554
 31
0.0
  0
LINE
  5
249
330
1B
100
AcDbEntity
 67
     1
  8
ﾀｲﾄﾙ枠
100
AcDbLine
 10
179.9064991862886
 20
-133.1503523330554
 30
0.0
 11
182.2664991862885
 21
-133.1503523330554
 31
0.0
  0
LINE
  5
24A
330
1B
100
AcDbEntity
 67
     1
  8
ﾀｲﾄﾙ枠
100
AcDbLine
 10
180.4264991862885
 20
-131.4503523330553
 30
0.0
 11
181.3564991862887
 21
-131.4503523330553
 31
0.0
  0
LINE
  5
24B
330
1B
100
AcDbEntity
 67
     1
  8
ﾀｲﾄﾙ枠
100
AcDbLine
 10
182.3964991862886
 20
-136.5953523330554
 30
0.0
 11
179.7764991862886
 21
-136.5953523330554
 31
0.0
  0
LINE
  5
24C
330
1B
100
AcDbEntity
 67
     1
  8
ﾀｲﾄﾙ枠
100
AcDbLine
 10
178.9444296080176
 20
-134.3103523330553
 30
0.0
 11
178.4964991862884
 21
-134.3103523330553
 31
0.0
  0
LINE
  5
24D
330
1B
100
AcDbEntity
 67
     1
  8
ﾀｲﾄﾙ枠
100
AcDbLine
 10
179.3310962746842
 20
-135.7603523330554
 30
0.0
 11
179.1758545277218
 21
-135.7603523330554
 31
0.0
  0
LINE
  5
24E
330
1B
100
AcDbEntity
 67
     1
  8
ﾀｲﾄﾙ枠
100
AcDbLine
 10
178.2964991862887
 20
-133.4003523330554
 30
0.0
 11
178.2964991862887
 21
-136.2903523330554
 31
0.0
  0
LINE
  5
24F
330
1B
100
AcDbEntity
 67
     1
  8
ﾀｲﾄﾙ枠
100
AcDbLine
 10
178.4964991862884
 20
-136.5403523330554
 30
0.0
 11
178.4964991862884
 21
-133.1503523330554
 31
0.0
  0
LINE
  5
250
330
1B
100
AcDbEntity
 67
     1
  8
ﾀｲﾄﾙ枠
100
AcDbLine
 10
180.6914991862885
 20
-136.3453523330554
 30
0.0
 11
180.6914991862885
 21
-131.7003523330553
 31
0.0
  0
LINE
  5
251
330
1B
100
AcDbEntity
 67
     1
  8
ﾀｲﾄﾙ枠
100
AcDbLine
 10
180.8914991862886
 20
-136.3453523330554
 30
0.0
 11
180.8914991862886
 21
-131.7003523330553
 31
0.0
  0
LINE
  5
252
330
1B
100
AcDbEntity
 67
     1
  8
ﾀｲﾄﾙ枠
100
AcDbLine
 10
180.4264991862885
 20
-136.5953523330554
 30
0.0
 11
180.4264991862885
 21
-131.4503523330553
 31
0.0
  0
LINE
  5
253
330
1B
100
AcDbEntity
 67
     1
  8
ﾀｲﾄﾙ枠
100
AcDbLine
 10
178.9444296080176
 20
-134.3103523330553
 30
0.0
 11
179.3310962746842
 21
-135.7603523330554
 31
0.0
  0
LINE
  5
254
330
1B
100
AcDbEntity
 67
     1
  8
ﾀｲﾄﾙ枠
100
AcDbLine
 10
179.1758545277218
 20
-135.7603523330554
 30
0.0
 11
178.7891878610549
 21
-134.3103523330553
 31
0.0
  0
LINE
  5
255
330
1B
100
AcDbEntity
 67
     1
  8
ﾀｲﾄﾙ枠
100
AcDbLine
 10
177.6964991862885
 20
-134.3103523330553
 30
0.0
 11
177.2366889913026
 21
-134.3103523330553
 31
0.0
  0
LINE
  5
256
330
1B
100
AcDbEntity
 67
     1
  8
ﾀｲﾄﾙ枠
100
AcDbLine
 10
177.8964991862886
 20
-133.4003523330554
 30
0.0
 11
177.8964991862886
 21
-136.2903523330554
 31
0.0
  0
LINE
  5
257
330
1B
100
AcDbEntity
 67
     1
  8
ﾀｲﾄﾙ枠
100
AcDbLine
 10
178.0964991862886
 20
-133.4003523330554
 30
0.0
 11
178.0964991862886
 21
-136.2903523330554
 31
0.0
  0
LINE
  5
258
330
1B
100
AcDbEntity
 67
     1
  8
ﾀｲﾄﾙ枠
100
AcDbLine
 10
177.6964991862885
 20
-133.1503523330554
 30
0.0
 11
177.6964991862885
 21
-136.5403523330554
 31
0.0
  0
LINE
  5
259
330
1B
100
AcDbEntity
 67
     1
  8
ﾀｲﾄﾙ枠
100
AcDbLine
 10
176.9114695409776
 20
-135.7603523330554
 30
0.0
 11
177.3948028743109
 21
-134.3103523330553
 31
0.0
  0
LINE
  5
25A
330
1B
100
AcDbEntity
 67
     1
  8
ﾀｲﾄﾙ枠
100
AcDbLine
 10
173.5964991862886
 20
-133.5953523330554
 30
0.0
 11
173.5964991862886
 21
-133.4853523330553
 31
0.0
  0
LINE
  5
25B
330
1B
100
AcDbEntity
 67
     1
  8
ﾀｲﾄﾙ枠
100
AcDbLine
 10
174.6364991862886
 20
-132.58203383444
 30
0.0
 11
174.6364991862886
 21
-133.330843835868
 31
0.0
  0
LINE
  5
25C
330
1B
100
AcDbEntity
 67
     1
  8
ﾀｲﾄﾙ枠
100
AcDbLine
 10
176.7533556579692
 20
-135.7603523330554
 30
0.0
 11
176.9114695409776
 21
-135.7603523330554
 31
0.0
  0
LINE
  5
25D
330
1B
100
AcDbEntity
 67
     1
  8
ﾀｲﾄﾙ枠
100
AcDbLine
 10
177.2366889913026
 20
-134.3103523330553
 30
0.0
 11
176.7533556579692
 21
-135.7603523330554
 31
0.0
  0
LINE
  5
25E
330
1B
100
AcDbEntity
 67
     1
  8
ﾀｲﾄﾙ枠
100
AcDbLine
 10
177.1764991862885
 20
-131.4603523330554
 30
0.0
 11
178.8864991862885
 21
-131.4603523330554
 31
0.0
  0
LINE
  5
25F
330
1B
100
AcDbEntity
 67
     1
  8
ﾀｲﾄﾙ枠
100
AcDbLine
 10
179.0164991862886
 20
-133.1503523330554
 30
0.0
 11
176.9164991862885
 21
-133.1503523330554
 31
0.0
  0
LINE
  5
260
330
1B
100
AcDbEntity
 67
     1
  8
ﾀｲﾄﾙ枠
100
AcDbLine
 10
177.6964991862885
 20
-136.5403523330554
 30
0.0
 11
178.4964991862884
 21
-136.5403523330554
 31
0.0
  0
LINE
  5
261
330
1B
100
AcDbEntity
 67
     1
  8
ﾀｲﾄﾙ枠
100
AcDbLine
 10
181.0914991862884
 20
-136.3453523330554
 30
0.0
 11
181.0914991862884
 21
-131.7003523330553
 31
0.0
  0
LINE
  5
262
330
1B
100
AcDbEntity
 67
     1
  8
ﾀｲﾄﾙ枠
100
AcDbLine
 10
181.3564991862887
 20
-131.4503523330553
 30
0.0
 11
181.3564991862887
 21
-136.5953523330554
 31
0.0
  0
LINE
  5
263
330
1B
100
AcDbEntity
 67
     1
  8
ﾀｲﾄﾙ枠
100
AcDbLine
 10
110.6738467516344
 20
-116.0
 30
0.0
 11
195.6738467516342
 21
-116.0
 31
0.0
  0
LINE
  5
264
330
1B
100
AcDbEntity
 67
     1
  8
ﾀｲﾄﾙ枠
100
AcDbLine
 10
110.6738467516344
 20
-128.0
 30
0.0
 11
195.6738467516342
 21
-128.0
 31
0.0
  0
LINE
  5
265
330
1B
100
AcDbEntity
 67
     1
  8
ﾀｲﾄﾙ枠
100
AcDbLine
 10
110.6738467516344
 20
-140.0
 30
0.0
 11
110.6738467516344
 21
-116.0
 31
0.0
  0
MTEXT
  5
266
330
1B
100
AcDbEntity
 67
     1
  8
ﾀｲﾄﾙ枠
100
AcDbMText
 10
112.1738467516344
 20
-117.5
 30
0.0
 40
2.5
 41
0.0
 71
     1
 72
     1
  1
{\fMS PMincho|b0|i0|c128|p0;製品名}
 73
     1
 44
0.8811854561101549
  0
LINE
  5
267
330
1B
100
AcDbEntity
 67
     1
  8
ﾀｲﾄﾙ枠
100
AcDbLine
 10
167.6738467516344
 20
-128.0
 30
0.0
 11
167.6738467516344
 21
-116.0
 31
0.0
  0
LINE
  5
268
330
1B
100
AcDbEntity
 67
     1
  8
ﾀｲﾄﾙ枠
100
AcDbLine
 10
172.6738467516344
 20
-128.0
 30
0.0
 11
172.6738467516344
 21
-116.0
 31
0.0
  0
MTEXT
  5
269
330
1B
100
AcDbEntity
 67
     1
  8
ﾀｲﾄﾙ枠
100
AcDbMText
 10
170.1738467516344
 20
-122.25
 30
0.0
 40
2.5
 41
0.0
 71
     2
 72
     1
  1
{\fMS PMincho|b0|i0|c128|p0;尺}
 73
     1
 44
0.8811854561101549
  0
MTEXT
  5
26A
330
1B
100
AcDbEntity
 67
     1
  8
ﾀｲﾄﾙ枠
100
AcDbMText
 10
170.1738467516344
 20
-116.75
 30
0.0
 40
2.5
 41
0.0
 71
     2
 72
     1
  1
{\fMS PMincho|b0|i0|c128|p0;縮}
 73
     1
 44
0.8811854561101549
  0
MTEXT
  5
26B
330
1B
100
AcDbEntity
 67
     1
  8
0
100
AcDbMText
 10
184.1738467516344
 20
-119.0
 30
0.0
 40
3.0
 41
0.0
 71
     2
 72
     1
  1
{\fMS PMincho|b0|i0|c128|p0;1/5}
 73
     1
 44
0.8811854561101549
  0
ENDSEC
  0
SECTION
  2
OBJECTS
  0
DICTIONARY
  5
C
330
0
100
AcDbDictionary
281
     1
  3
ACAD_GROUP
350
D
  3
ACAD_LAYOUT
350
1A
  3
ACAD_MATERIAL
350
3B
  3
ACAD_MLEADERSTYLE
350
26E
  3
ACAD_MLINESTYLE
350
17
  3
ACAD_PLOTSETTINGS
350
19
  3
ACAD_PLOTSTYLENAME
350
E
  3
ACAD_SCALELIST
350
272
  3
ACAD_VISUALSTYLE
350
2A
  3
ACAD_WIPEOUT_VARS
350
4C
  3
AcDbVariableDictionary
350
26C
  0
DICTIONARY
  5
D
102
{ACAD_REACTORS
330
C
102
}
330
C
100
AcDbDictionary
281
     1
  0
DICTIONARY
  5
1A
102
{ACAD_REACTORS
330
C
102
}
330
C
100
AcDbDictionary
281
     1
  3
Model
350
22
  3
一般用
350
1E
  0
DICTIONARY
  5
3B
102
{ACAD_REACTORS
330
C
102
}
330
C
100
AcDbDictionary
281
     1
  3
ByBlock
350
3D
  3
ByLayer
350
3C
  3
Global
350
3E
  0
DICTIONARY
  5
26E
102
{ACAD_REACTORS
330
C
102
}
330
C
100
AcDbDictionary
281
     1
  0
DICTIONARY
  5
17
102
{ACAD_REACTORS
330
C
102
}
330
C
100
AcDbDictionary
281
     1
  3
Standard
350
18
  0
DICTIONARY
  5
19
102
{ACAD_REACTORS
330
C
102
}
330
C
100
AcDbDictionary
281
     1
  0
ACDBDICTIONARYWDFLT
  5
E
102
{ACAD_REACTORS
330
C
102
}
330
C
100
AcDbDictionary
281
     1
  3
Normal
350
F
100
AcDbDictionaryWithDefault
340
F
  0
DICTIONARY
  5
272
102
{ACAD_REACTORS
330
C
102
}
330
C
100
AcDbDictionary
281
     1
  3
A0
350
273
  3
A1
350
274
  3
A2
350
275
  3
A3
350
276
  3
A4
350
277
  3
A5
350
278
  3
A6
350
279
  3
A7
350
27A
  3
A8
350
27B
  3
A9
350
27C
  3
B0
350
27D
  3
B1
350
27E
  3
B2
350
27F
  3
B3
350
280
  3
B4
350
281
  3
B5
350
282
  3
B6
350
283
  3
B7
350
284
  3
B8
350
285
  3
B9
350
286
  3
C0
350
287
  3
C1
350
288
  3
C2
350
289
  3
C3
350
28A
  3
C4
350
28B
  3
C5
350
28C
  3
C6
350
28D
  3
C7
350
28E
  3
C8
350
28F
  3
C9
350
290
  3
D0
350
291
  3
D1
350
292
  3
D2
350
293
  0
DICTIONARY
  5
2A
102
{ACAD_REACTORS
330
C
102
}
330
C
100
AcDbDictionary
281
     1
  3
2dWireframe
350
2F
  3
3D Hidden
350
31
  3
3dWireframe
350
30
  3
Basic
350
32
  3
Brighten
350
36
  3
ColorChange
350
3A
  3
Conceptual
350
34
  3
Dim
350
35
  3
Facepattern
350
39
  3
Flat
350
2B
  3
FlatWithEdges
350
2C
  3
Gouraud
350
2D
  3
GouraudWithEdges
350
2E
  3
Linepattern
350
38
  3
Realistic
350
33
  3
Thicken
350
37
  0
WIPEOUTVARIABLES
  5
4C
102
{ACAD_REACTORS
330
C
102
}
330
C
100
AcDbWipeoutVariables
 70
     0
  0
DICTIONARY
  5
26C
102
{ACAD_REACTORS
330
C
102
}
330
C
100
AcDbDictionary
281
     1
  3
CANNOSCALE
350
294
  3
DIMASSOC
350
270
  3
HIDETEXT
350
271
  3
XCLIPFRAME
350
26F
  0
LAYOUT
  5
22
102
{ACAD_REACTORS
330
1A
102
}
330
1A
100
AcDbPlotSettings
  1

  2
none_device
  4

  6

 40
0.0
 41
0.0
 42
0.0
 43
0.0
 44
0.0
 45
0.0
 46
0.0
 47
0.0
 48
0.0
 49
0.0
140
0.0
141
0.0
142
1.0
143
1.0
 70
  1712
 72
     0
 73
     0
 74
     0
  7

 75
     0
147
1.0
148
0.0
149
0.0
100
AcDbLayout
  1
Model
 70
     1
 71
     0
 10
0.0
 20
0.0
 11
12.0
 21
9.0
 12
0.0
 22
0.0
 32
0.0
 14
2831.395794961633
 24
133.9774665972748
 34
0.0
 15
3251.554120156945
 25
431.0092964312591
 35
0.0
146
0.0
 13
0.0
 23
0.0
 33
0.0
 16
1.0
 26
0.0
 36
0.0
 17
0.0
 27
1.0
 37
0.0
 76
     0
330
1F
331
29
  0
LAYOUT
  5
1E
102
{ACAD_REACTORS
330
1A
102
}
330
1A
100
AcDbPlotSettings
  1

  2
none_device
  4
ISO_A3_(420.00_x_297.00_MM)
  6

 40
7.5
 41
20.0
 42
7.5
 43
20.0
 44
420.0
 45
297.0
 46
0.0
 47
0.0
 48
0.0
 49
0.0
140
0.0
141
0.0
142
1.0
143
1.0
 70
   640
 72
     1
 73
     0
 74
     5
  7

 75
    16
147
1.0
148
202.5791625976562
149
128.5159149169921
100
AcDbLayout
  1
一般用
 70
     1
 71
     1
 10
-220.583120727539
 20
-155.9417106628417
 11
220.583120727539
 21
155.9417106628417
 12
0.0
 22
0.0
 32
0.0
 14
-195.673846751634
 24
-140.0
 34
0.0
 15
195.6738467516342
 25
140.0
 35
0.0
146
0.0
 13
0.0
 23
0.0
 33
0.0
 16
1.0
 26
0.0
 36
0.0
 17
0.0
 27
1.0
 37
0.0
 76
     0
330
1B
331
4B
  0
MATERIAL
  5
3D
102
{ACAD_REACTORS
330
3B
102
}
102
{ACAD_XDICTIONARY
360
2B7
102
}
330
3B
100
AcDbMaterial
  1
ByBlock
  0
MATERIAL
  5
3C
102
{ACAD_REACTORS
330
3B
102
}
102
{ACAD_XDICTIONARY
360
2B5
102
}
330
3B
100
AcDbMaterial
  1
ByLayer
  0
MATERIAL
  5
3E
102
{ACAD_REACTORS
330
3B
102
}
102
{ACAD_XDICTIONARY
360
2B9
102
}
330
3B
100
AcDbMaterial
  1
Global
  0
MLINESTYLE
  5
18
102
{ACAD_REACTORS
330
17
102
}
330
17
100
AcDbMlineStyle
  2
Standard
 70
     0
  3

 62
   256
 51
90.0
 52
90.0
 71
     2
 49
0.5
 62
   256
  6
BYLAYER
 49
-0.5
 62
   256
  6
BYLAYER
  0
ACDBPLACEHOLDER
  5
F
102
{ACAD_REACTORS
330
E
102
}
330
E
  0
SCALE
  5
273
102
{ACAD_REACTORS
330
272
102
}
330
272
100
AcDbScale
 70
     0
300
1:1
140
1.0
141
1.0
290
     1
  0
SCALE
  5
274
102
{ACAD_REACTORS
330
272
102
}
330
272
100
AcDbScale
 70
     0
300
1:2
140
1.0
141
2.0
290
     0
  0
SCALE
  5
275
102
{ACAD_REACTORS
330
272
102
}
330
272
100
AcDbScale
 70
     0
300
1:4
140
1.0
141
4.0
290
     0
  0
SCALE
  5
276
102
{ACAD_REACTORS
330
272
102
}
330
272
100
AcDbScale
 70
     0
300
1:5
140
1.0
141
5.0
290
     0
  0
SCALE
  5
277
102
{ACAD_REACTORS
330
272
102
}
330
272
100
AcDbScale
 70
     0
300
1:8
140
1.0
141
8.0
290
     0
  0
SCALE
  5
278
102
{ACAD_REACTORS
330
272
102
}
330
272
100
AcDbScale
 70
     0
300
1:10
140
1.0
141
10.0
290
     0
  0
SCALE
  5
279
102
{ACAD_REACTORS
330
272
102
}
330
272
100
AcDbScale
 70
     0
300
1:16
140
1.0
141
16.0
290
     0
  0
SCALE
  5
27A
102
{ACAD_REACTORS
330
272
102
}
330
272
100
AcDbScale
 70
     0
300
1:20
140
1.0
141
20.0
290
     0
  0
SCALE
  5
27B
102
{ACAD_REACTORS
330
272
102
}
330
272
100
AcDbScale
 70
     0
300
1:30
140
1.0
141
30.0
290
     0
  0
SCALE
  5
27C
102
{ACAD_REACTORS
330
272
102
}
330
272
100
AcDbScale
 70
     0
300
1:40
140
1.0
141
40.0
290
     0
  0
SCALE
  5
27D
102
{ACAD_REACTORS
330
272
102
}
330
272
100
AcDbScale
 70
     0
300
1:50
140
1.0
141
50.0
290
     0
  0
SCALE
  5
27E
102
{ACAD_REACTORS
330
272
102
}
330
272
100
AcDbScale
 70
     0
300
1:100
140
1.0
141
100.0
290
     0
  0
SCALE
  5
27F
102
{ACAD_REACTORS
330
272
102
}
330
272
100
AcDbScale
 70
     0
300
2:1
140
2.0
141
1.0
290
     0
  0
SCALE
  5
280
102
{ACAD_REACTORS
330
272
102
}
330
272
100
AcDbScale
 70
     0
300
4:1
140
4.0
141
1.0
290
     0
  0
SCALE
  5
281
102
{ACAD_REACTORS
330
272
102
}
330
272
100
AcDbScale
 70
     0
300
8:1
140
8.0
141
1.0
290
     0
  0
SCALE
  5
282
102
{ACAD_REACTORS
330
272
102
}
330
272
100
AcDbScale
 70
     0
300
10:1
140
10.0
141
1.0
290
     0
  0
SCALE
  5
283
102
{ACAD_REACTORS
330
272
102
}
330
272
100
AcDbScale
 70
     0
300
100:1
140
100.0
141
1.0
290
     0
  0
SCALE
  5
284
102
{ACAD_REACTORS
330
272
102
}
330
272
100
AcDbScale
 70
     0
300
1/128" = 1'-0"
140
0.0078125
141
12.0
290
     0
  0
SCALE
  5
285
102
{ACAD_REACTORS
330
272
102
}
330
272
100
AcDbScale
 70
     0
300
1/64" = 1'-0"
140
0.015625
141
12.0
290
     0
  0
SCALE
  5
286
102
{ACAD_REACTORS
330
272
102
}
330
272
100
AcDbScale
 70
     0
300
1/32" = 1'-0"
140
0.03125
141
12.0
290
     0
  0
SCALE
  5
287
102
{ACAD_REACTORS
330
272
102
}
330
272
100
AcDbScale
 70
     0
300
1/16" = 1'-0"
140
0.0625
141
12.0
290
     0
  0
SCALE
  5
288
102
{ACAD_REACTORS
330
272
102
}
330
272
100
AcDbScale
 70
     0
300
3/32" = 1'-0"
140
0.09375
141
12.0
290
     0
  0
SCALE
  5
289
102
{ACAD_REACTORS
330
272
102
}
330
272
100
AcDbScale
 70
     0
300
1/8" = 1'-0"
140
0.125
141
12.0
290
     0
  0
SCALE
  5
28A
102
{ACAD_REACTORS
330
272
102
}
330
272
100
AcDbScale
 70
     0
300
3/16" = 1'-0"
140
0.1875
141
12.0
290
     0
  0
SCALE
  5
28B
102
{ACAD_REACTORS
330
272
102
}
330
272
100
AcDbScale
 70
     0
300
1/4" = 1'-0"
140
0.25
141
12.0
290
     0
  0
SCALE
  5
28C
102
{ACAD_REACTORS
330
272
102
}
330
272
100
AcDbScale
 70
     0
300
3/8" = 1'-0"
140
0.375
141
12.0
290
     0
  0
SCALE
  5
28D
102
{ACAD_REACTORS
330
272
102
}
330
272
100
AcDbScale
 70
     0
300
1/2" = 1'-0"
140
0.5
141
12.0
290
     0
  0
SCALE
  5
28E
102
{ACAD_REACTORS
330
272
102
}
330
272
100
AcDbScale
 70
     0
300
3/4" = 1'-0"
140
0.75
141
12.0
290
     0
  0
SCALE
  5
28F
102
{ACAD_REACTORS
330
272
102
}
330
272
100
AcDbScale
 70
     0
300
1" = 1'-0"
140
1.0
141
12.0
290
     0
  0
SCALE
  5
290
102
{ACAD_REACTORS
330
272
102
}
330
272
100
AcDbScale
 70
     0
300
1-1/2" = 1'-0"
140
1.5
141
12.0
290
     0
  0
SCALE
  5
291
102
{ACAD_REACTORS
330
272
102
}
330
272
100
AcDbScale
 70
     0
300
3" = 1'-0"
140
3.0
141
12.0
290
     0
  0
SCALE
  5
292
102
{ACAD_REACTORS
330
272
102
}
330
272
100
AcDbScale
 70
     0
300
6" = 1'-0"
140
6.0
141
12.0
290
     0
  0
SCALE
  5
293
102
{ACAD_REACTORS
330
272
102
}
330
272
100
AcDbScale
 70
     0
300
1'-0" = 1'-0"
140
12.0
141
12.0
290
     0
  0
VISUALSTYLE
  5
2F
102
{ACAD_REACTORS
330
2A
102
}
102
{ACAD_XDICTIONARY
360
29D
102
}
330
2A
100
AcDbVisualStyle
  2
2dWireframe
 70
     4
 71
     0
 72
     2
 73
     0
 90
        0
 40
-0.6
 41
-30.0
 62
     5
 63
     7
 74
     1
 91
        4
 64
     7
 65
   257
 75
     1
175
     1
 42
1.0
 92
        0
 66
   257
 43
1.0
 76
     1
 77
     6
 78
     2
 67
     7
 79
     5
170
     0
171
     0
290
     0
174
     0
 93
        1
 44
0.0
173
     0
291
     0
 45
0.0
1001
ACAD
1000
AcDbSavedByObjectVersion
1070
     0
  0
VISUALSTYLE
  5
31
102
{ACAD_REACTORS
330
2A
102
}
102
{ACAD_XDICTIONARY
360
2A1
102
}
330
2A
100
AcDbVisualStyle
  2
3D Hidden
 70
     6
 71
     1
 72
     2
 73
     2
 90
        0
 40
-0.6
 41
-30.0
 62
     5
 63
     7
 74
     2
 91
        2
 64
     7
 65
   257
 75
     2
175
     1
 42
40.0
 92
        0
 66
   257
 43
1.0
 76
     1
 77
     6
 78
     2
 67
     7
 79
     3
170
     0
171
     0
290
     0
174
     0
 93
        1
 44
0.0
173
     0
291
     0
 45
0.0
1001
ACAD
1000
AcDbSavedByObjectVersion
1070
     0
  0
VISUALSTYLE
  5
30
102
{ACAD_REACTORS
330
2A
102
}
102
{ACAD_XDICTIONARY
360
29F
102
}
330
2A
100
AcDbVisualStyle
  2
3dWireframe
 70
     5
 71
     0
 72
     2
 73
     0
 90
        0
 40
-0.6
 41
-30.0
 62
     5
 63
     7
 74
     1
 91
        4
 64
     7
 65
   257
 75
     1
175
     1
 42
1.0
 92
        0
 66
   257
 43
1.0
 76
     1
 77
     6
 78
     2
 67
     7
 79
     5
170
     0
171
     0
290
     0
174
     0
 93
        1
 44
0.0
173
     0
291
     0
 45
0.0
1001
ACAD
1000
AcDbSavedByObjectVersion
1070
     0
  0
VISUALSTYLE
  5
32
102
{ACAD_REACTORS
330
2A
102
}
102
{ACAD_XDICTIONARY
360
2A3
102
}
330
2A
100
AcDbVisualStyle
  2
Basic
 70
     7
 71
     1
 72
     0
 73
     1
 90
        0
 40
-0.6
 41
-30.0
 62
     5
 63
     7
 74
     0
 91
        4
 64
     7
 65
   257
 75
     1
175
     1
 42
1.0
 92
        8
 66
     7
 43
1.0
 76
     1
 77
     6
 78
     2
 67
     7
 79
     5
170
     0
171
     0
290
     0
174
     0
 93
        1
 44
0.0
173
     0
291
     1
 45
0.0
1001
ACAD
1000
AcDbSavedByObjectVersion
1070
     0
  0
VISUALSTYLE
  5
36
102
{ACAD_REACTORS
330
2A
102
}
102
{ACAD_XDICTIONARY
360
2AB
102
}
330
2A
100
AcDbVisualStyle
  2
Brighten
 70
    12
 71
     2
 72
     2
 73
     0
 90
        0
 40
-0.6
 41
-30.0
 62
     5
 63
     7
 74
     1
 91
        4
 64
     7
 65
   257
 75
     1
175
     1
 42
1.0
 92
        8
 66
     7
 43
1.0
 76
     1
 77
     6
 78
     2
 67
     7
 79
     5
170
     0
171
     0
290
     0
174
     0
 93
        1
 44
50.0
173
     0
291
     1
 45
0.0
1001
ACAD
1000
AcDbSavedByObjectVersion
1070
     0
  0
VISUALSTYLE
  5
3A
102
{ACAD_REACTORS
330
2A
102
}
102
{ACAD_XDICTIONARY
360
2B3
102
}
330
2A
100
AcDbVisualStyle
  2
ColorChange
 70
    16
 71
     2
 72
     2
 73
     3
 90
        0
 40
-0.6
 41
-30.0
 62
     5
 63
     8
 74
     1
 91
        4
 64
     7
 65
   257
 75
     1
175
     1
 42
1.0
 92
        8
 66
     8
 43
1.0
 76
     1
 77
     6
 78
     2
 67
     7
 79
     5
170
     0
171
     0
290
     0
174
     0
 93
        1
 44
0.0
173
     0
291
     1
 45
0.0
1001
ACAD
1000
AcDbSavedByObjectVersion
1070
     0
  0
VISUALSTYLE
  5
34
102
{ACAD_REACTORS
330
2A
102
}
102
{ACAD_XDICTIONARY
360
2A7
102
}
330
2A
100
AcDbVisualStyle
  2
Conceptual
 70
     9
 71
     3
 72
     2
 73
     0
 90
        0
 40
-0.6
 41
-30.0
 62
     5
 63
     7
 74
     2
 91
        2
 64
     7
 65
   257
 75
     1
175
     1
 42
40.0
 92
        8
 66
     7
 43
1.0
 76
     1
 77
     6
 78
     2
 67
     7
 79
     3
170
     0
171
     0
290
     0
174
     0
 93
        1
 44
0.0
173
     0
291
     0
 45
0.0
1001
ACAD
1000
AcDbSavedByObjectVersion
1070
     0
  0
VISUALSTYLE
  5
35
102
{ACAD_REACTORS
330
2A
102
}
102
{ACAD_XDICTIONARY
360
2A9
102
}
330
2A
100
AcDbVisualStyle
  2
Dim
 70
    11
 71
     2
 72
     2
 73
     0
 90
        0
 40
-0.6
 41
-30.0
 62
     5
 63
     7
 74
     1
 91
        4
 64
     7
 65
   257
 75
     1
175
     1
 42
1.0
 92
        8
 66
     7
 43
1.0
 76
     1
 77
     6
 78
     2
 67
     7
 79
     5
170
     0
171
     0
290
     0
174
     0
 93
        1
 44
-50.0
173
     0
291
     1
 45
0.0
1001
ACAD
1000
AcDbSavedByObjectVersion
1070
     0
  0
VISUALSTYLE
  5
39
102
{ACAD_REACTORS
330
2A
102
}
102
{ACAD_XDICTIONARY
360
2B1
102
}
330
2A
100
AcDbVisualStyle
  2
Facepattern
 70
    15
 71
     2
 72
     2
 73
     0
 90
        0
 40
-0.6
 41
-30.0
 62
     5
 63
     7
 74
     1
 91
        4
 64
     7
 65
   257
 75
     1
175
     1
 42
1.0
 92
        8
 66
     7
 43
1.0
 76
     1
 77
     6
 78
     2
 67
     7
 79
     5
170
     0
171
     0
290
     0
174
     0
 93
        1
 44
0.0
173
     0
291
     1
 45
0.0
1001
ACAD
1000
AcDbSavedByObjectVersion
1070
     0
  0
VISUALSTYLE
  5
2B
102
{ACAD_REACTORS
330
2A
102
}
102
{ACAD_XDICTIONARY
360
295
102
}
330
2A
100
AcDbVisualStyle
  2
Flat
 70
     0
 71
     2
 72
     1
 73
     1
 90
        2
 40
-0.6
 41
30.0
 62
     5
 63
     7
 74
     0
 91
        4
 64
     7
 65
   257
 75
     1
175
     1
 42
1.0
 92
        8
 66
     7
 43
1.0
 76
     1
 77
     6
 78
     2
 67
     7
 79
     5
170
     0
171
     0
290
     0
174
     0
 93
       13
 44
0.0
173
     0
291
     1
 45
0.0
1001
ACAD
1000
AcDbSavedByObjectVersion
1070
     0
  0
VISUALSTYLE
  5
2C
102
{ACAD_REACTORS
330
2A
102
}
102
{ACAD_XDICTIONARY
360
297
102
}
330
2A
100
AcDbVisualStyle
  2
FlatWithEdges
 70
     1
 71
     2
 72
     1
 73
     1
 90
        2
 40
-0.6
 41
30.0
 62
     5
 63
     7
 74
     1
 91
        4
 64
     7
 65
   257
 75
     1
175
     1
 42
1.0
 92
        0
 66
   257
 43
1.0
 76
     1
 77
     6
 78
     2
 67
     7
 79
     5
170
     0
171
     0
290
     0
174
     0
 93
       13
 44
0.0
173
     0
291
     1
 45
0.0
1001
ACAD
1000
AcDbSavedByObjectVersion
1070
     0
  0
VISUALSTYLE
  5
2D
102
{ACAD_REACTORS
330
2A
102
}
102
{ACAD_XDICTIONARY
360
299
102
}
330
2A
100
AcDbVisualStyle
  2
Gouraud
 70
     2
 71
     2
 72
     2
 73
     1
 90
        2
 40
-0.6
 41
30.0
 62
     5
 63
     7
 74
     0
 91
        4
 64
     7
 65
   257
 75
     1
175
     1
 42
1.0
 92
        0
 66
     7
 43
1.0
 76
     1
 77
     6
 78
     2
 67
     7
 79
     5
170
     0
171
     0
290
     0
174
     0
 93
       13
 44
0.0
173
     0
291
     1
 45
0.0
1001
ACAD
1000
AcDbSavedByObjectVersion
1070
     0
  0
VISUALSTYLE
  5
2E
102
{ACAD_REACTORS
330
2A
102
}
102
{ACAD_XDICTIONARY
360
29B
102
}
330
2A
100
AcDbVisualStyle
  2
GouraudWithEdges
 70
     3
 71
     2
 72
     2
 73
     1
 90
        2
 40
-0.6
 41
30.0
 62
     5
 63
     7
 74
     1
 91
        4
 64
     7
 65
   257
 75
     1
175
     1
 42
1.0
 92
        0
 66
   257
 43
1.0
 76
     1
 77
     6
 78
     2
 67
     7
 79
     5
170
     0
171
     0
290
     0
174
     0
 93
       13
 44
0.0
173
     0
291
     1
 45
0.0
1001
ACAD
1000
AcDbSavedByObjectVersion
1070
     0
  0
VISUALSTYLE
  5
38
102
{ACAD_REACTORS
330
2A
102
}
102
{ACAD_XDICTIONARY
360
2AF
102
}
330
2A
100
AcDbVisualStyle
  2
Linepattern
 70
    14
 71
     2
 72
     2
 73
     0
 90
        0
 40
-0.6
 41
-30.0
 62
     5
 63
     7
 74
     1
 91
        4
 64
     7
 65
   257
 75
     7
175
     7
 42
1.0
 92
        8
 66
     7
 43
1.0
 76
     1
 77
     6
 78
     2
 67
     7
 79
     5
170
     0
171
     0
290
     0
174
     0
 93
        1
 44
0.0
173
     0
291
     1
 45
0.0
1001
ACAD
1000
AcDbSavedByObjectVersion
1070
     0
  0
VISUALSTYLE
  5
33
102
{ACAD_REACTORS
330
2A
102
}
102
{ACAD_XDICTIONARY
360
2A5
102
}
330
2A
100
AcDbVisualStyle
  2
Realistic
 70
     8
 71
     2
 72
     2
 73
     0
 90
        0
 40
-0.6
 41
-30.0
 62
     5
 63
     7
 74
     1
 91
        0
 64
     7
 65
   257
 75
     1
175
     1
 42
1.0
 92
        8
 66
     8
 43
1.0
 76
     1
 77
     6
 78
     2
 67
     7
 79
     5
170
     0
171
     0
290
     0
174
     0
 93
       13
 44
0.0
173
     0
291
     0
 45
0.0
1001
ACAD
1000
AcDbSavedByObjectVersion
1070
     0
  0
VISUALSTYLE
  5
37
102
{ACAD_REACTORS
330
2A
102
}
102
{ACAD_XDICTIONARY
360
2AD
102
}
330
2A
100
AcDbVisualStyle
  2
Thicken
 70
    13
 71
     2
 72
     2
 73
     0
 90
        0
 40
-0.6
 41
-30.0
 62
     5
 63
     7
 74
     1
 91
        4
 64
     7
 65
   257
 75
     1
175
     1
 42
1.0
 92
       12
 66
     7
 43
1.0
 76
     1
 77
     6
 78
     2
 67
     7
 79
     5
170
     0
171
     0
290
     0
174
     0
 93
        1
 44
0.0
173
     0
291
     1
 45
0.0
1001
ACAD
1000
AcDbSavedByObjectVersion
1070
     0
  0
DICTIONARYVAR
  5
294
102
{ACAD_REACTORS
330
26C
102
}
330
26C
100
DictionaryVariables
280
     0
  1
1:1
  0
DICTIONARYVAR
  5
270
102
{ACAD_REACTORS
330
26C
102
}
330
26C
100
DictionaryVariables
280
     0
  1
2
  0
DICTIONARYVAR
  5
271
102
{ACAD_REACTORS
330
26C
102
}
330
26C
100
DictionaryVariables
280
     0
  1
1
  0
DICTIONARYVAR
  5
26F
102
{ACAD_REACTORS
330
26C
102
}
330
26C
100
DictionaryVariables
280
     0
  1
0
  0
DICTIONARY
  5
2B7
330
3D
100
AcDbDictionary
280
     1
281
     1
  3
ACAD_XREC_ROUNDTRIP
360
2B8
  0
DICTIONARY
  5
2B5
330
3C
100
AcDbDictionary
280
     1
281
     1
  3
ACAD_XREC_ROUNDTRIP
360
2B6
  0
DICTIONARY
  5
2B9
330
3E
100
AcDbDictionary
280
     1
281
     1
  3
ACAD_XREC_ROUNDTRIP
360
2BA
  0
DICTIONARY
  5
29D
330
2F
100
AcDbDictionary
280
     1
281
     1
  3
ACAD_XREC_ROUNDTRIP
360
29E
  0
DICTIONARY
  5
2A1
330
31
100
AcDbDictionary
280
     1
281
     1
  3
ACAD_XREC_ROUNDTRIP
360
2A2
  0
DICTIONARY
  5
29F
330
30
100
AcDbDictionary
280
     1
281
     1
  3
ACAD_XREC_ROUNDTRIP
360
2A0
  0
DICTIONARY
  5
2A3
330
32
100
AcDbDictionary
280
     1
281
     1
  3
ACAD_XREC_ROUNDTRIP
360
2A4
  0
DICTIONARY
  5
2AB
330
36
100
AcDbDictionary
280
     1
281
     1
  3
ACAD_XREC_ROUNDTRIP
360
2AC
  0
DICTIONARY
  5
2B3
330
3A
100
AcDbDictionary
280
     1
281
     1
  3
ACAD_XREC_ROUNDTRIP
360
2B4
  0
DICTIONARY
  5
2A7
330
34
100
AcDbDictionary
280
     1
281
     1
  3
ACAD_XREC_ROUNDTRIP
360
2A8
  0
DICTIONARY
  5
2A9
330
35
100
AcDbDictionary
280
     1
281
     1
  3
ACAD_XREC_ROUNDTRIP
360
2AA
  0
DICTIONARY
  5
2B1
330
39
100
AcDbDictionary
280
     1
281
     1
  3
ACAD_XREC_ROUNDTRIP
360
2B2
  0
DICTIONARY
  5
295
330
2B
100
AcDbDictionary
280
     1
281
     1
  3
ACAD_XREC_ROUNDTRIP
360
296
  0
DICTIONARY
  5
297
330
2C
100
AcDbDictionary
280
     1
281
     1
  3
ACAD_XREC_ROUNDTRIP
360
298
  0
DICTIONARY
  5
299
330
2D
100
AcDbDictionary
280
     1
281
     1
  3
ACAD_XREC_ROUNDTRIP
360
29A
  0
DICTIONARY
  5
29B
330
2E
100
AcDbDictionary
280
     1
281
     1
  3
ACAD_XREC_ROUNDTRIP
360
29C
  0
DICTIONARY
  5
2AF
330
38
100
AcDbDictionary
280
     1
281
     1
  3
ACAD_XREC_ROUNDTRIP
360
2B0
  0
DICTIONARY
  5
2A5
330
33
100
AcDbDictionary
280
     1
281
     1
  3
ACAD_XREC_ROUNDTRIP
360
2A6
  0
DICTIONARY
  5
2AD
330
37
100
AcDbDictionary
280
     1
281
     1
  3
ACAD_XREC_ROUNDTRIP
360
2AE
  0
XRECORD
  5
2B8
102
{ACAD_REACTORS
330
2B7
102
}
330
2B7
100
AcDbXrecord
280
     1
102
MATERIAL
148
0.0
149
0.0
149
0.0
 93
        0
 94
      127
282
     0
 72
     1
 77
     1
171
     1
175
     1
179
     1
273
     0
  0
XRECORD
  5
2B6
102
{ACAD_REACTORS
330
2B5
102
}
330
2B5
100
AcDbXrecord
280
     1
102
MATERIAL
148
0.0
149
0.0
149
0.0
 93
        0
 94
      127
282
     0
 72
     1
 77
     1
171
     1
175
     1
179
     1
273
     0
  0
XRECORD
  5
2BA
102
{ACAD_REACTORS
330
2B9
102
}
330
2B9
100
AcDbXrecord
280
     1
102
MATERIAL
148
0.0
149
0.0
149
0.0
 93
        0
 94
      127
282
     0
 72
     1
 77
     1
171
     1
175
     1
179
     1
273
     0
  0
XRECORD
  5
29E
102
{ACAD_REACTORS
330
29D
102
}
330
29D
100
AcDbXrecord
280
     1
102
RTVSPropertyOp0
 70
     1
102
RTVSPropertyOp1
 70
     1
102
RTVSPropertyOp2
 70
     1
102
RTVSPropertyOp3
 70
     1
102
RTVSPropertyOp4
 70
     1
102
RTVSPropertyOp5
 70
     1
102
RTVSPropertyOp6
 70
     1
102
RTVSPropertyOp7
 70
     1
102
RTVSPropertyOp8
 70
     1
102
RTVSPropertyOp9
 70
     1
102
RTVSPropertyOp10
 70
     1
102
RTVSPropertyOp11
 70
     1
102
RTVSPropertyOp12
 70
     1
102
RTVSPropertyOp13
 70
     1
102
RTVSPropertyOp14
 70
     1
102
RTVSPropertyOp15
 70
     1
102
RTVSPropertyOp16
 70
     1
102
RTVSPropertyOp17
 70
     1
102
RTVSPropertyOp18
 70
     1
102
RTVSPropertyOp19
 70
     1
102
RTVSPropertyOp20
 70
     1
102
RTVSPropertyOp21
 70
     1
102
RTVSPropertyOp22
 70
     1
102
RTVSPropertyOp23
 70
     1
102
RTVSPropertyOp24
 70
     1
102
RTVSPropertyOp25
 70
     1
102
RTVSPropertyOp26
 70
     1
102
RTVSPropertyOp27
 70
     1
102
RTVSPropertyOp28
 70
     1
102
RTVSPropertyOp29
 70
     1
102
RTVSPropertyOp30
 70
     1
102
RTVSPropertyOp31
 70
     1
102
RTVSPropertyOp32
 70
     1
  0
XRECORD
  5
2A2
102
{ACAD_REACTORS
330
2A1
102
}
330
2A1
100
AcDbXrecord
280
     1
102
RTVSPropertyOp0
 70
     1
102
RTVSPropertyOp1
 70
     1
102
RTVSPropertyOp2
 70
     1
102
RTVSPropertyOp3
 70
     1
102
RTVSPropertyOp4
 70
     1
102
RTVSPropertyOp5
 70
     1
102
RTVSPropertyOp6
 70
     1
102
RTVSPropertyOp7
 70
     1
102
RTVSPropertyOp8
 70
     1
102
RTVSPropertyOp9
 70
     1
102
RTVSPropertyOp10
 70
     1
102
RTVSPropertyOp11
 70
     1
102
RTVSPropertyOp12
 70
     1
102
RTVSPropertyOp13
 70
     1
102
RTVSPropertyOp14
 70
     1
102
RTVSPropertyOp15
 70
     1
102
RTVSPropertyOp16
 70
     1
102
RTVSPropertyOp17
 70
     1
102
RTVSPropertyOp18
 70
     1
102
RTVSPropertyOp19
 70
     1
102
RTVSPropertyOp20
 70
     1
102
RTVSPropertyOp21
 70
     1
102
RTVSPropertyOp22
 70
     1
102
RTVSPropertyOp23
 70
     1
102
RTVSPropertyOp24
 70
     1
102
RTVSPropertyOp25
 70
     1
102
RTVSPropertyOp26
 70
     1
102
RTVSPropertyOp27
 70
     1
102
RTVSPropertyOp28
 70
     1
102
RTVSPropertyOp29
 70
     1
102
RTVSPropertyOp30
 70
     1
102
RTVSPropertyOp31
 70
     1
102
RTVSPropertyOp32
 70
     1
  0
XRECORD
  5
2A0
102
{ACAD_REACTORS
330
29F
102
}
330
29F
100
AcDbXrecord
280
     1
102
RTVSPropertyOp0
 70
     1
102
RTVSPropertyOp1
 70
     1
102
RTVSPropertyOp2
 70
     1
102
RTVSPropertyOp3
 70
     1
102
RTVSPropertyOp4
 70
     1
102
RTVSPropertyOp5
 70
     1
102
RTVSPropertyOp6
 70
     1
102
RTVSPropertyOp7
 70
     1
102
RTVSPropertyOp8
 70
     1
102
RTVSPropertyOp9
 70
     1
102
RTVSPropertyOp10
 70
     1
102
RTVSPropertyOp11
 70
     1
102
RTVSPropertyOp12
 70
     1
102
RTVSPropertyOp13
 70
     1
102
RTVSPropertyOp14
 70
     1
102
RTVSPropertyOp15
 70
     1
102
RTVSPropertyOp16
 70
     1
102
RTVSPropertyOp17
 70
     1
102
RTVSPropertyOp18
 70
     1
102
RTVSPropertyOp19
 70
     1
102
RTVSPropertyOp20
 70
     1
102
RTVSPropertyOp21
 70
     1
102
RTVSPropertyOp22
 70
     1
102
RTVSPropertyOp23
 70
     1
102
RTVSPropertyOp24
 70
     1
102
RTVSPropertyOp25
 70
     1
102
RTVSPropertyOp26
 70
     1
102
RTVSPropertyOp27
 70
     1
102
RTVSPropertyOp28
 70
     1
102
RTVSPropertyOp29
 70
     1
102
RTVSPropertyOp30
 70
     1
102
RTVSPropertyOp31
 70
     1
102
RTVSPropertyOp32
 70
     1
  0
XRECORD
  5
2A4
102
{ACAD_REACTORS
330
2A3
102
}
330
2A3
100
AcDbXrecord
280
     1
102
RTVSPropertyOp0
 70
     1
102
RTVSPropertyOp1
 70
     1
102
RTVSPropertyOp2
 70
     1
102
RTVSPropertyOp3
 70
     1
102
RTVSPropertyOp4
 70
     1
102
RTVSPropertyOp5
 70
     1
102
RTVSPropertyOp6
 70
     1
102
RTVSPropertyOp7
 70
     1
102
RTVSPropertyOp8
 70
     1
102
RTVSPropertyOp9
 70
     1
102
RTVSPropertyOp10
 70
     1
102
RTVSPropertyOp11
 70
     1
102
RTVSPropertyOp12
 70
     1
102
RTVSPropertyOp13
 70
     1
102
RTVSPropertyOp14
 70
     1
102
RTVSPropertyOp15
 70
     1
102
RTVSPropertyOp16
 70
     1
102
RTVSPropertyOp17
 70
     1
102
RTVSPropertyOp18
 70
     1
102
RTVSPropertyOp19
 70
     1
102
RTVSPropertyOp20
 70
     1
102
RTVSPropertyOp21
 70
     1
102
RTVSPropertyOp22
 70
     1
102
RTVSPropertyOp23
 70
     1
102
RTVSPropertyOp24
 70
     1
102
RTVSPropertyOp25
 70
     1
102
RTVSPropertyOp26
 70
     1
102
RTVSPropertyOp27
 70
     1
102
RTVSPropertyOp28
 70
     1
102
RTVSPropertyOp29
 70
     1
102
RTVSPropertyOp30
 70
     1
102
RTVSPropertyOp31
 70
     1
102
RTVSPropertyOp32
 70
     1
  0
XRECORD
  5
2AC
102
{ACAD_REACTORS
330
2AB
102
}
330
2AB
100
AcDbXrecord
280
     1
102
RTVSPropertyOp0
 70
     1
102
RTVSPropertyOp1
 70
     1
102
RTVSPropertyOp2
 70
     1
102
RTVSPropertyOp3
 70
     1
102
RTVSPropertyOp4
 70
     1
102
RTVSPropertyOp5
 70
     1
102
RTVSPropertyOp6
 70
     1
102
RTVSPropertyOp7
 70
     1
102
RTVSPropertyOp8
 70
     1
102
RTVSPropertyOp9
 70
     1
102
RTVSPropertyOp10
 70
     1
102
RTVSPropertyOp11
 70
     1
102
RTVSPropertyOp12
 70
     1
102
RTVSPropertyOp13
 70
     1
102
RTVSPropertyOp14
 70
     1
102
RTVSPropertyOp15
 70
     1
102
RTVSPropertyOp16
 70
     1
102
RTVSPropertyOp17
 70
     1
102
RTVSPropertyOp18
 70
     1
102
RTVSPropertyOp19
 70
     1
102
RTVSPropertyOp20
 70
     1
102
RTVSPropertyOp21
 70
     1
102
RTVSPropertyOp22
 70
     1
102
RTVSPropertyOp23
 70
     1
102
RTVSPropertyOp24
 70
     1
102
RTVSPropertyOp25
 70
     1
102
RTVSPropertyOp26
 70
     1
102
RTVSPropertyOp27
 70
     1
102
RTVSPropertyOp28
 70
     1
102
RTVSPropertyOp29
 70
     1
102
RTVSPropertyOp30
 70
     1
102
RTVSPropertyOp31
 70
     1
102
RTVSPropertyOp32
 70
     1
  0
XRECORD
  5
2B4
102
{ACAD_REACTORS
330
2B3
102
}
330
2B3
100
AcDbXrecord
280
     1
102
RTVSPropertyOp0
 70
     1
102
RTVSPropertyOp1
 70
     1
102
RTVSPropertyOp2
 70
     1
102
RTVSPropertyOp3
 70
     1
102
RTVSPropertyOp4
 70
     1
102
RTVSPropertyOp5
 70
     1
102
RTVSPropertyOp6
 70
     1
102
RTVSPropertyOp7
 70
     1
102
RTVSPropertyOp8
 70
     1
102
RTVSPropertyOp9
 70
     1
102
RTVSPropertyOp10
 70
     1
102
RTVSPropertyOp11
 70
     1
102
RTVSPropertyOp12
 70
     1
102
RTVSPropertyOp13
 70
     1
102
RTVSPropertyOp14
 70
     1
102
RTVSPropertyOp15
 70
     1
102
RTVSPropertyOp16
 70
     1
102
RTVSPropertyOp17
 70
     1
102
RTVSPropertyOp18
 70
     1
102
RTVSPropertyOp19
 70
     1
102
RTVSPropertyOp20
 70
     1
102
RTVSPropertyOp21
 70
     1
102
RTVSPropertyOp22
 70
     1
102
RTVSPropertyOp23
 70
     1
102
RTVSPropertyOp24
 70
     1
102
RTVSPropertyOp25
 70
     1
102
RTVSPropertyOp26
 70
     1
102
RTVSPropertyOp27
 70
     1
102
RTVSPropertyOp28
 70
     1
102
RTVSPropertyOp29
 70
     1
102
RTVSPropertyOp30
 70
     1
102
RTVSPropertyOp31
 70
     1
102
RTVSPropertyOp32
 70
     1
  0
XRECORD
  5
2A8
102
{ACAD_REACTORS
330
2A7
102
}
330
2A7
100
AcDbXrecord
280
     1
102
RTVSPropertyOp0
 70
     1
102
RTVSPropertyOp1
 70
     1
102
RTVSPropertyOp2
 70
     1
102
RTVSPropertyOp3
 70
     1
102
RTVSPropertyOp4
 70
     1
102
RTVSPropertyOp5
 70
     1
102
RTVSPropertyOp6
 70
     1
102
RTVSPropertyOp7
 70
     1
102
RTVSPropertyOp8
 70
     1
102
RTVSPropertyOp9
 70
     1
102
RTVSPropertyOp10
 70
     1
102
RTVSPropertyOp11
 70
     1
102
RTVSPropertyOp12
 70
     1
102
RTVSPropertyOp13
 70
     1
102
RTVSPropertyOp14
 70
     1
102
RTVSPropertyOp15
 70
     1
102
RTVSPropertyOp16
 70
     1
102
RTVSPropertyOp17
 70
     1
102
RTVSPropertyOp18
 70
     1
102
RTVSPropertyOp19
 70
     1
102
RTVSPropertyOp20
 70
     1
102
RTVSPropertyOp21
 70
     1
102
RTVSPropertyOp22
 70
     1
102
RTVSPropertyOp23
 70
     1
102
RTVSPropertyOp24
 70
     1
102
RTVSPropertyOp25
 70
     1
102
RTVSPropertyOp26
 70
     1
102
RTVSPropertyOp27
 70
     1
102
RTVSPropertyOp28
 70
     1
102
RTVSPropertyOp29
 70
     1
102
RTVSPropertyOp30
 70
     1
102
RTVSPropertyOp31
 70
     1
102
RTVSPropertyOp32
 70
     1
  0
XRECORD
  5
2AA
102
{ACAD_REACTORS
330
2A9
102
}
330
2A9
100
AcDbXrecord
280
     1
102
RTVSPropertyOp0
 70
     1
102
RTVSPropertyOp1
 70
     1
102
RTVSPropertyOp2
 70
     1
102
RTVSPropertyOp3
 70
     1
102
RTVSPropertyOp4
 70
     1
102
RTVSPropertyOp5
 70
     1
102
RTVSPropertyOp6
 70
     1
102
RTVSPropertyOp7
 70
     1
102
RTVSPropertyOp8
 70
     1
102
RTVSPropertyOp9
 70
     1
102
RTVSPropertyOp10
 70
     1
102
RTVSPropertyOp11
 70
     1
102
RTVSPropertyOp12
 70
     1
102
RTVSPropertyOp13
 70
     1
102
RTVSPropertyOp14
 70
     1
102
RTVSPropertyOp15
 70
     1
102
RTVSPropertyOp16
 70
     1
102
RTVSPropertyOp17
 70
     1
102
RTVSPropertyOp18
 70
     1
102
RTVSPropertyOp19
 70
     1
102
RTVSPropertyOp20
 70
     1
102
RTVSPropertyOp21
 70
     1
102
RTVSPropertyOp22
 70
     1
102
RTVSPropertyOp23
 70
     1
102
RTVSPropertyOp24
 70
     1
102
RTVSPropertyOp25
 70
     1
102
RTVSPropertyOp26
 70
     1
102
RTVSPropertyOp27
 70
     1
102
RTVSPropertyOp28
 70
     1
102
RTVSPropertyOp29
 70
     1
102
RTVSPropertyOp30
 70
     1
102
RTVSPropertyOp31
 70
     1
102
RTVSPropertyOp32
 70
     1
  0
XRECORD
  5
2B2
102
{ACAD_REACTORS
330
2B1
102
}
330
2B1
100
AcDbXrecord
280
     1
102
RTVSPropertyOp0
 70
     1
102
RTVSPropertyOp1
 70
     1
102
RTVSPropertyOp2
 70
     1
102
RTVSPropertyOp3
 70
     1
102
RTVSPropertyOp4
 70
     1
102
RTVSPropertyOp5
 70
     1
102
RTVSPropertyOp6
 70
     1
102
RTVSPropertyOp7
 70
     1
102
RTVSPropertyOp8
 70
     1
102
RTVSPropertyOp9
 70
     1
102
RTVSPropertyOp10
 70
     1
102
RTVSPropertyOp11
 70
     1
102
RTVSPropertyOp12
 70
     1
102
RTVSPropertyOp13
 70
     1
102
RTVSPropertyOp14
 70
     1
102
RTVSPropertyOp15
 70
     1
102
RTVSPropertyOp16
 70
     1
102
RTVSPropertyOp17
 70
     1
102
RTVSPropertyOp18
 70
     1
102
RTVSPropertyOp19
 70
     1
102
RTVSPropertyOp20
 70
     1
102
RTVSPropertyOp21
 70
     1
102
RTVSPropertyOp22
 70
     1
102
RTVSPropertyOp23
 70
     1
102
RTVSPropertyOp24
 70
     1
102
RTVSPropertyOp25
 70
     1
102
RTVSPropertyOp26
 70
     1
102
RTVSPropertyOp27
 70
     1
102
RTVSPropertyOp28
 70
     1
102
RTVSPropertyOp29
 70
     1
102
RTVSPropertyOp30
 70
     1
102
RTVSPropertyOp31
 70
     1
102
RTVSPropertyOp32
 70
     1
  0
XRECORD
  5
296
102
{ACAD_REACTORS
330
295
102
}
330
295
100
AcDbXrecord
280
     1
102
RTVSPropertyOp0
 70
     1
102
RTVSPropertyOp1
 70
     1
102
RTVSPropertyOp2
 70
     1
102
RTVSPropertyOp3
 70
     1
102
RTVSPropertyOp4
 70
     1
102
RTVSPropertyOp5
 70
     1
102
RTVSPropertyOp6
 70
     1
102
RTVSPropertyOp7
 70
     1
102
RTVSPropertyOp8
 70
     1
102
RTVSPropertyOp9
 70
     1
102
RTVSPropertyOp10
 70
     1
102
RTVSPropertyOp11
 70
     1
102
RTVSPropertyOp12
 70
     1
102
RTVSPropertyOp13
 70
     1
102
RTVSPropertyOp14
 70
     1
102
RTVSPropertyOp15
 70
     1
102
RTVSPropertyOp16
 70
     1
102
RTVSPropertyOp17
 70
     1
102
RTVSPropertyOp18
 70
     1
102
RTVSPropertyOp19
 70
     1
102
RTVSPropertyOp20
 70
     1
102
RTVSPropertyOp21
 70
     1
102
RTVSPropertyOp22
 70
     1
102
RTVSPropertyOp23
 70
     1
102
RTVSPropertyOp24
 70
     1
102
RTVSPropertyOp25
 70
     1
102
RTVSPropertyOp26
 70
     1
102
RTVSPropertyOp27
 70
     1
102
RTVSPropertyOp28
 70
     1
102
RTVSPropertyOp29
 70
     1
102
RTVSPropertyOp30
 70
     1
102
RTVSPropertyOp31
 70
     1
102
RTVSPropertyOp32
 70
     1
  0
XRECORD
  5
298
102
{ACAD_REACTORS
330
297
102
}
330
297
100
AcDbXrecord
280
     1
102
RTVSPropertyOp0
 70
     1
102
RTVSPropertyOp1
 70
     1
102
RTVSPropertyOp2
 70
     1
102
RTVSPropertyOp3
 70
     1
102
RTVSPropertyOp4
 70
     1
102
RTVSPropertyOp5
 70
     1
102
RTVSPropertyOp6
 70
     1
102
RTVSPropertyOp7
 70
     1
102
RTVSPropertyOp8
 70
     1
102
RTVSPropertyOp9
 70
     1
102
RTVSPropertyOp10
 70
     1
102
RTVSPropertyOp11
 70
     1
102
RTVSPropertyOp12
 70
     1
102
RTVSPropertyOp13
 70
     1
102
RTVSPropertyOp14
 70
     1
102
RTVSPropertyOp15
 70
     1
102
RTVSPropertyOp16
 70
     1
102
RTVSPropertyOp17
 70
     1
102
RTVSPropertyOp18
 70
     1
102
RTVSPropertyOp19
 70
     1
102
RTVSPropertyOp20
 70
     1
102
RTVSPropertyOp21
 70
     1
102
RTVSPropertyOp22
 70
     1
102
RTVSPropertyOp23
 70
     1
102
RTVSPropertyOp24
 70
     1
102
RTVSPropertyOp25
 70
     1
102
RTVSPropertyOp26
 70
     1
102
RTVSPropertyOp27
 70
     1
102
RTVSPropertyOp28
 70
     1
102
RTVSPropertyOp29
 70
     1
102
RTVSPropertyOp30
 70
     1
102
RTVSPropertyOp31
 70
     1
102
RTVSPropertyOp32
 70
     1
  0
XRECORD
  5
29A
102
{ACAD_REACTORS
330
299
102
}
330
299
100
AcDbXrecord
280
     1
102
RTVSPropertyOp0
 70
     1
102
RTVSPropertyOp1
 70
     1
102
RTVSPropertyOp2
 70
     1
102
RTVSPropertyOp3
 70
     1
102
RTVSPropertyOp4
 70
     1
102
RTVSPropertyOp5
 70
     1
102
RTVSPropertyOp6
 70
     1
102
RTVSPropertyOp7
 70
     1
102
RTVSPropertyOp8
 70
     1
102
RTVSPropertyOp9
 70
     1
102
RTVSPropertyOp10
 70
     1
102
RTVSPropertyOp11
 70
     1
102
RTVSPropertyOp12
 70
     1
102
RTVSPropertyOp13
 70
     1
102
RTVSPropertyOp14
 70
     1
102
RTVSPropertyOp15
 70
     1
102
RTVSPropertyOp16
 70
     1
102
RTVSPropertyOp17
 70
     1
102
RTVSPropertyOp18
 70
     1
102
RTVSPropertyOp19
 70
     1
102
RTVSPropertyOp20
 70
     1
102
RTVSPropertyOp21
 70
     1
102
RTVSPropertyOp22
 70
     1
102
RTVSPropertyOp23
 70
     1
102
RTVSPropertyOp24
 70
     1
102
RTVSPropertyOp25
 70
     1
102
RTVSPropertyOp26
 70
     1
102
RTVSPropertyOp27
 70
     1
102
RTVSPropertyOp28
 70
     1
102
RTVSPropertyOp29
 70
     1
102
RTVSPropertyOp30
 70
     1
102
RTVSPropertyOp31
 70
     1
102
RTVSPropertyOp32
 70
     1
  0
XRECORD
  5
29C
102
{ACAD_REACTORS
330
29B
102
}
330
29B
100
AcDbXrecord
280
     1
102
RTVSPropertyOp0
 70
     1
102
RTVSPropertyOp1
 70
     1
102
RTVSPropertyOp2
 70
     1
102
RTVSPropertyOp3
 70
     1
102
RTVSPropertyOp4
 70
     1
102
RTVSPropertyOp5
 70
     1
102
RTVSPropertyOp6
 70
     1
102
RTVSPropertyOp7
 70
     1
102
RTVSPropertyOp8
 70
     1
102
RTVSPropertyOp9
 70
     1
102
RTVSPropertyOp10
 70
     1
102
RTVSPropertyOp11
 70
     1
102
RTVSPropertyOp12
 70
     1
102
RTVSPropertyOp13
 70
     1
102
RTVSPropertyOp14
 70
     1
102
RTVSPropertyOp15
 70
     1
102
RTVSPropertyOp16
 70
     1
102
RTVSPropertyOp17
 70
     1
102
RTVSPropertyOp18
 70
     1
102
RTVSPropertyOp19
 70
     1
102
RTVSPropertyOp20
 70
     1
102
RTVSPropertyOp21
 70
     1
102
RTVSPropertyOp22
 70
     1
102
RTVSPropertyOp23
 70
     1
102
RTVSPropertyOp24
 70
     1
102
RTVSPropertyOp25
 70
     1
102
RTVSPropertyOp26
 70
     1
102
RTVSPropertyOp27
 70
     1
102
RTVSPropertyOp28
 70
     1
102
RTVSPropertyOp29
 70
     1
102
RTVSPropertyOp30
 70
     1
102
RTVSPropertyOp31
 70
     1
102
RTVSPropertyOp32
 70
     1
  0
XRECORD
  5
2B0
102
{ACAD_REACTORS
330
2AF
102
}
330
2AF
100
AcDbXrecord
280
     1
102
RTVSPropertyOp0
 70
     1
102
RTVSPropertyOp1
 70
     1
102
RTVSPropertyOp2
 70
     1
102
RTVSPropertyOp3
 70
     1
102
RTVSPropertyOp4
 70
     1
102
RTVSPropertyOp5
 70
     1
102
RTVSPropertyOp6
 70
     1
102
RTVSPropertyOp7
 70
     1
102
RTVSPropertyOp8
 70
     1
102
RTVSPropertyOp9
 70
     1
102
RTVSPropertyOp10
 70
     1
102
RTVSPropertyOp11
 70
     1
102
RTVSPropertyOp12
 70
     1
102
RTVSPropertyOp13
 70
     1
102
RTVSPropertyOp14
 70
     1
102
RTVSPropertyOp15
 70
     1
102
RTVSPropertyOp16
 70
     1
102
RTVSPropertyOp17
 70
     1
102
RTVSPropertyOp18
 70
     1
102
RTVSPropertyOp19
 70
     1
102
RTVSPropertyOp20
 70
     1
102
RTVSPropertyOp21
 70
     1
102
RTVSPropertyOp22
 70
     1
102
RTVSPropertyOp23
 70
     1
102
RTVSPropertyOp24
 70
     1
102
RTVSPropertyOp25
 70
     1
102
RTVSPropertyOp26
 70
     1
102
RTVSPropertyOp27
 70
     1
102
RTVSPropertyOp28
 70
     1
102
RTVSPropertyOp29
 70
     1
102
RTVSPropertyOp30
 70
     1
102
RTVSPropertyOp31
 70
     1
102
RTVSPropertyOp32
 70
     1
  0
XRECORD
  5
2A6
102
{ACAD_REACTORS
330
2A5
102
}
330
2A5
100
AcDbXrecord
280
     1
102
RTVSPropertyOp0
 70
     1
102
RTVSPropertyOp1
 70
     1
102
RTVSPropertyOp2
 70
     1
102
RTVSPropertyOp3
 70
     1
102
RTVSPropertyOp4
 70
     1
102
RTVSPropertyOp5
 70
     1
102
RTVSPropertyOp6
 70
     1
102
RTVSPropertyOp7
 70
     1
102
RTVSPropertyOp8
 70
     1
102
RTVSPropertyOp9
 70
     1
102
RTVSPropertyOp10
 70
     1
102
RTVSPropertyOp11
 70
     1
102
RTVSPropertyOp12
 70
     1
102
RTVSPropertyOp13
 70
     1
102
RTVSPropertyOp14
 70
     1
102
RTVSPropertyOp15
 70
     1
102
RTVSPropertyOp16
 70
     1
102
RTVSPropertyOp17
 70
     1
102
RTVSPropertyOp18
 70
     1
102
RTVSPropertyOp19
 70
     1
102
RTVSPropertyOp20
 70
     1
102
RTVSPropertyOp21
 70
     1
102
RTVSPropertyOp22
 70
     1
102
RTVSPropertyOp23
 70
     1
102
RTVSPropertyOp24
 70
     1
102
RTVSPropertyOp25
 70
     1
102
RTVSPropertyOp26
 70
     1
102
RTVSPropertyOp27
 70
     1
102
RTVSPropertyOp28
 70
     1
102
RTVSPropertyOp29
 70
     1
102
RTVSPropertyOp30
 70
     1
102
RTVSPropertyOp31
 70
     1
102
RTVSPropertyOp32
 70
     1
  0
XRECORD
  5
2AE
102
{ACAD_REACTORS
330
2AD
102
}
330
2AD
100
AcDbXrecord
280
     1
102
RTVSPropertyOp0
 70
     1
102
RTVSPropertyOp1
 70
     1
102
RTVSPropertyOp2
 70
     1
102
RTVSPropertyOp3
 70
     1
102
RTVSPropertyOp4
 70
     1
102
RTVSPropertyOp5
 70
     1
102
RTVSPropertyOp6
 70
     1
102
RTVSPropertyOp7
 70
     1
102
RTVSPropertyOp8
 70
     1
102
RTVSPropertyOp9
 70
     1
102
RTVSPropertyOp10
 70
     1
102
RTVSPropertyOp11
 70
     1
102
RTVSPropertyOp12
 70
     1
102
RTVSPropertyOp13
 70
     1
102
RTVSPropertyOp14
 70
     1
102
RTVSPropertyOp15
 70
     1
102
RTVSPropertyOp16
 70
     1
102
RTVSPropertyOp17
 70
     1
102
RTVSPropertyOp18
 70
     1
102
RTVSPropertyOp19
 70
     1
102
RTVSPropertyOp20
 70
     1
102
RTVSPropertyOp21
 70
     1
102
RTVSPropertyOp22
 70
     1
102
RTVSPropertyOp23
 70
     1
102
RTVSPropertyOp24
 70
     1
102
RTVSPropertyOp25
 70
     1
102
RTVSPropertyOp26
 70
     1
102
RTVSPropertyOp27
 70
     1
102
RTVSPropertyOp28
 70
     1
102
RTVSPropertyOp29
 70
     1
102
RTVSPropertyOp30
 70
     1
102
RTVSPropertyOp31
 70
     1
102
RTVSPropertyOp32
 70
     1
  0
ENDSEC
  0
EOF
