  0
SECTION
  2
HEADER
  9
$ACADVER
  1
AC1015
  9
$ACADMAINTVER
 70
     6
  9
$DWGCODEPAGE
  3
ANSI_932
  9
$INSBASE
 10
0.0
 20
0.0
 30
0.0
  9
$EXTMIN
 10
-185.0
 20
-139.9999999999999
 30
0.0
  9
$EXTMAX
 10
201.0
 20
140.0
 30
0.0
  9
$LIMMIN
 10
0.0
 20
0.0
  9
$LIMMAX
 10
12.0
 20
9.0
  9
$ORTHOMODE
 70
     0
  9
$REGENMODE
 70
     1
  9
$FILLMODE
 70
     1
  9
$QTEXTMODE
 70
     0
  9
$MIRRTEXT
 70
     1
  9
$LTSCALE
 40
12.7
  9
$ATTMODE
 70
     1
  9
$TEXTSIZE
 40
0.2
  9
$TRACEWID
 40
1.0
  9
$TEXTSTYLE
  7
STANDARD
  9
$CLAYER
  8
一般
  9
$CELTYPE
  6
ByLayer
  9
$CECOLOR
 62
   256
  9
$CELTSCALE
 40
1.0
  9
$DISPSILH
 70
     0
  9
$DIMSCALE
 40
1.0
  9
$DIMASZ
 40
2.5393798828125
  9
$DIMEXO
 40
0.0
  9
$DIMDLI
 40
0.06
  9
$DIMRND
 40
0.0
  9
$DIMDLE
 40
0.0
  9
$DIMEXE
 40
0.014
  9
$DIMTP
 40
0.0
  9
$DIMTM
 40
0.0
  9
$DIMTXT
 40
2.411714039621017
  9
$DIMCEN
 40
0.0
  9
$DIMTSZ
 40
0.0
  9
$DIMTOL
 70
     0
  9
$DIMLIM
 70
     0
  9
$DIMTIH
 70
     0
  9
$DIMTOH
 70
     0
  9
$DIMSE1
 70
     0
  9
$DIMSE2
 70
     0
  9
$DIMTAD
 70
     1
  9
$DIMZIN
 70
     8
  9
$DIMBLK
  1
VW_EMPTYARROW
  9
$DIMASO
 70
     1
  9
$DIMSHO
 70
     1
  9
$DIMPOST
  1
<>
  9
$DIMAPOST
  1
[]
  9
$DIMALT
 70
     0
  9
$DIMALTD
 70
     3
  9
$DIMALTF
 40
0.0393700787401575
  9
$DIMLFAC
 40
1.0
  9
$DIMTOFL
 70
     1
  9
$DIMTVP
 40
0.0
  9
$DIMTIX
 70
     1
  9
$DIMSOXD
 70
     0
  9
$DIMSAH
 70
     0
  9
$DIMBLK1
  1
VW_EMPTYARROW
  9
$DIMBLK2
  1
VW_EMPTYARROW
  9
$DIMSTYLE
  2
MSP明朝寸法1
  9
$DIMCLRD
 70
     0
  9
$DIMCLRE
 70
     0
  9
$DIMCLRT
 70
     0
  9
$DIMTFAC
 40
1.0
  9
$DIMGAP
 40
0.02
  9
$DIMJUST
 70
     0
  9
$DIMSD1
 70
     0
  9
$DIMSD2
 70
     0
  9
$DIMTOLJ
 70
     1
  9
$DIMTZIN
 70
     8
  9
$DIMALTZ
 70
     8
  9
$DIMALTTZ
 70
     8
  9
$DIMUPT
 70
     0
  9
$DIMDEC
 70
     1
  9
$DIMTDEC
 70
     1
  9
$DIMALTU
 70
     4
  9
$DIMALTTD
 70
     2
  9
$DIMTXSTY
  7
MS PMincho
  9
$DIMAUNIT
 70
     0
  9
$DIMADEC
 70
     2
  9
$DIMALTRND
 40
0.0
  9
$DIMAZIN
 70
     0
  9
$DIMDSEP
 70
    46
  9
$DIMATFIT
 70
     0
  9
$DIMFRAC
 70
     2
  9
$DIMLDRBLK
  1
VW_EMPTYARROW
  9
$DIMLUNIT
 70
     2
  9
$DIMLWD
 70
    -2
  9
$DIMLWE
 70
    -2
  9
$DIMTMOVE
 70
     0
  9
$LUNITS
 70
     2
  9
$LUPREC
 70
     4
  9
$SKETCHINC
 40
0.1
  9
$FILLETRAD
 40
0.5
  9
$AUNITS
 70
     0
  9
$AUPREC
 70
     0
  9
$MENU
  1
.
  9
$ELEVATION
 40
0.0
  9
$PELEVATION
 40
0.0
  9
$THICKNESS
 40
0.0
  9
$LIMCHECK
 70
     0
  9
$CHAMFERA
 40
0.5
  9
$CHAMFERB
 40
0.5
  9
$CHAMFERC
 40
1.0
  9
$CHAMFERD
 40
0.0
  9
$SKPOLY
 70
     0
  9
$TDCREATE
 40
2456140.666006945
  9
$TDUCREATE
 40
2456140.291006945
  9
$TDUPDATE
 40
2456140.666006945
  9
$TDUUPDATE
 40
2456140.291006945
  9
$TDINDWG
 40
0.0000000116
  9
$TDUSRTIMER
 40
0.0000000116
  9
$USRTIMER
 70
     1
  9
$ANGBASE
 50
0.0
  9
$ANGDIR
 70
     0
  9
$PDMODE
 70
     1
  9
$PDSIZE
 40
-2.0
  9
$PLINEWID
 40
0.0
  9
$SPLFRAME
 70
     0
  9
$SPLINETYPE
 70
     6
  9
$SPLINESEGS
 70
     8
  9
$HANDSEED
  5
3A1
  9
$SURFTAB1
 70
     6
  9
$SURFTAB2
 70
     6
  9
$SURFTYPE
 70
     6
  9
$SURFU
 70
     6
  9
$SURFV
 70
     6
  9
$UCSBASE
  2

  9
$UCSNAME
  2

  9
$UCSORG
 10
0.0
 20
0.0
 30
0.0
  9
$UCSXDIR
 10
1.0
 20
0.0
 30
0.0
  9
$UCSYDIR
 10
0.0
 20
1.0
 30
0.0
  9
$UCSORTHOREF
  2

  9
$UCSORTHOVIEW
 70
     0
  9
$UCSORGTOP
 10
0.0
 20
0.0
 30
0.0
  9
$UCSORGBOTTOM
 10
0.0
 20
0.0
 30
0.0
  9
$UCSORGLEFT
 10
0.0
 20
0.0
 30
0.0
  9
$UCSORGRIGHT
 10
0.0
 20
0.0
 30
0.0
  9
$UCSORGFRONT
 10
0.0
 20
0.0
 30
0.0
  9
$UCSORGBACK
 10
0.0
 20
0.0
 30
0.0
  9
$PUCSBASE
  2

  9
$PUCSNAME
  2

  9
$PUCSORG
 10
0.0
 20
0.0
 30
0.0
  9
$PUCSXDIR
 10
1.0
 20
0.0
 30
0.0
  9
$PUCSYDIR
 10
0.0
 20
1.0
 30
0.0
  9
$PUCSORTHOREF
  2

  9
$PUCSORTHOVIEW
 70
     0
  9
$PUCSORGTOP
 10
0.0
 20
0.0
 30
0.0
  9
$PUCSORGBOTTOM
 10
0.0
 20
0.0
 30
0.0
  9
$PUCSORGLEFT
 10
0.0
 20
0.0
 30
0.0
  9
$PUCSORGRIGHT
 10
0.0
 20
0.0
 30
0.0
  9
$PUCSORGFRONT
 10
0.0
 20
0.0
 30
0.0
  9
$PUCSORGBACK
 10
0.0
 20
0.0
 30
0.0
  9
$USERI1
 70
     0
  9
$USERI2
 70
     0
  9
$USERI3
 70
     0
  9
$USERI4
 70
     0
  9
$USERI5
 70
     0
  9
$USERR1
 40
0.0
  9
$USERR2
 40
0.0
  9
$USERR3
 40
0.0
  9
$USERR4
 40
0.0
  9
$USERR5
 40
0.0
  9
$WORLDVIEW
 70
     1
  9
$SHADEDGE
 70
     3
  9
$SHADEDIF
 70
    70
  9
$TILEMODE
 70
     1
  9
$MAXACTVP
 70
    64
  9
$PINSBASE
 10
0.0
 20
0.0
 30
0.0
  9
$PLIMCHECK
 70
     0
  9
$PEXTMIN
 10
1.000000000000000E+20
 20
1.000000000000000E+20
 30
1.000000000000000E+20
  9
$PEXTMAX
 10
-1.000000000000000E+20
 20
-1.000000000000000E+20
 30
-1.000000000000000E+20
  9
$PLIMMIN
 10
-20.0
 20
-7.5
  9
$PLIMMAX
 10
277.0
 20
202.5
  9
$UNITMODE
 70
     0
  9
$VISRETAIN
 70
     1
  9
$PLINEGEN
 70
     0
  9
$PSLTSCALE
 70
     1
  9
$TREEDEPTH
 70
  3020
  9
$CMLSTYLE
  2
Standard
  9
$CMLJUST
 70
     0
  9
$CMLSCALE
 40
1.0
  9
$PROXYGRAPHICS
 70
     1
  9
$MEASUREMENT
 70
     1
  9
$CELWEIGHT
370
    -1
  9
$ENDCAPS
280
     0
  9
$JOINSTYLE
280
     0
  9
$LWDISPLAY
290
     1
  9
$INSUNITS
 70
     4
  9
$HYPERLINKBASE
  1

  9
$STYLESHEET
  1

  9
$XEDIT
290
     1
  9
$CEPSNTYPE
380
     0
  9
$PSTYLEMODE
290
     1
  9
$FINGERPRINTGUID
  2
{1C54E14A-6E9F-EB3A-9BBD-197DEAA87331}
  9
$VERSIONGUID
  2
{FAEB1C32-E019-11D5-929B-00C0DF256EC4}
  9
$EXTNAMES
290
     1
  9
$PSVPSCALE
 40
0.0
  9
$OLESTARTUP
290
     0
  0
ENDSEC
  0
SECTION
  2
CLASSES
  0
CLASS
  1
ACDBDICTIONARYWDFLT
  2
AcDbDictionaryWithDefault
  3
ObjectDBX Classes
 90
        0
280
     0
281
     0
  0
CLASS
  1
VISUALSTYLE
  2
AcDbVisualStyle
  3
ObjectDBX Classes
 90
     4095
280
     0
281
     0
  0
CLASS
  1
MATERIAL
  2
AcDbMaterial
  3
ObjectDBX Classes
 90
     1153
280
     0
281
     0
  0
CLASS
  1
WIPEOUTVARIABLES
  2
AcDbWipeoutVariables
  3
WipeOut|AutoCAD Express Tool|expresstools@autodesk.com
 90
        0
280
     0
281
     0
  0
CLASS
  1
DICTIONARYVAR
  2
AcDbDictionaryVar
  3
ObjectDBX Classes
 90
        0
280
     0
281
     0
  0
CLASS
  1
ACDBPLACEHOLDER
  2
AcDbPlaceHolder
  3
ObjectDBX Classes
 90
        0
280
     0
281
     0
  0
CLASS
  1
LAYOUT
  2
AcDbLayout
  3
ObjectDBX Classes
 90
        0
280
     0
281
     0
  0
ENDSEC
  0
SECTION
  2
TABLES
  0
TABLE
  2
VPORT
  5
8
330
0
100
AcDbSymbolTable
 70
     1
  0
VPORT
  5
29
330
8
100
AcDbSymbolTableRecord
100
AcDbViewportTableRecord
  2
*Active
 70
     0
 10
0.0
 20
0.0
 11
1.0
 21
1.0
 12
8.0
 22
0.0000000000000568
 13
0.0
 23
0.0
 14
0.5
 24
0.5
 15
0.5
 25
0.5
 16
0.0
 26
0.0
 36
1.0
 17
0.0
 27
0.0
 37
0.0
 40
279.9999999999999
 41
0.0634169884130463
 42
2000.0
 43
0.0
 44
0.0
 50
0.0
 51
0.0
 71
     0
 72
   100
 73
     1
 74
     3
 75
     0
 76
     0
 77
     0
 78
     0
281
     0
 65
     1
110
0.0
120
0.0
130
0.0
111
1.0
121
0.0
131
0.0
112
0.0
122
1.0
132
0.0
 79
     0
146
0.0
  0
ENDTAB
  0
TABLE
  2
LTYPE
  5
5
330
0
100
AcDbSymbolTable
 70
    16
  0
LTYPE
  5
14
330
5
100
AcDbSymbolTableRecord
100
AcDbLinetypeTableRecord
  2
ByBlock
 70
     0
  3

 72
    65
 73
     0
 40
0.0
  0
LTYPE
  5
15
330
5
100
AcDbSymbolTableRecord
100
AcDbLinetypeTableRecord
  2
ByLayer
 70
     0
  3

 72
    65
 73
     0
 40
0.0
  0
LTYPE
  5
16
330
5
100
AcDbSymbolTableRecord
100
AcDbLinetypeTableRecord
  2
Continuous
 70
     0
  3
Solid line
 72
    65
 73
     0
 40
0.0
  0
LTYPE
  5
8A
330
5
100
AcDbSymbolTableRecord
100
AcDbLinetypeTableRecord
  2
破線の種類-1
 70
     0
  3

 72
    65
 73
     2
 40
0.083312
 49
0.083312
 74
     0
 49
-0.083344
 74
     0
  0
LTYPE
  5
8B
330
5
100
AcDbSymbolTableRecord
100
AcDbLinetypeTableRecord
  2
破線の種類-2
 70
     0
  3

 72
    65
 73
     2
 40
0.194428
 49
0.194428
 74
     0
 49
-0.083342
 74
     0
  0
LTYPE
  5
8C
330
5
100
AcDbSymbolTableRecord
100
AcDbLinetypeTableRecord
  2
破線の種類-3
 70
     0
  3

 72
    65
 73
     2
 40
0.416656
 49
0.416656
 74
     0
 49
-0.083344
 74
     0
  0
LTYPE
  5
8D
330
5
100
AcDbSymbolTableRecord
100
AcDbLinetypeTableRecord
  2
破線の種類-4
 70
     0
  3

 72
    65
 73
     2
 40
0.52777
 49
0.52777
 74
     0
 49
-0.083314
 74
     0
  0
LTYPE
  5
8E
330
5
100
AcDbSymbolTableRecord
100
AcDbLinetypeTableRecord
  2
破線の種類-5
 70
     0
  3

 72
    65
 73
     2
 40
0.02777
 49
0.02777
 74
     0
 49
-0.055542
 74
     0
  0
LTYPE
  5
8F
330
5
100
AcDbSymbolTableRecord
100
AcDbLinetypeTableRecord
  2
破線の種類-6
 70
     0
  3

 72
    65
 73
     4
 40
0.25
 49
0.25
 74
     0
 49
-0.083312
 74
     0
 49
0.027772
 74
     0
 49
-0.055572
 74
     0
  0
LTYPE
  5
90
330
5
100
AcDbSymbolTableRecord
100
AcDbLinetypeTableRecord
  2
破線の種類-7
 70
     0
  3

 72
    65
 73
     6
 40
0.25
 49
0.25
 74
     0
 49
-0.083312
 74
     0
 49
0.2500000000000001
 74
     0
 49
-0.083344
 74
     0
 49
0.027772
 74
     0
 49
-0.055572
 74
     0
  0
LTYPE
  5
91
330
5
100
AcDbSymbolTableRecord
100
AcDbLinetypeTableRecord
  2
破線の種類-8
 70
     0
  3

 72
    65
 73
     6
 40
0.25
 49
0.25
 74
     0
 49
-0.083312
 74
     0
 49
0.027772
 74
     0
 49
-0.055572
 74
     0
 49
0.027772
 74
     0
 49
-0.055572
 74
     0
  0
LTYPE
  5
92
330
5
100
AcDbSymbolTableRecord
100
AcDbLinetypeTableRecord
  2
破線の種類-9
 70
     0
  3

 72
    65
 73
     4
 40
1.5
 49
1.5
 74
     0
 49
-0.1111139999999999
 74
     0
 49
0.2777720000000001
 74
     0
 49
-0.1111139999999999
 74
     0
  0
LTYPE
  5
93
330
5
100
AcDbSymbolTableRecord
100
AcDbLinetypeTableRecord
  2
破線の種類-10
 70
     0
  3

 72
    65
 73
     6
 40
1.5
 49
1.5
 74
     0
 49
-0.1111139999999999
 74
     0
 49
0.2777720000000001
 74
     0
 49
-0.1111139999999999
 74
     0
 49
0.25
 74
     0
 49
-0.125
 74
     0
  0
LTYPE
  5
94
330
5
100
AcDbSymbolTableRecord
100
AcDbLinetypeTableRecord
  2
破線の種類-11
 70
     0
  3

 72
    65
 73
     4
 40
0.9444580078125
 49
0.9444580078125
 74
     0
 49
-0.0555419921875
 74
     0
 49
0.0555419921875
 74
     0
 49
-0.055572509765625
 74
     0
  0
LTYPE
  5
95
330
5
100
AcDbSymbolTableRecord
100
AcDbLinetypeTableRecord
  2
破線の種類-12
 70
     0
  3

 72
    65
 73
     6
 40
0.611114501953125
 49
0.611114501953125
 74
     0
 49
-0.0555521647135416
 74
     0
 49
0.0555555555555556
 74
     0
 49
-0.0833333333333334
 74
     0
 49
0.0555555555555556
 74
     0
 49
-0.0555555555555555
 74
     0
  0
LTYPE
  5
96
330
5
100
AcDbSymbolTableRecord
100
AcDbLinetypeTableRecord
  2
破線の種類-13
 70
     0
  3

 72
    65
 73
     4
 40
0.6944444444444444
 49
0.6944444444444444
 74
     0
 49
-0.1111111111111112
 74
     0
 49
0.111111111111111
 74
     0
 49
-0.111111111111111
 74
     0
  0
LTYPE
  5
97
330
5
100
AcDbSymbolTableRecord
100
AcDbLinetypeTableRecord
  2
破線の種類-14
 70
     0
  3

 72
    65
 73
     4
 40
0.25
 49
0.25
 74
     0
 49
-0.083312
 74
     0
 49
0.027772
 74
     0
 49
-0.055572
 74
     0
  0
LTYPE
  5
98
330
5
100
AcDbSymbolTableRecord
100
AcDbLinetypeTableRecord
  2
HIDDEN
 70
     0
  3

 72
    65
 73
     2
 40
0.0196850393700787
 49
0.0196850393700787
 74
     0
 49
-0.0098425196850394
 74
     0
  0
ENDTAB
  0
TABLE
  2
LAYER
  5
2
330
0
100
AcDbSymbolTable
 70
     4
  0
LAYER
  5
10
330
2
100
AcDbSymbolTableRecord
100
AcDbLayerTableRecord
  2
0
 70
     0
 62
     7
  6
Continuous
370
    -3
390
F
  0
LAYER
  5
99
330
2
100
AcDbSymbolTableRecord
100
AcDbLayerTableRecord
  2
一般
 70
     0
 62
     7
  6
Continuous
370
     9
390
F
1001
AcCmTransparency
1071
 33554687
  0
LAYER
  5
9B
330
2
100
AcDbSymbolTableRecord
100
AcDbLayerTableRecord
  2
寸法
 70
     0
 62
     7
  6
Continuous
370
     9
390
F
1001
AcCmTransparency
1071
 33554687
  0
LAYER
  5
9C
330
2
100
AcDbSymbolTableRecord
100
AcDbLayerTableRecord
  2
Defpoints
 70
     0
 62
     7
  6
Continuous
290
     0
370
    -3
390
F
  0
ENDTAB
  0
TABLE
  2
STYLE
  5
3
330
0
100
AcDbSymbolTable
 70
     3
  0
STYLE
  5
11
330
3
100
AcDbSymbolTableRecord
100
AcDbTextStyleTableRecord
  2
STANDARD
 70
     0
 40
0.0
 41
1.0
 50
0.0
 71
     0
 42
0.2
  3
txt
  4
BIGFONT.SHX
  0
STYLE
  5
88
330
3
100
AcDbSymbolTableRecord
100
AcDbTextStyleTableRecord
  2
MS PMincho
 70
     0
 40
0.0
 41
1.0
 50
0.0
 71
     0
 42
0.0
  3
MS PMincho
  4

1001
ACAD
1000
MS PMincho
1071
        0
  0
STYLE
  5
89
330
3
100
AcDbSymbolTableRecord
100
AcDbTextStyleTableRecord
  2
Osaka
 70
     0
 40
0.0
 41
1.0
 50
0.0
 71
     0
 42
0.0
  3

  4
Osaka
1001
ACAD
1000
Osaka
1071
        0
  0
ENDTAB
  0
TABLE
  2
VIEW
  5
6
330
0
100
AcDbSymbolTable
 70
     0
  0
ENDTAB
  0
TABLE
  2
UCS
  5
7
330
0
100
AcDbSymbolTable
 70
     0
  0
ENDTAB
  0
TABLE
  2
APPID
  5
9
330
0
100
AcDbSymbolTable
 70
     2
  0
APPID
  5
12
330
9
100
AcDbSymbolTableRecord
100
AcDbRegAppTableRecord
  2
ACAD
 70
     0
  0
APPID
  5
9A
330
9
100
AcDbSymbolTableRecord
100
AcDbRegAppTableRecord
  2
AcCmTransparency
 70
     0
  0
ENDTAB
  0
TABLE
  2
DIMSTYLE
  5
A
330
0
100
AcDbSymbolTable
 70
     2
100
AcDbDimStyleTable
  0
DIMSTYLE
105
27
330
A
100
AcDbSymbolTableRecord
100
AcDbDimStyleTableRecord
  2
Standard
 70
     0
178
     0
340
11
  0
DIMSTYLE
105
9D
102
{ACAD_REACTORS
330
33A
330
33B
330
350
330
351
330
352
330
359
330
362
330
363
330
365
330
366
330
367
330
368
330
369
330
371
330
372
102
}
330
A
100
AcDbSymbolTableRecord
100
AcDbDimStyleTableRecord
  2
MSP明朝寸法1
 70
     0
  3
<>
  4
[]
 41
2.5393798828125
 42
0.0
 43
0.06
 44
0.014
 73
     0
 74
     0
 77
     1
 78
     8
140
2.411714039621017
141
0.0
143
0.0393700787401575
147
0.02
171
     3
172
     1
174
     1
178
     0
179
     2
271
     1
272
     1
273
     4
276
     2
284
     8
285
     8
286
     8
289
     0
340
88
341
9E
342
9E
343
9E
344
9E
  0
ENDTAB
  0
TABLE
  2
BLOCK_RECORD
  5
1
330
0
100
AcDbSymbolTable
 70
    26
  0
BLOCK_RECORD
  5
1F
330
1
100
AcDbSymbolTableRecord
100
AcDbBlockTableRecord
  2
*Model_Space
340
22
  0
BLOCK_RECORD
  5
1B
330
1
100
AcDbSymbolTableRecord
100
AcDbBlockTableRecord
  2
*Paper_Space
340
1E
  0
BLOCK_RECORD
  5
3F
330
1
100
AcDbSymbolTableRecord
100
AcDbBlockTableRecord
  2
*D1
340
0
  0
BLOCK_RECORD
  5
42
330
1
100
AcDbSymbolTableRecord
100
AcDbBlockTableRecord
  2
*D2
340
0
  0
BLOCK_RECORD
  5
45
330
1
100
AcDbSymbolTableRecord
100
AcDbBlockTableRecord
  2
グループ-1
340
0
102
{BLKREFS
331
221
102
}
  0
BLOCK_RECORD
  5
48
330
1
100
AcDbSymbolTableRecord
100
AcDbBlockTableRecord
  2
グループ-2-1
340
0
102
{BLKREFS
331
222
102
}
  0
BLOCK_RECORD
  5
4B
330
1
100
AcDbSymbolTableRecord
100
AcDbBlockTableRecord
  2
グループ-3-1
340
0
102
{BLKREFS
331
223
102
}
  0
BLOCK_RECORD
  5
4E
330
1
100
AcDbSymbolTableRecord
100
AcDbBlockTableRecord
  2
グループ-4-1
340
0
102
{BLKREFS
331
224
102
}
  0
BLOCK_RECORD
  5
51
330
1
100
AcDbSymbolTableRecord
100
AcDbBlockTableRecord
  2
グループ-5-1
340
0
102
{BLKREFS
331
225
102
}
  0
BLOCK_RECORD
  5
54
330
1
100
AcDbSymbolTableRecord
100
AcDbBlockTableRecord
  2
グループ-6-1
340
0
102
{BLKREFS
331
226
102
}
  0
BLOCK_RECORD
  5
57
330
1
100
AcDbSymbolTableRecord
100
AcDbBlockTableRecord
  2
グループ-7-1
340
0
102
{BLKREFS
331
227
102
}
  0
BLOCK_RECORD
  5
5A
330
1
100
AcDbSymbolTableRecord
100
AcDbBlockTableRecord
  2
グループ-8-1
340
0
102
{BLKREFS
331
228
102
}
  0
BLOCK_RECORD
  5
5D
330
1
100
AcDbSymbolTableRecord
100
AcDbBlockTableRecord
  2
グループ-9-1
340
0
102
{BLKREFS
331
34F
102
}
  0
BLOCK_RECORD
  5
60
330
1
100
AcDbSymbolTableRecord
100
AcDbBlockTableRecord
  2
*D12
340
0
  0
BLOCK_RECORD
  5
63
330
1
100
AcDbSymbolTableRecord
100
AcDbBlockTableRecord
  2
*D13
340
0
  0
BLOCK_RECORD
  5
66
330
1
100
AcDbSymbolTableRecord
100
AcDbBlockTableRecord
  2
*D14
340
0
  0
BLOCK_RECORD
  5
69
330
1
100
AcDbSymbolTableRecord
100
AcDbBlockTableRecord
  2
*D15
340
0
  0
BLOCK_RECORD
  5
6C
330
1
100
AcDbSymbolTableRecord
100
AcDbBlockTableRecord
  2
*D16
340
0
  0
BLOCK_RECORD
  5
6F
330
1
100
AcDbSymbolTableRecord
100
AcDbBlockTableRecord
  2
*D17
340
0
  0
BLOCK_RECORD
  5
72
330
1
100
AcDbSymbolTableRecord
100
AcDbBlockTableRecord
  2
*D18
340
0
  0
BLOCK_RECORD
  5
75
330
1
100
AcDbSymbolTableRecord
100
AcDbBlockTableRecord
  2
*D19
340
0
  0
BLOCK_RECORD
  5
78
330
1
100
AcDbSymbolTableRecord
100
AcDbBlockTableRecord
  2
*D20
340
0
  0
BLOCK_RECORD
  5
7B
330
1
100
AcDbSymbolTableRecord
100
AcDbBlockTableRecord
  2
*D21
340
0
  0
BLOCK_RECORD
  5
7E
330
1
100
AcDbSymbolTableRecord
100
AcDbBlockTableRecord
  2
*D22
340
0
  0
BLOCK_RECORD
  5
81
330
1
100
AcDbSymbolTableRecord
100
AcDbBlockTableRecord
  2
*D23
340
0
  0
BLOCK_RECORD
  5
84
330
1
100
AcDbSymbolTableRecord
100
AcDbBlockTableRecord
  2
*D24
340
0
  0
BLOCK_RECORD
  5
9E
330
1
100
AcDbSymbolTableRecord
100
AcDbBlockTableRecord
  2
VW_EMPTYARROW
340
0
102
{BLKREFS
331
AF
331
AA
331
C0
331
BB
331
231
331
22C
331
242
331
23D
331
253
331
24E
331
266
331
265
331
273
331
272
331
28A
331
285
331
29B
331
296
331
2AC
331
2A7
331
2BD
331
2B8
331
2CA
331
2C9
331
2E1
331
2DC
331
2EE
331
2ED
331
305
331
300
102
}
  0
ENDTAB
  0
ENDSEC
  0
SECTION
  2
BLOCKS
  0
BLOCK
  5
20
330
1F
100
AcDbEntity
  8
0
100
AcDbBlockBegin
  2
*Model_Space
 70
     0
 10
0.0
 20
0.0
 30
0.0
  3
*Model_Space
  1

  0
ENDBLK
  5
21
330
1F
100
AcDbEntity
  8
0
100
AcDbBlockEnd
  0
BLOCK
  5
1C
330
1B
100
AcDbEntity
 67
     1
  8
0
100
AcDbBlockBegin
  2
*Paper_Space
 70
     0
 10
0.0
 20
0.0
 30
0.0
  3
*Paper_Space
  1

  0
ENDBLK
  5
1D
330
1B
100
AcDbEntity
 67
     1
  8
0
100
AcDbBlockEnd
  0
BLOCK
  5
40
330
3F
100
AcDbEntity
  8
0
100
AcDbBlockBegin
  2
*D1
 70
     1
 10
0.0
 20
0.0
 30
0.0
  3
*D1
  1

  0
LINE
  5
A7
330
3F
100
AcDbEntity
  8
寸法
  6
Continuous
 62
     0
370
    -2
100
AcDbLine
 10
-135.982361909795
 20
48.80000000000005
 30
0.0
 11
-149.014
 21
48.80000000000004
 31
0.0
  0
LINE
  5
A8
330
3F
100
AcDbEntity
  8
寸法
  6
Continuous
 62
     0
370
    -2
100
AcDbLine
 10
-135.982361909795
 20
108.8
 30
0.0
 11
-149.014
 21
108.8
 31
0.0
  0
LINE
  5
A9
330
3F
100
AcDbEntity
  8
寸法
  6
Continuous
 62
     0
370
    -2
100
AcDbLine
 10
-149.0
 20
51.33937988281254
 30
0.0
 11
-149.0
 21
106.2606201171875
 31
0.0
  0
INSERT
  5
AA
330
3F
100
AcDbEntity
  8
寸法
 62
     0
370
    -2
100
AcDbBlockReference
  2
VW_EMPTYARROW
 10
-149.0
 20
48.80000000000004
 30
0.0
 41
2.5393798828125
 42
2.5393798828125
 43
2.5393798828125
 50
270.0
  0
INSERT
  5
AF
330
3F
100
AcDbEntity
  8
寸法
 62
     0
370
    -2
100
AcDbBlockReference
  2
VW_EMPTYARROW
 10
-149.0
 20
108.8
 30
0.0
 41
2.5393798828125
 42
2.5393798828125
 43
2.5393798828125
 50
90.0
  0
MTEXT
  5
B4
330
3F
100
AcDbEntity
  8
寸法
 62
     0
370
     9
100
AcDbMText
 10
-150.2258570198105
 20
78.80000000000003
 30
0.0
 40
2.411714039621017
 41
0.0
 71
     5
 72
     1
  1
\A1;600
  7
MS PMincho
 11
0.0
 21
1.0
 31
0.0
 73
     1
 44
1.0
  0
POINT
  5
B5
330
3F
100
AcDbEntity
  8
Defpoints
 62
     0
100
AcDbPoint
 10
-135.982361909795
 20
48.80000000000005
 30
0.0
  0
POINT
  5
B6
330
3F
100
AcDbEntity
  8
Defpoints
 62
     0
100
AcDbPoint
 10
-135.982361909795
 20
108.8
 30
0.0
  0
POINT
  5
B7
330
3F
100
AcDbEntity
  8
Defpoints
 62
     0
100
AcDbPoint
 10
-149.0
 20
108.8
 30
0.0
  0
ENDBLK
  5
41
330
3F
100
AcDbEntity
  8
0
100
AcDbBlockEnd
  0
BLOCK
  5
43
330
42
100
AcDbEntity
  8
0
100
AcDbBlockBegin
  2
*D2
 70
     1
 10
0.0
 20
0.0
 30
0.0
  3
*D2
  1

  0
LINE
  5
B8
330
42
100
AcDbEntity
  8
寸法
  6
Continuous
 62
     0
370
    -2
100
AcDbLine
 10
144.0176380902051
 20
48.80000000000005
 30
0.0
 11
144.017638090205
 21
32.986
 31
0.0
  0
LINE
  5
B9
330
42
100
AcDbEntity
  8
寸法
  6
Continuous
 62
     0
370
    -2
100
AcDbLine
 10
-135.982361909795
 20
48.80000000000005
 30
0.0
 11
-135.982361909795
 21
32.986
 31
0.0
  0
LINE
  5
BA
330
42
100
AcDbEntity
  8
寸法
  6
Continuous
 62
     0
370
    -2
100
AcDbLine
 10
141.4782582073925
 20
33.0
 30
0.0
 11
-133.4429820269825
 21
33.0
 31
0.0
  0
INSERT
  5
BB
330
42
100
AcDbEntity
  8
寸法
 62
     0
370
    -2
100
AcDbBlockReference
  2
VW_EMPTYARROW
 10
144.017638090205
 20
33.0
 30
0.0
 41
2.5393798828125
 42
2.5393798828125
 43
2.5393798828125
  0
INSERT
  5
C0
330
42
100
AcDbEntity
  8
寸法
 62
     0
370
    -2
100
AcDbBlockReference
  2
VW_EMPTYARROW
 10
-135.982361909795
 20
33.0
 30
0.0
 41
2.5393798828125
 42
2.5393798828125
 43
2.5393798828125
 50
180.0
  0
MTEXT
  5
C5
330
42
100
AcDbEntity
  8
寸法
 62
     0
370
     9
100
AcDbMText
 10
4.017638090205025
 20
34.10527131782946
 30
0.0
 40
2.170542635658915
 41
0.0
 71
     5
 72
     1
  1
\A1;2800
  7
MS PMincho
 73
     1
 44
1.0
  0
POINT
  5
C6
330
42
100
AcDbEntity
  8
Defpoints
 62
     0
100
AcDbPoint
 10
144.0176380902051
 20
48.80000000000005
 30
0.0
  0
POINT
  5
C7
330
42
100
AcDbEntity
  8
Defpoints
 62
     0
100
AcDbPoint
 10
-135.982361909795
 20
48.80000000000005
 30
0.0
  0
POINT
  5
C8
330
42
100
AcDbEntity
  8
Defpoints
 62
     0
100
AcDbPoint
 10
-135.982361909795
 20
33.0
 30
0.0
  0
ENDBLK
  5
44
330
42
100
AcDbEntity
  8
0
100
AcDbBlockEnd
  0
BLOCK
  5
46
330
45
100
AcDbEntity
  8
0
100
AcDbBlockBegin
  2
グループ-1
 70
     0
 10
0.0
 20
0.0
 30
0.0
  3
グループ-1
  1

  0
POLYLINE
  5
C9
102
{ACAD_REACTORS
330
DB
102
}
330
45
100
AcDbEntity
  8
一般
  6
Continuous
 62
     7
370
     9
100
AcDb2dPolyline
 66
     1
 10
0.0
 20
0.0
 30
0.0
 70
   129
  0
VERTEX
  5
CA
330
C9
100
AcDbEntity
  8
一般
  6
Continuous
 62
     7
370
     9
100
AcDbVertex
100
AcDb2dVertex
 10
131.7674994574654
 20
-132.0459418402778
 30
0.0
  0
VERTEX
  5
CB
330
C9
100
AcDbEntity
  8
一般
  6
Continuous
 62
     7
370
     9
100
AcDbVertex
100
AcDb2dVertex
 10
134.3024007161459
 20
-132.0459418402778
 30
0.0
  0
VERTEX
  5
CC
330
C9
100
AcDbEntity
  8
一般
  6
Continuous
 62
     7
370
     9
100
AcDbVertex
100
AcDb2dVertex
 10
134.3024007161459
 20
-131.1357476128472
 30
0.0
  0
VERTEX
  5
CD
330
C9
100
AcDbEntity
  8
一般
  6
Continuous
 62
     7
370
     9
100
AcDbVertex
100
AcDb2dVertex
 10
135.2322319878472
 20
-131.1357476128472
 30
0.0
  0
VERTEX
  5
CE
330
C9
100
AcDbEntity
  8
一般
  6
Continuous
 62
     7
370
     9
100
AcDbVertex
100
AcDb2dVertex
 10
135.2322319878472
 20
-132.0459418402778
 30
0.0
  0
VERTEX
  5
CF
330
C9
100
AcDbEntity
  8
一般
  6
Continuous
 62
     7
370
     9
100
AcDbVertex
100
AcDb2dVertex
 10
137.7674777560765
 20
-132.0459418402778
 30
0.0
  0
VERTEX
  5
D0
330
C9
100
AcDbEntity
  8
一般
  6
Continuous
 62
     7
370
     9
100
AcDbVertex
100
AcDb2dVertex
 10
137.7674777560765
 20
-132.1961480034722
 30
0.0
  0
VERTEX
  5
D1
330
C9
100
AcDbEntity
  8
一般
  6
Continuous
 62
     7
370
     9
100
AcDbVertex
100
AcDb2dVertex
 10
135.2322319878472
 20
-132.1961480034722
 30
0.0
  0
VERTEX
  5
D2
330
C9
100
AcDbEntity
  8
一般
  6
Continuous
 62
     7
370
     9
100
AcDbVertex
100
AcDb2dVertex
 10
135.2322319878472
 20
-133.2158962673611
 30
0.0
  0
VERTEX
  5
D3
330
C9
100
AcDbEntity
  8
一般
  6
Continuous
 62
     7
370
     9
100
AcDbVertex
100
AcDb2dVertex
 10
137.2472683376737
 20
-133.2158962673611
 30
0.0
  0
VERTEX
  5
D4
330
C9
100
AcDbEntity
  8
一般
  6
Continuous
 62
     7
370
     9
100
AcDbVertex
100
AcDb2dVertex
 10
137.2472683376737
 20
-133.3661024305557
 30
0.0
  0
VERTEX
  5
D5
330
C9
100
AcDbEntity
  8
一般
  6
Continuous
 62
     7
370
     9
100
AcDbVertex
100
AcDb2dVertex
 10
132.2873643663195
 20
-133.3661024305557
 30
0.0
  0
VERTEX
  5
D6
330
C9
100
AcDbEntity
  8
一般
  6
Continuous
 62
     7
370
     9
100
AcDbVertex
100
AcDb2dVertex
 10
132.2873643663195
 20
-133.2158962673611
 30
0.0
  0
VERTEX
  5
D7
330
C9
100
AcDbEntity
  8
一般
  6
Continuous
 62
     7
370
     9
100
AcDbVertex
100
AcDb2dVertex
 10
134.3024007161459
 20
-133.2158962673611
 30
0.0
  0
VERTEX
  5
D8
330
C9
100
AcDbEntity
  8
一般
  6
Continuous
 62
     7
370
     9
100
AcDbVertex
100
AcDb2dVertex
 10
134.3024007161459
 20
-132.1961480034722
 30
0.0
  0
VERTEX
  5
D9
330
C9
100
AcDbEntity
  8
一般
  6
Continuous
 62
     7
370
     9
100
AcDbVertex
100
AcDb2dVertex
 10
131.7674994574654
 20
-132.1961480034722
 30
0.0
  0
SEQEND
  5
DA
330
C9
100
AcDbEntity
  8
一般
  6
Continuous
 62
     7
370
     9
  0
HATCH
  5
DB
330
45
100
AcDbEntity
  8
一般
  6
Continuous
 62
     7
370
     0
100
AcDbHatch
 10
0.0
 20
0.0
 30
0.0
210
0.0
220
0.0
230
1.0
  2
SOLID
 70
     1
 71
     1
 91
        1
 92
        1
 93
       16
 72
     1
 10
131.7674994574654
 20
-132.0459418402778
 11
134.3024007161459
 21
-132.0459418402778
 72
     1
 10
134.3024007161459
 20
-132.0459418402778
 11
134.3024007161459
 21
-131.1357476128472
 72
     1
 10
134.3024007161459
 20
-131.1357476128472
 11
135.2322319878472
 21
-131.1357476128472
 72
     1
 10
135.2322319878472
 20
-131.1357476128472
 11
135.2322319878472
 21
-132.0459418402778
 72
     1
 10
135.2322319878472
 20
-132.0459418402778
 11
137.7674777560765
 21
-132.0459418402778
 72
     1
 10
137.7674777560765
 20
-132.0459418402778
 11
137.7674777560765
 21
-132.1961480034722
 72
     1
 10
137.7674777560765
 20
-132.1961480034722
 11
135.2322319878472
 21
-132.1961480034722
 72
     1
 10
135.2322319878472
 20
-132.1961480034722
 11
135.2322319878472
 21
-133.2158962673611
 72
     1
 10
135.2322319878472
 20
-133.2158962673611
 11
137.2472683376737
 21
-133.2158962673611
 72
     1
 10
137.2472683376737
 20
-133.2158962673611
 11
137.2472683376737
 21
-133.3661024305557
 72
     1
 10
137.2472683376737
 20
-133.3661024305557
 11
132.2873643663195
 21
-133.3661024305557
 72
     1
 10
132.2873643663195
 20
-133.3661024305557
 11
132.2873643663195
 21
-133.2158962673611
 72
     1
 10
132.2873643663195
 20
-133.2158962673611
 11
134.3024007161459
 21
-133.2158962673611
 72
     1
 10
134.3024007161459
 20
-133.2158962673611
 11
134.3024007161459
 21
-132.1961480034722
 72
     1
 10
134.3024007161459
 20
-132.1961480034722
 11
131.7674994574654
 21
-132.1961480034722
 72
     1
 10
131.7674994574654
 20
-132.1961480034722
 11
131.7674994574654
 21
-132.0459418402778
 97
        1
330
C9
 75
     0
 76
     1
 98
        1
 10
0.0
 20
0.0
  0
POLYLINE
  5
DC
102
{ACAD_REACTORS
330
E8
102
}
330
45
100
AcDbEntity
  8
一般
  6
Continuous
 62
     7
370
     9
100
AcDb2dPolyline
 66
     1
 10
0.0
 20
0.0
 30
0.0
 70
   129
  0
VERTEX
  5
DD
330
DC
100
AcDbEntity
  8
一般
  6
Continuous
 62
     7
370
     9
100
AcDbVertex
100
AcDb2dVertex
 10
132.2873643663195
 20
-134.2563151041667
 30
0.0
  0
VERTEX
  5
DE
330
DC
100
AcDbEntity
  8
一般
  6
Continuous
 62
     7
370
     9
100
AcDbVertex
100
AcDb2dVertex
 10
133.2175401475695
 20
-134.26044921875
 30
0.0
  0
VERTEX
  5
DF
330
DC
100
AcDbEntity
  8
一般
  6
Continuous
 62
     7
370
     9
100
AcDbVertex
100
AcDb2dVertex
 10
133.2175401475695
 20
-136.0760145399306
 30
0.0
  0
VERTEX
  5
E0
330
DC
100
AcDbEntity
  8
一般
  6
Continuous
 62
     7
370
     9
100
AcDbVertex
100
AcDb2dVertex
 10
136.3174370659722
 20
-136.0760145399306
 30
0.0
  0
VERTEX
  5
E1
330
DC
100
AcDbEntity
  8
一般
  6
Continuous
 62
     7
370
     9
100
AcDbVertex
100
AcDb2dVertex
 10
136.3174370659722
 20
-134.4058322482639
 30
0.0
  0
VERTEX
  5
E2
330
DC
100
AcDbEntity
  8
一般
  6
Continuous
 62
     7
370
     9
100
AcDbVertex
100
AcDb2dVertex
 10
133.2008314344618
 20
-134.4058322482639
 30
0.0
  0
VERTEX
  5
E3
330
DC
100
AcDbEntity
  8
一般
  6
Continuous
 62
     7
370
     9
100
AcDbVertex
100
AcDb2dVertex
 10
133.1622463650174
 20
-134.2563151041667
 30
0.0
  0
VERTEX
  5
E4
330
DC
100
AcDbEntity
  8
一般
  6
Continuous
 62
     7
370
     9
100
AcDbVertex
100
AcDb2dVertex
 10
137.2472683376737
 20
-134.2563151041667
 30
0.0
  0
VERTEX
  5
E5
330
DC
100
AcDbEntity
  8
一般
  6
Continuous
 62
     7
370
     9
100
AcDbVertex
100
AcDb2dVertex
 10
137.2472683376737
 20
-136.226220703125
 30
0.0
  0
VERTEX
  5
E6
330
DC
100
AcDbEntity
  8
一般
  6
Continuous
 62
     7
370
     9
100
AcDbVertex
100
AcDb2dVertex
 10
132.2873643663195
 20
-136.226220703125
 30
0.0
  0
SEQEND
  5
E7
330
DC
100
AcDbEntity
  8
一般
  6
Continuous
 62
     7
370
     9
  0
HATCH
  5
E8
330
45
100
AcDbEntity
  8
一般
  6
Continuous
 62
     7
370
     0
100
AcDbHatch
 10
0.0
 20
0.0
 30
0.0
210
0.0
220
0.0
230
1.0
  2
SOLID
 70
     1
 71
     1
 91
        1
 92
        1
 93
       10
 72
     1
 10
132.2873643663195
 20
-134.2563151041667
 11
133.2175401475695
 21
-134.26044921875
 72
     1
 10
133.2175401475695
 20
-134.26044921875
 11
133.2175401475695
 21
-136.0760145399306
 72
     1
 10
133.2175401475695
 20
-136.0760145399306
 11
136.3174370659722
 21
-136.0760145399306
 72
     1
 10
136.3174370659722
 20
-136.0760145399306
 11
136.3174370659722
 21
-134.4058322482639
 72
     1
 10
136.3174370659722
 20
-134.4058322482639
 11
133.2008314344618
 21
-134.4058322482639
 72
     1
 10
133.2008314344618
 20
-134.4058322482639
 11
133.1622463650174
 21
-134.2563151041667
 72
     1
 10
133.1622463650174
 20
-134.2563151041667
 11
137.2472683376737
 21
-134.2563151041667
 72
     1
 10
137.2472683376737
 20
-134.2563151041667
 11
137.2472683376737
 21
-136.226220703125
 72
     1
 10
137.2472683376737
 20
-136.226220703125
 11
132.2873643663195
 21
-136.226220703125
 72
     1
 10
132.2873643663195
 20
-136.226220703125
 11
132.2873643663195
 21
-134.2563151041667
 97
        1
330
DC
 75
     0
 76
     1
 98
        1
 10
0.0
 20
0.0
  0
ENDBLK
  5
47
330
45
100
AcDbEntity
  8
0
100
AcDbBlockEnd
  0
BLOCK
  5
49
330
48
100
AcDbEntity
  8
0
100
AcDbBlockBegin
  2
グループ-2-1
 70
     0
 10
0.0
 20
0.0
 30
0.0
  3
グループ-2-1
  1

  0
POLYLINE
  5
E9
102
{ACAD_REACTORS
330
107
102
}
330
48
100
AcDbEntity
  8
一般
  6
Continuous
 62
     7
370
     9
100
AcDb2dPolyline
 66
     1
 10
0.0
 20
0.0
 30
0.0
 70
   129
  0
VERTEX
  5
EA
330
E9
100
AcDbEntity
  8
一般
  6
Continuous
 62
     7
370
     9
100
AcDbVertex
100
AcDb2dVertex
 10
139.2674723307292
 20
-132.1761664496528
 30
0.0
  0
VERTEX
  5
EB
330
E9
100
AcDbEntity
  8
一般
  6
Continuous
 62
     7
370
     9
100
AcDbVertex
100
AcDb2dVertex
 10
141.8023735894097
 20
-132.1761664496528
 30
0.0
  0
VERTEX
  5
EC
330
E9
100
AcDbEntity
  8
一般
  6
Continuous
 62
     7
370
     9
100
AcDbVertex
100
AcDb2dVertex
 10
141.8023735894097
 20
-131.1357476128472
 30
0.0
  0
VERTEX
  5
ED
330
E9
100
AcDbEntity
  8
一般
  6
Continuous
 62
     7
370
     9
100
AcDbVertex
100
AcDb2dVertex
 10
142.7325493706597
 20
-131.1357476128472
 30
0.0
  0
VERTEX
  5
EE
330
E9
100
AcDbEntity
  8
一般
  6
Continuous
 62
     7
370
     9
100
AcDbVertex
100
AcDb2dVertex
 10
142.7325493706597
 20
-132.1761664496528
 30
0.0
  0
VERTEX
  5
EF
330
E9
100
AcDbEntity
  8
一般
  6
Continuous
 62
     7
370
     9
100
AcDbVertex
100
AcDb2dVertex
 10
145.2674506293403
 20
-132.1761664496528
 30
0.0
  0
VERTEX
  5
F0
330
E9
100
AcDbEntity
  8
一般
  6
Continuous
 62
     7
370
     9
100
AcDbVertex
100
AcDb2dVertex
 10
145.2674506293403
 20
-132.32568359375
 30
0.0
  0
VERTEX
  5
F1
330
E9
100
AcDbEntity
  8
一般
  6
Continuous
 62
     7
370
     9
100
AcDbVertex
100
AcDb2dVertex
 10
142.7325493706597
 20
-132.32568359375
 30
0.0
  0
VERTEX
  5
F2
330
E9
100
AcDbEntity
  8
一般
  6
Continuous
 62
     7
370
     9
100
AcDbVertex
100
AcDb2dVertex
 10
142.7325493706597
 20
-132.8300455729167
 30
0.0
  0
VERTEX
  5
F3
330
E9
100
AcDbEntity
  8
一般
  6
Continuous
 62
     7
370
     9
100
AcDbVertex
100
AcDb2dVertex
 10
145.2674506293403
 20
-135.1699544270833
 30
0.0
  0
VERTEX
  5
F4
330
E9
100
AcDbEntity
  8
一般
  6
Continuous
 62
     7
370
     9
100
AcDbVertex
100
AcDb2dVertex
 10
145.2674506293403
 20
-135.9051378038195
 30
0.0
  0
VERTEX
  5
F5
330
E9
100
AcDbEntity
  8
一般
  6
Continuous
 62
     7
370
     9
100
AcDbVertex
100
AcDb2dVertex
 10
142.7325493706597
 20
-133.5652289496528
 30
0.0
  0
VERTEX
  5
F6
330
E9
100
AcDbEntity
  8
一般
  6
Continuous
 62
     7
370
     9
100
AcDbVertex
100
AcDb2dVertex
 10
142.7325493706597
 20
-135.42626953125
 30
0.0
  0
VERTEX
  5
F7
330
E9
100
AcDbEntity
  8
一般
  6
Continuous
 62
     7
370
     9
100
AcDbVertex
100
AcDb2dVertex
 10
143.7075113932293
 20
-135.42626953125
 30
0.0
  0
VERTEX
  5
F8
330
E9
100
AcDbEntity
  8
一般
  6
Continuous
 62
     7
370
     9
100
AcDbVertex
100
AcDb2dVertex
 10
143.7075113932293
 20
-135.5757866753472
 30
0.0
  0
VERTEX
  5
F9
330
E9
100
AcDbEntity
  8
一般
  6
Continuous
 62
     7
370
     9
100
AcDbVertex
100
AcDb2dVertex
 10
142.7325493706597
 20
-135.5757866753472
 30
0.0
  0
VERTEX
  5
FA
330
E9
100
AcDbEntity
  8
一般
  6
Continuous
 62
     7
370
     9
100
AcDbVertex
100
AcDb2dVertex
 10
142.7325493706597
 20
-136.226220703125
 30
0.0
  0
VERTEX
  5
FB
330
E9
100
AcDbEntity
  8
一般
  6
Continuous
 62
     7
370
     9
100
AcDbVertex
100
AcDb2dVertex
 10
141.8023735894097
 20
-136.226220703125
 30
0.0
  0
VERTEX
  5
FC
330
E9
100
AcDbEntity
  8
一般
  6
Continuous
 62
     7
370
     9
100
AcDbVertex
100
AcDb2dVertex
 10
141.8023735894097
 20
-135.5757866753472
 30
0.0
  0
VERTEX
  5
FD
330
E9
100
AcDbEntity
  8
一般
  6
Continuous
 62
     7
370
     9
100
AcDbVertex
100
AcDb2dVertex
 10
140.8274115668403
 20
-135.5757866753472
 30
0.0
  0
VERTEX
  5
FE
330
E9
100
AcDbEntity
  8
一般
  6
Continuous
 62
     7
370
     9
100
AcDbVertex
100
AcDb2dVertex
 10
140.8274115668403
 20
-135.42626953125
 30
0.0
  0
VERTEX
  5
FF
330
E9
100
AcDbEntity
  8
一般
  6
Continuous
 62
     7
370
     9
100
AcDbVertex
100
AcDb2dVertex
 10
141.8023735894097
 20
-135.42626953125
 30
0.0
  0
VERTEX
  5
100
330
E9
100
AcDbEntity
  8
一般
  6
Continuous
 62
     7
370
     9
100
AcDbVertex
100
AcDb2dVertex
 10
141.8023735894097
 20
-133.5652289496528
 30
0.0
  0
VERTEX
  5
101
330
E9
100
AcDbEntity
  8
一般
  6
Continuous
 62
     7
370
     9
100
AcDbVertex
100
AcDb2dVertex
 10
139.2674723307292
 20
-135.9051378038195
 30
0.0
  0
VERTEX
  5
102
330
E9
100
AcDbEntity
  8
一般
  6
Continuous
 62
     7
370
     9
100
AcDbVertex
100
AcDb2dVertex
 10
139.2674723307292
 20
-135.1699544270833
 30
0.0
  0
VERTEX
  5
103
330
E9
100
AcDbEntity
  8
一般
  6
Continuous
 62
     7
370
     9
100
AcDbVertex
100
AcDb2dVertex
 10
141.8023735894097
 20
-132.8300455729167
 30
0.0
  0
VERTEX
  5
104
330
E9
100
AcDbEntity
  8
一般
  6
Continuous
 62
     7
370
     9
100
AcDbVertex
100
AcDb2dVertex
 10
141.8023735894097
 20
-132.32568359375
 30
0.0
  0
VERTEX
  5
105
330
E9
100
AcDbEntity
  8
一般
  6
Continuous
 62
     7
370
     9
100
AcDbVertex
100
AcDb2dVertex
 10
139.2674723307292
 20
-132.32568359375
 30
0.0
  0
SEQEND
  5
106
330
E9
100
AcDbEntity
  8
一般
  6
Continuous
 62
     7
370
     9
  0
HATCH
  5
107
330
48
100
AcDbEntity
  8
一般
  6
Continuous
 62
     7
370
     0
100
AcDbHatch
 10
0.0
 20
0.0
 30
0.0
210
0.0
220
0.0
230
1.0
  2
SOLID
 70
     1
 71
     1
 91
        1
 92
        1
 93
       28
 72
     1
 10
139.2674723307292
 20
-132.1761664496528
 11
141.8023735894097
 21
-132.1761664496528
 72
     1
 10
141.8023735894097
 20
-132.1761664496528
 11
141.8023735894097
 21
-131.1357476128472
 72
     1
 10
141.8023735894097
 20
-131.1357476128472
 11
142.7325493706597
 21
-131.1357476128472
 72
     1
 10
142.7325493706597
 20
-131.1357476128472
 11
142.7325493706597
 21
-132.1761664496528
 72
     1
 10
142.7325493706597
 20
-132.1761664496528
 11
145.2674506293403
 21
-132.1761664496528
 72
     1
 10
145.2674506293403
 20
-132.1761664496528
 11
145.2674506293403
 21
-132.32568359375
 72
     1
 10
145.2674506293403
 20
-132.32568359375
 11
142.7325493706597
 21
-132.32568359375
 72
     1
 10
142.7325493706597
 20
-132.32568359375
 11
142.7325493706597
 21
-132.8300455729167
 72
     1
 10
142.7325493706597
 20
-132.8300455729167
 11
145.2674506293403
 21
-135.1699544270833
 72
     1
 10
145.2674506293403
 20
-135.1699544270833
 11
145.2674506293403
 21
-135.9051378038195
 72
     1
 10
145.2674506293403
 20
-135.9051378038195
 11
142.7325493706597
 21
-133.5652289496528
 72
     1
 10
142.7325493706597
 20
-133.5652289496528
 11
142.7325493706597
 21
-135.42626953125
 72
     1
 10
142.7325493706597
 20
-135.42626953125
 11
143.7075113932293
 21
-135.42626953125
 72
     1
 10
143.7075113932293
 20
-135.42626953125
 11
143.7075113932293
 21
-135.5757866753472
 72
     1
 10
143.7075113932293
 20
-135.5757866753472
 11
142.7325493706597
 21
-135.5757866753472
 72
     1
 10
142.7325493706597
 20
-135.5757866753472
 11
142.7325493706597
 21
-136.226220703125
 72
     1
 10
142.7325493706597
 20
-136.226220703125
 11
141.8023735894097
 21
-136.226220703125
 72
     1
 10
141.8023735894097
 20
-136.226220703125
 11
141.8023735894097
 21
-135.5757866753472
 72
     1
 10
141.8023735894097
 20
-135.5757866753472
 11
140.8274115668403
 21
-135.5757866753472
 72
     1
 10
140.8274115668403
 20
-135.5757866753472
 11
140.8274115668403
 21
-135.42626953125
 72
     1
 10
140.8274115668403
 20
-135.42626953125
 11
141.8023735894097
 21
-135.42626953125
 72
     1
 10
141.8023735894097
 20
-135.42626953125
 11
141.8023735894097
 21
-133.5652289496528
 72
     1
 10
141.8023735894097
 20
-133.5652289496528
 11
139.2674723307292
 21
-135.9051378038195
 72
     1
 10
139.2674723307292
 20
-135.9051378038195
 11
139.2674723307292
 21
-135.1699544270833
 72
     1
 10
139.2674723307292
 20
-135.1699544270833
 11
141.8023735894097
 21
-132.8300455729167
 72
     1
 10
141.8023735894097
 20
-132.8300455729167
 11
141.8023735894097
 21
-132.32568359375
 72
     1
 10
141.8023735894097
 20
-132.32568359375
 11
139.2674723307292
 21
-132.32568359375
 72
     1
 10
139.2674723307292
 20
-132.32568359375
 11
139.2674723307292
 21
-132.1761664496528
 97
        1
330
E9
 75
     0
 76
     1
 98
        1
 10
0.0
 20
0.0
  0
ENDBLK
  5
4A
330
48
100
AcDbEntity
  8
0
100
AcDbBlockEnd
  0
BLOCK
  5
4C
330
4B
100
AcDbEntity
  8
0
100
AcDbBlockBegin
  2
グループ-3-1
 70
     0
 10
0.0
 20
0.0
 30
0.0
  3
グループ-3-1
  1

  0
POLYLINE
  5
108
102
{ACAD_REACTORS
330
128
102
}
330
4B
100
AcDbEntity
  8
一般
  6
Continuous
 62
     7
370
     9
100
AcDb2dPolyline
 66
     1
 10
0.0
 20
0.0
 30
0.0
 70
   129
  0
VERTEX
  5
109
330
108
100
AcDbEntity
  8
一般
  6
Continuous
 62
     7
370
     9
100
AcDbVertex
100
AcDb2dVertex
 10
147.2873101128473
 20
-131.786181640625
 30
0.0
  0
VERTEX
  5
10A
330
108
100
AcDbEntity
  8
一般
  6
Continuous
 62
     7
370
     9
100
AcDbVertex
100
AcDb2dVertex
 10
149.7511270648543
 20
-131.786181640625
 30
0.0
  0
VERTEX
  5
10B
330
108
100
AcDbEntity
  8
一般
  6
Continuous
 62
     7
370
     9
100
AcDbVertex
100
AcDb2dVertex
 10
149.7588716880512
 20
-131.1357476128472
 30
0.0
  0
VERTEX
  5
10C
330
108
100
AcDbEntity
  8
一般
  6
Continuous
 62
     7
370
     9
100
AcDbVertex
100
AcDb2dVertex
 10
150.5573947482639
 20
-131.1377724219636
 30
0.0
  0
VERTEX
  5
10D
330
108
100
AcDbEntity
  8
一般
  6
Continuous
 62
     7
370
     9
100
AcDbVertex
100
AcDb2dVertex
 10
150.5573947482639
 20
-131.786181640625
 30
0.0
  0
VERTEX
  5
10E
330
108
100
AcDbEntity
  8
一般
  6
Continuous
 62
     7
370
     9
100
AcDbVertex
100
AcDb2dVertex
 10
152.7674235026041
 20
-131.786181640625
 30
0.0
  0
VERTEX
  5
10F
330
108
100
AcDbEntity
  8
一般
  6
Continuous
 62
     7
370
     9
100
AcDbVertex
100
AcDb2dVertex
 10
152.7674235026041
 20
-131.9270860460069
 30
0.0
  0
VERTEX
  5
110
330
108
100
AcDbEntity
  8
一般
  6
Continuous
 62
     7
370
     9
100
AcDbVertex
100
AcDb2dVertex
 10
152.4235307473659
 20
-131.9280508462653
 30
0.0
  0
VERTEX
  5
111
330
108
100
AcDbEntity
  8
一般
  6
Continuous
 62
     7
370
     9
100
AcDbVertex
100
AcDb2dVertex
 10
151.7959065755209
 20
-132.9561360677084
 30
0.0
  0
VERTEX
  5
112
330
108
100
AcDbEntity
  8
一般
  6
Continuous
 62
     7
370
     9
100
AcDbVertex
100
AcDb2dVertex
 10
152.7674235026041
 20
-132.9561360677084
 30
0.0
  0
VERTEX
  5
113
330
108
100
AcDbEntity
  8
一般
  6
Continuous
 62
     7
370
     9
100
AcDbVertex
100
AcDb2dVertex
 10
152.7674235026041
 20
-133.0856716579862
 30
0.0
  0
VERTEX
  5
114
330
108
100
AcDbEntity
  8
一般
  6
Continuous
 62
     7
370
     9
100
AcDbVertex
100
AcDb2dVertex
 10
147.8142608961961
 20
-133.088315249177
 30
0.0
  0
VERTEX
  5
115
330
108
100
AcDbEntity
  8
一般
  6
Continuous
 62
     7
370
     9
100
AcDbVertex
100
AcDb2dVertex
 10
147.7604473642317
 20
-134.0442030243664
 30
0.0
  0
VERTEX
  5
116
330
108
100
AcDbEntity
  8
一般
  6
Continuous
 62
     7
370
     9
100
AcDbVertex
100
AcDb2dVertex
 10
147.7111314157958
 20
-134.8861217624465
 30
0.0
  0
VERTEX
  5
117
330
108
100
AcDbEntity
  8
一般
  6
Continuous
 62
     7
370
     9
100
AcDbVertex
100
AcDb2dVertex
 10
147.6773412076928
 20
-135.2054747868097
 30
0.0
  0
VERTEX
  5
118
330
108
100
AcDbEntity
  8
一般
  6
Continuous
 62
     7
370
     9
100
AcDbVertex
100
AcDb2dVertex
 10
147.5990862330024
 20
-135.6800514639563
 30
0.0
  0
VERTEX
  5
119
330
108
100
AcDbEntity
  8
一般
  6
Continuous
 62
     7
370
     9
100
AcDbVertex
100
AcDb2dVertex
 10
147.4519856770833
 20
-136.226220703125
 30
0.0
  0
VERTEX
  5
11A
330
108
100
AcDbEntity
  8
一般
  6
Continuous
 62
     7
370
     9
100
AcDbVertex
100
AcDb2dVertex
 10
146.8828559027777
 20
-136.226220703125
 30
0.0
  0
VERTEX
  5
11B
330
108
100
AcDbEntity
  8
一般
  6
Continuous
 62
     7
370
     9
100
AcDbVertex
100
AcDb2dVertex
 10
147.0239230937908
 20
-135.7672888007473
 30
0.0
  0
VERTEX
  5
11C
330
108
100
AcDbEntity
  8
一般
  6
Continuous
 62
     7
370
     9
100
AcDbVertex
100
AcDb2dVertex
 10
147.1244221377667
 20
-135.2623721382485
 30
0.0
  0
VERTEX
  5
11D
330
108
100
AcDbEntity
  8
一般
  6
Continuous
 62
     7
370
     9
100
AcDbVertex
100
AcDb2dVertex
 10
147.1937195969596
 20
-134.4915623459841
 30
0.0
  0
VERTEX
  5
11E
330
108
100
AcDbEntity
  8
一般
  6
Continuous
 62
     7
370
     9
100
AcDbVertex
100
AcDb2dVertex
 10
147.2418399515815
 20
-133.577634715292
 30
0.0
  0
VERTEX
  5
11F
330
108
100
AcDbEntity
  8
一般
  6
Continuous
 62
     7
370
     9
100
AcDbVertex
100
AcDb2dVertex
 10
147.274281291403
 20
-132.9614913582366
 30
0.0
  0
VERTEX
  5
120
330
108
100
AcDbEntity
  8
一般
  6
Continuous
 62
     7
370
     9
100
AcDbVertex
100
AcDb2dVertex
 10
148.518931749132
 20
-132.9561360677084
 30
0.0
  0
VERTEX
  5
121
330
108
100
AcDbEntity
  8
一般
  6
Continuous
 62
     7
370
     9
100
AcDbVertex
100
AcDb2dVertex
 10
147.8819678343747
 20
-131.9270860460069
 30
0.0
  0
VERTEX
  5
122
330
108
100
AcDbEntity
  8
一般
  6
Continuous
 62
     7
370
     9
100
AcDbVertex
100
AcDb2dVertex
 10
148.6315609972813
 20
-131.930727377761
 30
0.0
  0
VERTEX
  5
123
330
108
100
AcDbEntity
  8
一般
  6
Continuous
 62
     7
370
     9
100
AcDbVertex
100
AcDb2dVertex
 10
149.1579969618056
 20
-132.9561360677084
 30
0.0
  0
VERTEX
  5
124
330
108
100
AcDbEntity
  8
一般
  6
Continuous
 62
     7
370
     9
100
AcDbVertex
100
AcDb2dVertex
 10
151.1510513731103
 20
-132.9561360677084
 30
0.0
  0
VERTEX
  5
125
330
108
100
AcDbEntity
  8
一般
  6
Continuous
 62
     7
370
     9
100
AcDbVertex
100
AcDb2dVertex
 10
151.6690313852428
 20
-131.9290050862408
 30
0.0
  0
VERTEX
  5
126
330
108
100
AcDbEntity
  8
一般
  6
Continuous
 62
     7
370
     9
100
AcDbVertex
100
AcDb2dVertex
 10
147.2873101128473
 20
-131.9270860460069
 30
0.0
  0
SEQEND
  5
127
330
108
100
AcDbEntity
  8
一般
  6
Continuous
 62
     7
370
     9
  0
HATCH
  5
128
330
4B
100
AcDbEntity
  8
一般
  6
Continuous
 62
     7
370
     0
100
AcDbHatch
 10
0.0
 20
0.0
 30
0.0
210
0.0
220
0.0
230
1.0
  2
SOLID
 70
     1
 71
     1
 91
        1
 92
        1
 93
       30
 72
     1
 10
147.2873101128473
 20
-131.786181640625
 11
149.7511270648543
 21
-131.786181640625
 72
     1
 10
149.7511270648543
 20
-131.786181640625
 11
149.7588716880512
 21
-131.1357476128472
 72
     1
 10
149.7588716880512
 20
-131.1357476128472
 11
150.5573947482639
 21
-131.1377724219636
 72
     1
 10
150.5573947482639
 20
-131.1377724219636
 11
150.5573947482639
 21
-131.786181640625
 72
     1
 10
150.5573947482639
 20
-131.786181640625
 11
152.7674235026041
 21
-131.786181640625
 72
     1
 10
152.7674235026041
 20
-131.786181640625
 11
152.7674235026041
 21
-131.9270860460069
 72
     1
 10
152.7674235026041
 20
-131.9270860460069
 11
152.4235307473659
 21
-131.9280508462653
 72
     1
 10
152.4235307473659
 20
-131.9280508462653
 11
151.7959065755209
 21
-132.9561360677084
 72
     1
 10
151.7959065755209
 20
-132.9561360677084
 11
152.7674235026041
 21
-132.9561360677084
 72
     1
 10
152.7674235026041
 20
-132.9561360677084
 11
152.7674235026041
 21
-133.0856716579862
 72
     1
 10
152.7674235026041
 20
-133.0856716579862
 11
147.8142608961961
 21
-133.088315249177
 72
     1
 10
147.8142608961961
 20
-133.088315249177
 11
147.7604473642317
 21
-134.0442030243664
 72
     1
 10
147.7604473642317
 20
-134.0442030243664
 11
147.7111314157958
 21
-134.8861217624465
 72
     1
 10
147.7111314157958
 20
-134.8861217624465
 11
147.6773412076928
 21
-135.2054747868097
 72
     1
 10
147.6773412076928
 20
-135.2054747868097
 11
147.5990862330024
 21
-135.6800514639563
 72
     1
 10
147.5990862330024
 20
-135.6800514639563
 11
147.4519856770833
 21
-136.226220703125
 72
     1
 10
147.4519856770833
 20
-136.226220703125
 11
146.8828559027777
 21
-136.226220703125
 72
     1
 10
146.8828559027777
 20
-136.226220703125
 11
147.0239230937908
 21
-135.7672888007473
 72
     1
 10
147.0239230937908
 20
-135.7672888007473
 11
147.1244221377667
 21
-135.2623721382485
 72
     1
 10
147.1244221377667
 20
-135.2623721382485
 11
147.1937195969596
 21
-134.4915623459841
 72
     1
 10
147.1937195969596
 20
-134.4915623459841
 11
147.2418399515815
 21
-133.577634715292
 72
     1
 10
147.2418399515815
 20
-133.577634715292
 11
147.274281291403
 21
-132.9614913582366
 72
     1
 10
147.274281291403
 20
-132.9614913582366
 11
148.518931749132
 21
-132.9561360677084
 72
     1
 10
148.518931749132
 20
-132.9561360677084
 11
147.8819678343747
 21
-131.9270860460069
 72
     1
 10
147.8819678343747
 20
-131.9270860460069
 11
148.6315609972813
 21
-131.930727377761
 72
     1
 10
148.6315609972813
 20
-131.930727377761
 11
149.1579969618056
 21
-132.9561360677084
 72
     1
 10
149.1579969618056
 20
-132.9561360677084
 11
151.1510513731103
 21
-132.9561360677084
 72
     1
 10
151.1510513731103
 20
-132.9561360677084
 11
151.6690313852428
 21
-131.9290050862408
 72
     1
 10
151.6690313852428
 20
-131.9290050862408
 11
147.2873101128473
 21
-131.9270860460069
 72
     1
 10
147.2873101128473
 20
-131.9270860460069
 11
147.2873101128473
 21
-131.786181640625
 97
        1
330
108
 75
     0
 76
     1
 98
        1
 10
0.0
 20
0.0
  0
POLYLINE
  5
129
102
{ACAD_REACTORS
330
145
102
}
330
4B
100
AcDbEntity
  8
一般
  6
Continuous
 62
     7
370
     9
100
AcDb2dPolyline
 66
     1
 10
0.0
 20
0.0
 30
0.0
 70
   129
  0
VERTEX
  5
12A
330
129
100
AcDbEntity
  8
一般
  6
Continuous
 62
     7
370
     9
100
AcDbVertex
100
AcDb2dVertex
 10
148.717369249132
 20
-133.736105685764
 30
0.0
  0
VERTEX
  5
12B
330
129
100
AcDbEntity
  8
一般
  6
Continuous
 62
     7
370
     9
100
AcDbVertex
100
AcDb2dVertex
 10
148.9974555121528
 20
-133.736105685764
 30
0.0
  0
VERTEX
  5
12C
330
129
100
AcDbEntity
  8
一般
  6
Continuous
 62
     7
370
     9
100
AcDbVertex
100
AcDb2dVertex
 10
148.9974555121528
 20
-134.029283311632
 30
0.0
  0
VERTEX
  5
12D
330
129
100
AcDbEntity
  8
一般
  6
Continuous
 62
     7
370
     9
100
AcDbVertex
100
AcDb2dVertex
 10
150.1474283854166
 20
-134.029283311632
 30
0.0
  0
VERTEX
  5
12E
330
129
100
AcDbEntity
  8
一般
  6
Continuous
 62
     7
370
     9
100
AcDbVertex
100
AcDb2dVertex
 10
150.1474283854166
 20
-133.736105685764
 30
0.0
  0
VERTEX
  5
12F
330
129
100
AcDbEntity
  8
一般
  6
Continuous
 62
     7
370
     9
100
AcDbVertex
100
AcDb2dVertex
 10
150.9473795572918
 20
-133.736105685764
 30
0.0
  0
VERTEX
  5
130
330
129
100
AcDbEntity
  8
一般
  6
Continuous
 62
     7
370
     9
100
AcDbVertex
100
AcDb2dVertex
 10
150.9473795572918
 20
-134.029283311632
 30
0.0
  0
VERTEX
  5
131
330
129
100
AcDbEntity
  8
一般
  6
Continuous
 62
     7
370
     9
100
AcDbVertex
100
AcDb2dVertex
 10
152.7674235026041
 20
-134.029283311632
 30
0.0
  0
VERTEX
  5
132
330
129
100
AcDbEntity
  8
一般
  6
Continuous
 62
     7
370
     9
100
AcDbVertex
100
AcDb2dVertex
 10
152.7674235026041
 20
-134.1460720486111
 30
0.0
  0
VERTEX
  5
133
330
129
100
AcDbEntity
  8
一般
  6
Continuous
 62
     7
370
     9
100
AcDbVertex
100
AcDb2dVertex
 10
150.9473795572918
 20
-134.1460720486111
 30
0.0
  0
VERTEX
  5
134
330
129
100
AcDbEntity
  8
一般
  6
Continuous
 62
     7
370
     9
100
AcDbVertex
100
AcDb2dVertex
 10
150.9473795572918
 20
-135.0528211805556
 30
0.0
  0
VERTEX
  5
135
330
129
100
AcDbEntity
  8
一般
  6
Continuous
 62
     7
370
     9
100
AcDbVertex
100
AcDb2dVertex
 10
152.5073187934028
 20
-135.0528211805556
 30
0.0
  0
VERTEX
  5
136
330
129
100
AcDbEntity
  8
一般
  6
Continuous
 62
     7
370
     9
100
AcDbVertex
100
AcDb2dVertex
 10
152.5073187934028
 20
-135.1858018663195
 30
0.0
  0
VERTEX
  5
137
330
129
100
AcDbEntity
  8
一般
  6
Continuous
 62
     7
370
     9
100
AcDbVertex
100
AcDb2dVertex
 10
150.9473795572918
 20
-135.1858018663195
 30
0.0
  0
VERTEX
  5
138
330
129
100
AcDbEntity
  8
一般
  6
Continuous
 62
     7
370
     9
100
AcDbVertex
100
AcDb2dVertex
 10
150.9473795572918
 20
-136.1063313802083
 30
0.0
  0
VERTEX
  5
139
330
129
100
AcDbEntity
  8
一般
  6
Continuous
 62
     7
370
     9
100
AcDbVertex
100
AcDb2dVertex
 10
152.7674235026041
 20
-136.1063313802083
 30
0.0
  0
VERTEX
  5
13A
330
129
100
AcDbEntity
  8
一般
  6
Continuous
 62
     7
370
     9
100
AcDbVertex
100
AcDb2dVertex
 10
152.7674235026041
 20
-136.226220703125
 30
0.0
  0
VERTEX
  5
13B
330
129
100
AcDbEntity
  8
一般
  6
Continuous
 62
     7
370
     9
100
AcDbVertex
100
AcDb2dVertex
 10
148.3273844401043
 20
-136.226220703125
 30
0.0
  0
VERTEX
  5
13C
330
129
100
AcDbEntity
  8
一般
  6
Continuous
 62
     7
370
     9
100
AcDbVertex
100
AcDb2dVertex
 10
148.3273844401043
 20
-136.1063313802083
 30
0.0
  0
VERTEX
  5
13D
330
129
100
AcDbEntity
  8
一般
  6
Continuous
 62
     7
370
     9
100
AcDbVertex
100
AcDb2dVertex
 10
150.1474283854166
 20
-136.1063313802083
 30
0.0
  0
VERTEX
  5
13E
330
129
100
AcDbEntity
  8
一般
  6
Continuous
 62
     7
370
     9
100
AcDbVertex
100
AcDb2dVertex
 10
150.1474283854166
 20
-135.1858018663195
 30
0.0
  0
VERTEX
  5
13F
330
129
100
AcDbEntity
  8
一般
  6
Continuous
 62
     7
370
     9
100
AcDbVertex
100
AcDb2dVertex
 10
148.717369249132
 20
-135.1858018663195
 30
0.0
  0
VERTEX
  5
140
330
129
100
AcDbEntity
  8
一般
  6
Continuous
 62
     7
370
     9
100
AcDbVertex
100
AcDb2dVertex
 10
148.717369249132
 20
-135.0528211805556
 30
0.0
  0
VERTEX
  5
141
330
129
100
AcDbEntity
  8
一般
  6
Continuous
 62
     7
370
     9
100
AcDbVertex
100
AcDb2dVertex
 10
150.1474283854166
 20
-135.0528211805556
 30
0.0
  0
VERTEX
  5
142
330
129
100
AcDbEntity
  8
一般
  6
Continuous
 62
     7
370
     9
100
AcDbVertex
100
AcDb2dVertex
 10
150.1474283854166
 20
-134.1460720486111
 30
0.0
  0
VERTEX
  5
143
330
129
100
AcDbEntity
  8
一般
  6
Continuous
 62
     7
370
     9
100
AcDbVertex
100
AcDb2dVertex
 10
148.717369249132
 20
-134.1460720486111
 30
0.0
  0
SEQEND
  5
144
330
129
100
AcDbEntity
  8
一般
  6
Continuous
 62
     7
370
     9
  0
HATCH
  5
145
330
4B
100
AcDbEntity
  8
一般
  6
Continuous
 62
     7
370
     0
100
AcDbHatch
 10
0.0
 20
0.0
 30
0.0
210
0.0
220
0.0
230
1.0
  2
SOLID
 70
     1
 71
     1
 91
        1
 92
        1
 93
       26
 72
     1
 10
148.717369249132
 20
-133.736105685764
 11
148.9974555121528
 21
-133.736105685764
 72
     1
 10
148.9974555121528
 20
-133.736105685764
 11
148.9974555121528
 21
-134.029283311632
 72
     1
 10
148.9974555121528
 20
-134.029283311632
 11
150.1474283854166
 21
-134.029283311632
 72
     1
 10
150.1474283854166
 20
-134.029283311632
 11
150.1474283854166
 21
-133.736105685764
 72
     1
 10
150.1474283854166
 20
-133.736105685764
 11
150.9473795572918
 21
-133.736105685764
 72
     1
 10
150.9473795572918
 20
-133.736105685764
 11
150.9473795572918
 21
-134.029283311632
 72
     1
 10
150.9473795572918
 20
-134.029283311632
 11
152.7674235026041
 21
-134.029283311632
 72
     1
 10
152.7674235026041
 20
-134.029283311632
 11
152.7674235026041
 21
-134.1460720486111
 72
     1
 10
152.7674235026041
 20
-134.1460720486111
 11
150.9473795572918
 21
-134.1460720486111
 72
     1
 10
150.9473795572918
 20
-134.1460720486111
 11
150.9473795572918
 21
-135.0528211805556
 72
     1
 10
150.9473795572918
 20
-135.0528211805556
 11
152.5073187934028
 21
-135.0528211805556
 72
     1
 10
152.5073187934028
 20
-135.0528211805556
 11
152.5073187934028
 21
-135.1858018663195
 72
     1
 10
152.5073187934028
 20
-135.1858018663195
 11
150.9473795572918
 21
-135.1858018663195
 72
     1
 10
150.9473795572918
 20
-135.1858018663195
 11
150.9473795572918
 21
-136.1063313802083
 72
     1
 10
150.9473795572918
 20
-136.1063313802083
 11
152.7674235026041
 21
-136.1063313802083
 72
     1
 10
152.7674235026041
 20
-136.1063313802083
 11
152.7674235026041
 21
-136.226220703125
 72
     1
 10
152.7674235026041
 20
-136.226220703125
 11
148.3273844401043
 21
-136.226220703125
 72
     1
 10
148.3273844401043
 20
-136.226220703125
 11
148.3273844401043
 21
-136.1063313802083
 72
     1
 10
148.3273844401043
 20
-136.1063313802083
 11
150.1474283854166
 21
-136.1063313802083
 72
     1
 10
150.1474283854166
 20
-136.1063313802083
 11
150.1474283854166
 21
-135.1858018663195
 72
     1
 10
150.1474283854166
 20
-135.1858018663195
 11
148.717369249132
 21
-135.1858018663195
 72
     1
 10
148.717369249132
 20
-135.1858018663195
 11
148.717369249132
 21
-135.0528211805556
 72
     1
 10
148.717369249132
 20
-135.0528211805556
 11
150.1474283854166
 21
-135.0528211805556
 72
     1
 10
150.1474283854166
 20
-135.0528211805556
 11
150.1474283854166
 21
-134.1460720486111
 72
     1
 10
150.1474283854166
 20
-134.1460720486111
 11
148.717369249132
 21
-134.1460720486111
 72
     1
 10
148.717369249132
 20
-134.1460720486111
 11
148.717369249132
 21
-133.736105685764
 97
        1
330
129
 75
     0
 76
     1
 98
        1
 10
0.0
 20
0.0
  0
ENDBLK
  5
4D
330
4B
100
AcDbEntity
  8
0
100
AcDbBlockEnd
  0
BLOCK
  5
4F
330
4E
100
AcDbEntity
  8
0
100
AcDbBlockBegin
  2
グループ-4-1
 70
     0
 10
0.0
 20
0.0
 30
0.0
  3
グループ-4-1
  1

  0
POLYLINE
  5
146
102
{ACAD_REACTORS
330
17E
102
}
330
4E
100
AcDbEntity
  8
一般
  6
Continuous
 62
     7
370
     9
100
AcDb2dPolyline
 66
     1
 10
0.0
 20
0.0
 30
0.0
 70
   129
  0
VERTEX
  5
147
330
146
100
AcDbEntity
  8
一般
  6
Continuous
 62
     7
370
     9
100
AcDbVertex
100
AcDb2dVertex
 10
154.4927273220486
 20
-131.1357476128472
 30
0.0
  0
VERTEX
  5
148
330
146
100
AcDbEntity
  8
一般
  6
Continuous
 62
     7
370
     9
100
AcDbVertex
100
AcDb2dVertex
 10
155.1824354383681
 20
-131.1357476128472
 30
0.0
  0
VERTEX
  5
149
330
146
100
AcDbEntity
  8
一般
  6
Continuous
 62
     7
370
     9
100
AcDbVertex
100
AcDb2dVertex
 10
156.5112087673611
 20
-133.1607747395833
 30
0.0
  0
VERTEX
  5
14A
330
146
100
AcDbEntity
  8
一般
  6
Continuous
 62
     7
370
     9
100
AcDbVertex
100
AcDb2dVertex
 10
158.0236056857639
 20
-133.1607747395833
 30
0.0
  0
VERTEX
  5
14B
330
146
100
AcDbEntity
  8
一般
  6
Continuous
 62
     7
370
     9
100
AcDbVertex
100
AcDb2dVertex
 10
158.612200249566
 20
-132.263671875
 30
0.0
  0
VERTEX
  5
14C
330
146
100
AcDbEntity
  8
一般
  6
Continuous
 62
     7
370
     9
100
AcDbVertex
100
AcDb2dVertex
 10
154.267418077257
 20
-132.263671875
 30
0.0
  0
VERTEX
  5
14D
330
146
100
AcDbEntity
  8
一般
  6
Continuous
 62
     7
370
     9
100
AcDbVertex
100
AcDb2dVertex
 10
154.267418077257
 20
-132.121044921875
 30
0.0
  0
VERTEX
  5
14E
330
146
100
AcDbEntity
  8
一般
  6
Continuous
 62
     7
370
     9
100
AcDbVertex
100
AcDb2dVertex
 10
156.3475667317709
 20
-132.121044921875
 30
0.0
  0
VERTEX
  5
14F
330
146
100
AcDbEntity
  8
一般
  6
Continuous
 62
     7
370
     9
100
AcDbVertex
100
AcDb2dVertex
 10
156.3475667317709
 20
-131.1357476128472
 30
0.0
  0
VERTEX
  5
150
330
146
100
AcDbEntity
  8
一般
  6
Continuous
 62
     7
370
     9
100
AcDbVertex
100
AcDb2dVertex
 10
156.8223008897569
 20
-131.1357476128472
 30
0.0
  0
VERTEX
  5
151
330
146
100
AcDbEntity
  8
一般
  6
Continuous
 62
     7
370
     9
100
AcDbVertex
100
AcDb2dVertex
 10
156.8223008897569
 20
-132.121044921875
 30
0.0
  0
VERTEX
  5
152
330
146
100
AcDbEntity
  8
一般
  6
Continuous
 62
     7
370
     9
100
AcDbVertex
100
AcDb2dVertex
 10
157.7125135633681
 20
-132.121044921875
 30
0.0
  0
VERTEX
  5
153
330
146
100
AcDbEntity
  8
一般
  6
Continuous
 62
     7
370
     9
100
AcDbVertex
100
AcDb2dVertex
 10
157.7125135633681
 20
-131.1357476128472
 30
0.0
  0
VERTEX
  5
154
330
146
100
AcDbEntity
  8
一般
  6
Continuous
 62
     7
370
     9
100
AcDbVertex
100
AcDb2dVertex
 10
158.1872477213541
 20
-131.1357476128472
 30
0.0
  0
VERTEX
  5
155
330
146
100
AcDbEntity
  8
一般
  6
Continuous
 62
     7
370
     9
100
AcDbVertex
100
AcDb2dVertex
 10
158.1872477213541
 20
-132.121044921875
 30
0.0
  0
VERTEX
  5
156
330
146
100
AcDbEntity
  8
一般
  6
Continuous
 62
     7
370
     9
100
AcDbVertex
100
AcDb2dVertex
 10
158.7060791015626
 20
-132.121044921875
 30
0.0
  0
VERTEX
  5
157
330
146
100
AcDbEntity
  8
一般
  6
Continuous
 62
     7
370
     9
100
AcDbVertex
100
AcDb2dVertex
 10
159.3523790147569
 20
-131.1357476128472
 30
0.0
  0
VERTEX
  5
158
330
146
100
AcDbEntity
  8
一般
  6
Continuous
 62
     7
370
     9
100
AcDbVertex
100
AcDb2dVertex
 10
160.0420871310764
 20
-131.1357476128472
 30
0.0
  0
VERTEX
  5
159
330
146
100
AcDbEntity
  8
一般
  6
Continuous
 62
     7
370
     9
100
AcDbVertex
100
AcDb2dVertex
 10
159.3646091037327
 20
-132.121044921875
 30
0.0
  0
VERTEX
  5
15A
330
146
100
AcDbEntity
  8
一般
  6
Continuous
 62
     7
370
     9
100
AcDbVertex
100
AcDb2dVertex
 10
160.2673963758681
 20
-132.121044921875
 30
0.0
  0
VERTEX
  5
15B
330
146
100
AcDbEntity
  8
一般
  6
Continuous
 62
     7
370
     9
100
AcDbVertex
100
AcDb2dVertex
 10
160.2673963758681
 20
-132.263671875
 30
0.0
  0
VERTEX
  5
15C
330
146
100
AcDbEntity
  8
一般
  6
Continuous
 62
     7
370
     9
100
AcDbVertex
100
AcDb2dVertex
 10
159.2665961371528
 20
-132.263671875
 30
0.0
  0
VERTEX
  5
15D
330
146
100
AcDbEntity
  8
一般
  6
Continuous
 62
     7
370
     9
100
AcDbVertex
100
AcDb2dVertex
 10
158.6499240451389
 20
-133.1607747395833
 30
0.0
  0
VERTEX
  5
15E
330
146
100
AcDbEntity
  8
一般
  6
Continuous
 62
     7
370
     9
100
AcDbVertex
100
AcDb2dVertex
 10
159.7475314670139
 20
-133.1607747395833
 30
0.0
  0
VERTEX
  5
15F
330
146
100
AcDbEntity
  8
一般
  6
Continuous
 62
     7
370
     9
100
AcDbVertex
100
AcDb2dVertex
 10
159.7475314670139
 20
-133.3144259982639
 30
0.0
  0
VERTEX
  5
160
330
146
100
AcDbEntity
  8
一般
  6
Continuous
 62
     7
370
     9
100
AcDbVertex
100
AcDb2dVertex
 10
157.7324951171875
 20
-133.3144259982639
 30
0.0
  0
VERTEX
  5
161
330
146
100
AcDbEntity
  8
一般
  6
Continuous
 62
     7
370
     9
100
AcDbVertex
100
AcDb2dVertex
 10
157.7324951171875
 20
-133.9407443576389
 30
0.0
  0
VERTEX
  5
162
330
146
100
AcDbEntity
  8
一般
  6
Continuous
 62
     7
370
     9
100
AcDbVertex
100
AcDb2dVertex
 10
159.3575466579861
 20
-133.9407443576389
 30
0.0
  0
VERTEX
  5
163
330
146
100
AcDbEntity
  8
一般
  6
Continuous
 62
     7
370
     9
100
AcDbVertex
100
AcDb2dVertex
 10
159.3575466579861
 20
-134.0723470052084
 30
0.0
  0
VERTEX
  5
164
330
146
100
AcDbEntity
  8
一般
  6
Continuous
 62
     7
370
     9
100
AcDbVertex
100
AcDb2dVertex
 10
157.7324951171875
 20
-134.0723470052084
 30
0.0
  0
VERTEX
  5
165
330
146
100
AcDbEntity
  8
一般
  6
Continuous
 62
     7
370
     9
100
AcDbVertex
100
AcDb2dVertex
 10
157.7324951171875
 20
-134.5670627170139
 30
0.0
  0
VERTEX
  5
166
330
146
100
AcDbEntity
  8
一般
  6
Continuous
 62
     7
370
     9
100
AcDbVertex
100
AcDb2dVertex
 10
160.0072916666667
 20
-134.5670627170139
 30
0.0
  0
VERTEX
  5
167
330
146
100
AcDbEntity
  8
一般
  6
Continuous
 62
     7
370
     9
100
AcDbVertex
100
AcDb2dVertex
 10
160.0072916666667
 20
-134.7207139756945
 30
0.0
  0
VERTEX
  5
168
330
146
100
AcDbEntity
  8
一般
  6
Continuous
 62
     7
370
     9
100
AcDbVertex
100
AcDb2dVertex
 10
158.5021294487847
 20
-134.7207139756945
 30
0.0
  0
VERTEX
  5
169
330
146
100
AcDbEntity
  8
一般
  6
Continuous
 62
     7
370
     9
100
AcDbVertex
100
AcDb2dVertex
 10
160.0072916666667
 20
-135.581298828125
 30
0.0
  0
VERTEX
  5
16A
330
146
100
AcDbEntity
  8
一般
  6
Continuous
 62
     7
370
     9
100
AcDbVertex
100
AcDb2dVertex
 10
160.0072916666667
 20
-136.0450086805556
 30
0.0
  0
VERTEX
  5
16B
330
146
100
AcDbEntity
  8
一般
  6
Continuous
 62
     7
370
     9
100
AcDbVertex
100
AcDb2dVertex
 10
157.7324951171875
 20
-134.7455186631944
 30
0.0
  0
VERTEX
  5
16C
330
146
100
AcDbEntity
  8
一般
  6
Continuous
 62
     7
370
     9
100
AcDbVertex
100
AcDb2dVertex
 10
157.7324951171875
 20
-136.226220703125
 30
0.0
  0
VERTEX
  5
16D
330
146
100
AcDbEntity
  8
一般
  6
Continuous
 62
     7
370
     9
100
AcDbVertex
100
AcDb2dVertex
 10
156.8023193359375
 20
-136.226220703125
 30
0.0
  0
VERTEX
  5
16E
330
146
100
AcDbEntity
  8
一般
  6
Continuous
 62
     7
370
     9
100
AcDbVertex
100
AcDb2dVertex
 10
156.8023193359375
 20
-134.7455186631944
 30
0.0
  0
VERTEX
  5
16F
330
146
100
AcDbEntity
  8
一般
  6
Continuous
 62
     7
370
     9
100
AcDbVertex
100
AcDb2dVertex
 10
154.5275227864584
 20
-136.0450086805556
 30
0.0
  0
VERTEX
  5
170
330
146
100
AcDbEntity
  8
一般
  6
Continuous
 62
     7
370
     9
100
AcDbVertex
100
AcDb2dVertex
 10
154.5275227864584
 20
-135.581298828125
 30
0.0
  0
VERTEX
  5
171
330
146
100
AcDbEntity
  8
一般
  6
Continuous
 62
     7
370
     9
100
AcDbVertex
100
AcDb2dVertex
 10
156.0326850043403
 20
-134.7207139756945
 30
0.0
  0
VERTEX
  5
172
330
146
100
AcDbEntity
  8
一般
  6
Continuous
 62
     7
370
     9
100
AcDbVertex
100
AcDb2dVertex
 10
154.5275227864584
 20
-134.7207139756945
 30
0.0
  0
VERTEX
  5
173
330
146
100
AcDbEntity
  8
一般
  6
Continuous
 62
     7
370
     9
100
AcDbVertex
100
AcDb2dVertex
 10
154.5275227864584
 20
-134.5670627170139
 30
0.0
  0
VERTEX
  5
174
330
146
100
AcDbEntity
  8
一般
  6
Continuous
 62
     7
370
     9
100
AcDbVertex
100
AcDb2dVertex
 10
156.8023193359375
 20
-134.5670627170139
 30
0.0
  0
VERTEX
  5
175
330
146
100
AcDbEntity
  8
一般
  6
Continuous
 62
     7
370
     9
100
AcDbVertex
100
AcDb2dVertex
 10
156.8023193359375
 20
-134.0723470052084
 30
0.0
  0
VERTEX
  5
176
330
146
100
AcDbEntity
  8
一般
  6
Continuous
 62
     7
370
     9
100
AcDbVertex
100
AcDb2dVertex
 10
155.1772677951389
 20
-134.0723470052084
 30
0.0
  0
VERTEX
  5
177
330
146
100
AcDbEntity
  8
一般
  6
Continuous
 62
     7
370
     9
100
AcDbVertex
100
AcDb2dVertex
 10
155.1772677951389
 20
-133.9407443576389
 30
0.0
  0
VERTEX
  5
178
330
146
100
AcDbEntity
  8
一般
  6
Continuous
 62
     7
370
     9
100
AcDbVertex
100
AcDb2dVertex
 10
156.8023193359375
 20
-133.9407443576389
 30
0.0
  0
VERTEX
  5
179
330
146
100
AcDbEntity
  8
一般
  6
Continuous
 62
     7
370
     9
100
AcDbVertex
100
AcDb2dVertex
 10
156.8023193359375
 20
-133.3144259982639
 30
0.0
  0
VERTEX
  5
17A
330
146
100
AcDbEntity
  8
一般
  6
Continuous
 62
     7
370
     9
100
AcDbVertex
100
AcDb2dVertex
 10
154.7872829861111
 20
-133.3144259982639
 30
0.0
  0
VERTEX
  5
17B
330
146
100
AcDbEntity
  8
一般
  6
Continuous
 62
     7
370
     9
100
AcDbVertex
100
AcDb2dVertex
 10
154.7873447504741
 20
-133.1562961154514
 30
0.0
  0
VERTEX
  5
17C
330
146
100
AcDbEntity
  8
一般
  6
Continuous
 62
     7
370
     9
100
AcDbVertex
100
AcDb2dVertex
 10
155.8848904079861
 20
-133.1607747395833
 30
0.0
  0
SEQEND
  5
17D
330
146
100
AcDbEntity
  8
一般
  6
Continuous
 62
     7
370
     9
  0
HATCH
  5
17E
330
4E
100
AcDbEntity
  8
一般
  6
Continuous
 62
     7
370
     0
100
AcDbHatch
 10
0.0
 20
0.0
 30
0.0
210
0.0
220
0.0
230
1.0
  2
SOLID
 70
     1
 71
     1
 91
        1
 92
        1
 93
       54
 72
     1
 10
154.4927273220486
 20
-131.1357476128472
 11
155.1824354383681
 21
-131.1357476128472
 72
     1
 10
155.1824354383681
 20
-131.1357476128472
 11
156.5112087673611
 21
-133.1607747395833
 72
     1
 10
156.5112087673611
 20
-133.1607747395833
 11
158.0236056857639
 21
-133.1607747395833
 72
     1
 10
158.0236056857639
 20
-133.1607747395833
 11
158.612200249566
 21
-132.263671875
 72
     1
 10
158.612200249566
 20
-132.263671875
 11
154.267418077257
 21
-132.263671875
 72
     1
 10
154.267418077257
 20
-132.263671875
 11
154.267418077257
 21
-132.121044921875
 72
     1
 10
154.267418077257
 20
-132.121044921875
 11
156.3475667317709
 21
-132.121044921875
 72
     1
 10
156.3475667317709
 20
-132.121044921875
 11
156.3475667317709
 21
-131.1357476128472
 72
     1
 10
156.3475667317709
 20
-131.1357476128472
 11
156.8223008897569
 21
-131.1357476128472
 72
     1
 10
156.8223008897569
 20
-131.1357476128472
 11
156.8223008897569
 21
-132.121044921875
 72
     1
 10
156.8223008897569
 20
-132.121044921875
 11
157.7125135633681
 21
-132.121044921875
 72
     1
 10
157.7125135633681
 20
-132.121044921875
 11
157.7125135633681
 21
-131.1357476128472
 72
     1
 10
157.7125135633681
 20
-131.1357476128472
 11
158.1872477213541
 21
-131.1357476128472
 72
     1
 10
158.1872477213541
 20
-131.1357476128472
 11
158.1872477213541
 21
-132.121044921875
 72
     1
 10
158.1872477213541
 20
-132.121044921875
 11
158.7060791015626
 21
-132.121044921875
 72
     1
 10
158.7060791015626
 20
-132.121044921875
 11
159.3523790147569
 21
-131.1357476128472
 72
     1
 10
159.3523790147569
 20
-131.1357476128472
 11
160.0420871310764
 21
-131.1357476128472
 72
     1
 10
160.0420871310764
 20
-131.1357476128472
 11
159.3646091037327
 21
-132.121044921875
 72
     1
 10
159.3646091037327
 20
-132.121044921875
 11
160.2673963758681
 21
-132.121044921875
 72
     1
 10
160.2673963758681
 20
-132.121044921875
 11
160.2673963758681
 21
-132.263671875
 72
     1
 10
160.2673963758681
 20
-132.263671875
 11
159.2665961371528
 21
-132.263671875
 72
     1
 10
159.2665961371528
 20
-132.263671875
 11
158.6499240451389
 21
-133.1607747395833
 72
     1
 10
158.6499240451389
 20
-133.1607747395833
 11
159.7475314670139
 21
-133.1607747395833
 72
     1
 10
159.7475314670139
 20
-133.1607747395833
 11
159.7475314670139
 21
-133.3144259982639
 72
     1
 10
159.7475314670139
 20
-133.3144259982639
 11
157.7324951171875
 21
-133.3144259982639
 72
     1
 10
157.7324951171875
 20
-133.3144259982639
 11
157.7324951171875
 21
-133.9407443576389
 72
     1
 10
157.7324951171875
 20
-133.9407443576389
 11
159.3575466579861
 21
-133.9407443576389
 72
     1
 10
159.3575466579861
 20
-133.9407443576389
 11
159.3575466579861
 21
-134.0723470052084
 72
     1
 10
159.3575466579861
 20
-134.0723470052084
 11
157.7324951171875
 21
-134.0723470052084
 72
     1
 10
157.7324951171875
 20
-134.0723470052084
 11
157.7324951171875
 21
-134.5670627170139
 72
     1
 10
157.7324951171875
 20
-134.5670627170139
 11
160.0072916666667
 21
-134.5670627170139
 72
     1
 10
160.0072916666667
 20
-134.5670627170139
 11
160.0072916666667
 21
-134.7207139756945
 72
     1
 10
160.0072916666667
 20
-134.7207139756945
 11
158.5021294487847
 21
-134.7207139756945
 72
     1
 10
158.5021294487847
 20
-134.7207139756945
 11
160.0072916666667
 21
-135.581298828125
 72
     1
 10
160.0072916666667
 20
-135.581298828125
 11
160.0072916666667
 21
-136.0450086805556
 72
     1
 10
160.0072916666667
 20
-136.0450086805556
 11
157.7324951171875
 21
-134.7455186631944
 72
     1
 10
157.7324951171875
 20
-134.7455186631944
 11
157.7324951171875
 21
-136.226220703125
 72
     1
 10
157.7324951171875
 20
-136.226220703125
 11
156.8023193359375
 21
-136.226220703125
 72
     1
 10
156.8023193359375
 20
-136.226220703125
 11
156.8023193359375
 21
-134.7455186631944
 72
     1
 10
156.8023193359375
 20
-134.7455186631944
 11
154.5275227864584
 21
-136.0450086805556
 72
     1
 10
154.5275227864584
 20
-136.0450086805556
 11
154.5275227864584
 21
-135.581298828125
 72
     1
 10
154.5275227864584
 20
-135.581298828125
 11
156.0326850043403
 21
-134.7207139756945
 72
     1
 10
156.0326850043403
 20
-134.7207139756945
 11
154.5275227864584
 21
-134.7207139756945
 72
     1
 10
154.5275227864584
 20
-134.7207139756945
 11
154.5275227864584
 21
-134.5670627170139
 72
     1
 10
154.5275227864584
 20
-134.5670627170139
 11
156.8023193359375
 21
-134.5670627170139
 72
     1
 10
156.8023193359375
 20
-134.5670627170139
 11
156.8023193359375
 21
-134.0723470052084
 72
     1
 10
156.8023193359375
 20
-134.0723470052084
 11
155.1772677951389
 21
-134.0723470052084
 72
     1
 10
155.1772677951389
 20
-134.0723470052084
 11
155.1772677951389
 21
-133.9407443576389
 72
     1
 10
155.1772677951389
 20
-133.9407443576389
 11
156.8023193359375
 21
-133.9407443576389
 72
     1
 10
156.8023193359375
 20
-133.9407443576389
 11
156.8023193359375
 21
-133.3144259982639
 72
     1
 10
156.8023193359375
 20
-133.3144259982639
 11
154.7872829861111
 21
-133.3144259982639
 72
     1
 10
154.7872829861111
 20
-133.3144259982639
 11
154.7873447504741
 21
-133.1562961154514
 72
     1
 10
154.7873447504741
 20
-133.1562961154514
 11
155.8848904079861
 21
-133.1607747395833
 72
     1
 10
155.8848904079861
 20
-133.1607747395833
 11
154.4927273220486
 21
-131.1357476128472
 97
        1
330
146
 75
     0
 76
     1
 98
        1
 10
0.0
 20
0.0
  0
ENDBLK
  5
50
330
4E
100
AcDbEntity
  8
0
100
AcDbBlockEnd
  0
BLOCK
  5
52
330
51
100
AcDbEntity
  8
0
100
AcDbBlockBegin
  2
グループ-5-1
 70
     0
 10
0.0
 20
0.0
 30
0.0
  3
グループ-5-1
  1

  0
POLYLINE
  5
17F
102
{ACAD_REACTORS
330
193
102
}
330
51
100
AcDbEntity
  8
一般
  6
Continuous
 62
     7
370
     9
100
AcDb2dPolyline
 66
     1
 10
0.0
 20
0.0
 30
0.0
 70
   129
  0
VERTEX
  5
180
330
17F
100
AcDbEntity
  8
一般
  6
Continuous
 62
     7
370
     9
100
AcDbVertex
100
AcDb2dVertex
 10
162.2870836046007
 20
-131.1357476128472
 30
0.0
  0
VERTEX
  5
181
330
17F
100
AcDbEntity
  8
一般
  6
Continuous
 62
     7
370
     9
100
AcDbVertex
100
AcDb2dVertex
 10
162.827274576823
 20
-131.1357476128472
 30
0.0
  0
VERTEX
  5
182
330
17F
100
AcDbEntity
  8
一般
  6
Continuous
 62
     7
370
     9
100
AcDbVertex
100
AcDb2dVertex
 10
162.827274576823
 20
-132.3160373263888
 30
0.0
  0
VERTEX
  5
183
330
17F
100
AcDbEntity
  8
一般
  6
Continuous
 62
     7
370
     9
100
AcDbVertex
100
AcDb2dVertex
 10
163.2172593858507
 20
-132.3160373263888
 30
0.0
  0
VERTEX
  5
184
330
17F
100
AcDbEntity
  8
一般
  6
Continuous
 62
     7
370
     9
100
AcDbVertex
100
AcDb2dVertex
 10
163.2172593858507
 20
-132.4800238715278
 30
0.0
  0
VERTEX
  5
185
330
17F
100
AcDbEntity
  8
一般
  6
Continuous
 62
     7
370
     9
100
AcDbVertex
100
AcDb2dVertex
 10
162.6929158528646
 20
-132.4800238715278
 30
0.0
  0
VERTEX
  5
186
330
17F
100
AcDbEntity
  8
一般
  6
Continuous
 62
     7
370
     9
100
AcDbVertex
100
AcDb2dVertex
 10
163.2172593858507
 20
-133.1793782552083
 30
0.0
  0
VERTEX
  5
187
330
17F
100
AcDbEntity
  8
一般
  6
Continuous
 62
     7
370
     9
100
AcDbVertex
100
AcDb2dVertex
 10
163.2172593858507
 20
-133.6458441840277
 30
0.0
  0
VERTEX
  5
188
330
17F
100
AcDbEntity
  8
一般
  6
Continuous
 62
     7
370
     9
100
AcDbVertex
100
AcDb2dVertex
 10
162.827274576823
 20
-133.1263237847222
 30
0.0
  0
VERTEX
  5
189
330
17F
100
AcDbEntity
  8
一般
  6
Continuous
 62
     7
370
     9
100
AcDbVertex
100
AcDb2dVertex
 10
162.827274576823
 20
-136.226220703125
 30
0.0
  0
VERTEX
  5
18A
330
17F
100
AcDbEntity
  8
一般
  6
Continuous
 62
     7
370
     9
100
AcDbVertex
100
AcDb2dVertex
 10
162.2870836046007
 20
-136.226220703125
 30
0.0
  0
VERTEX
  5
18B
330
17F
100
AcDbEntity
  8
一般
  6
Continuous
 62
     7
370
     9
100
AcDbVertex
100
AcDb2dVertex
 10
162.2870836046007
 20
-134.2342664930555
 30
0.0
  0
VERTEX
  5
18C
330
17F
100
AcDbEntity
  8
一般
  6
Continuous
 62
     7
370
     9
100
AcDbVertex
100
AcDb2dVertex
 10
161.7675632052952
 20
-135.1444607204861
 30
0.0
  0
VERTEX
  5
18D
330
17F
100
AcDbEntity
  8
一般
  6
Continuous
 62
     7
370
     9
100
AcDbVertex
100
AcDb2dVertex
 10
161.7675632052952
 20
-133.9242078993055
 30
0.0
  0
VERTEX
  5
18E
330
17F
100
AcDbEntity
  8
一般
  6
Continuous
 62
     7
370
     9
100
AcDbVertex
100
AcDb2dVertex
 10
162.3449612087674
 20
-132.4800238715278
 30
0.0
  0
VERTEX
  5
18F
330
17F
100
AcDbEntity
  8
一般
  6
Continuous
 62
     7
370
     9
100
AcDbVertex
100
AcDb2dVertex
 10
161.7675632052952
 20
-132.4800238715278
 30
0.0
  0
VERTEX
  5
190
330
17F
100
AcDbEntity
  8
一般
  6
Continuous
 62
     7
370
     9
100
AcDbVertex
100
AcDb2dVertex
 10
161.7675632052952
 20
-132.3160373263888
 30
0.0
  0
VERTEX
  5
191
330
17F
100
AcDbEntity
  8
一般
  6
Continuous
 62
     7
370
     9
100
AcDbVertex
100
AcDb2dVertex
 10
162.2870836046007
 20
-132.3160373263888
 30
0.0
  0
SEQEND
  5
192
330
17F
100
AcDbEntity
  8
一般
  6
Continuous
 62
     7
370
     9
  0
HATCH
  5
193
330
51
100
AcDbEntity
  8
一般
  6
Continuous
 62
     7
370
     0
100
AcDbHatch
 10
0.0
 20
0.0
 30
0.0
210
0.0
220
0.0
230
1.0
  2
SOLID
 70
     1
 71
     1
 91
        1
 92
        1
 93
       18
 72
     1
 10
162.2870836046007
 20
-131.1357476128472
 11
162.827274576823
 21
-131.1357476128472
 72
     1
 10
162.827274576823
 20
-131.1357476128472
 11
162.827274576823
 21
-132.3160373263888
 72
     1
 10
162.827274576823
 20
-132.3160373263888
 11
163.2172593858507
 21
-132.3160373263888
 72
     1
 10
163.2172593858507
 20
-132.3160373263888
 11
163.2172593858507
 21
-132.4800238715278
 72
     1
 10
163.2172593858507
 20
-132.4800238715278
 11
162.6929158528646
 21
-132.4800238715278
 72
     1
 10
162.6929158528646
 20
-132.4800238715278
 11
163.2172593858507
 21
-133.1793782552083
 72
     1
 10
163.2172593858507
 20
-133.1793782552083
 11
163.2172593858507
 21
-133.6458441840277
 72
     1
 10
163.2172593858507
 20
-133.6458441840277
 11
162.827274576823
 21
-133.1263237847222
 72
     1
 10
162.827274576823
 20
-133.1263237847222
 11
162.827274576823
 21
-136.226220703125
 72
     1
 10
162.827274576823
 20
-136.226220703125
 11
162.2870836046007
 21
-136.226220703125
 72
     1
 10
162.2870836046007
 20
-136.226220703125
 11
162.2870836046007
 21
-134.2342664930555
 72
     1
 10
162.2870836046007
 20
-134.2342664930555
 11
161.7675632052952
 21
-135.1444607204861
 72
     1
 10
161.7675632052952
 20
-135.1444607204861
 11
161.7675632052952
 21
-133.9242078993055
 72
     1
 10
161.7675632052952
 20
-133.9242078993055
 11
162.3449612087674
 21
-132.4800238715278
 72
     1
 10
162.3449612087674
 20
-132.4800238715278
 11
161.7675632052952
 21
-132.4800238715278
 72
     1
 10
161.7675632052952
 20
-132.4800238715278
 11
161.7675632052952
 21
-132.3160373263888
 72
     1
 10
161.7675632052952
 20
-132.3160373263888
 11
162.2870836046007
 21
-132.3160373263888
 72
     1
 10
162.2870836046007
 20
-132.3160373263888
 11
162.2870836046007
 21
-131.1357476128472
 97
        1
330
17F
 75
     0
 76
     1
 98
        1
 10
0.0
 20
0.0
  0
POLYLINE
  5
194
102
{ACAD_REACTORS
330
1BA
102
}
330
51
100
AcDbEntity
  8
一般
  6
Continuous
 62
     7
370
     9
100
AcDb2dPolyline
 66
     1
 10
0.0
 20
0.0
 30
0.0
 70
   129
  0
VERTEX
  5
195
330
194
100
AcDbEntity
  8
一般
  6
Continuous
 62
     7
370
     9
100
AcDbVertex
100
AcDb2dVertex
 10
164.1074720594618
 20
-131.1357476128472
 30
0.0
  0
VERTEX
  5
196
330
194
100
AcDbEntity
  8
一般
  6
Continuous
 62
     7
370
     9
100
AcDbVertex
100
AcDb2dVertex
 10
164.5174384223091
 20
-131.1357476128472
 30
0.0
  0
VERTEX
  5
197
330
194
100
AcDbEntity
  8
一般
  6
Continuous
 62
     7
370
     9
100
AcDbVertex
100
AcDb2dVertex
 10
164.5174384223091
 20
-132.3160373263888
 30
0.0
  0
VERTEX
  5
198
330
194
100
AcDbEntity
  8
一般
  6
Continuous
 62
     7
370
     9
100
AcDbVertex
100
AcDb2dVertex
 10
165.5371866861979
 20
-132.3160373263888
 30
0.0
  0
VERTEX
  5
199
330
194
100
AcDbEntity
  8
一般
  6
Continuous
 62
     7
370
     9
100
AcDbVertex
100
AcDb2dVertex
 10
165.5371866861979
 20
-131.1357476128472
 30
0.0
  0
VERTEX
  5
19A
330
194
100
AcDbEntity
  8
一般
  6
Continuous
 62
     7
370
     9
100
AcDbVertex
100
AcDb2dVertex
 10
166.2076022677952
 20
-131.1357476128472
 30
0.0
  0
VERTEX
  5
19B
330
194
100
AcDbEntity
  8
一般
  6
Continuous
 62
     7
370
     9
100
AcDbVertex
100
AcDb2dVertex
 10
166.2076022677952
 20
-132.3160373263888
 30
0.0
  0
VERTEX
  5
19C
330
194
100
AcDbEntity
  8
一般
  6
Continuous
 62
     7
370
     9
100
AcDbVertex
100
AcDb2dVertex
 10
167.3775566948785
 20
-132.3160373263888
 30
0.0
  0
VERTEX
  5
19D
330
194
100
AcDbEntity
  8
一般
  6
Continuous
 62
     7
370
     9
100
AcDbVertex
100
AcDb2dVertex
 10
167.3775566948785
 20
-132.4800238715278
 30
0.0
  0
VERTEX
  5
19E
330
194
100
AcDbEntity
  8
一般
  6
Continuous
 62
     7
370
     9
100
AcDbVertex
100
AcDb2dVertex
 10
166.2076022677952
 20
-132.4800238715278
 30
0.0
  0
VERTEX
  5
19F
330
194
100
AcDbEntity
  8
一般
  6
Continuous
 62
     7
370
     9
100
AcDbVertex
100
AcDb2dVertex
 10
166.2076022677952
 20
-133.4122667100694
 30
0.0
  0
VERTEX
  5
1A0
330
194
100
AcDbEntity
  8
一般
  6
Continuous
 62
     7
370
     9
100
AcDbVertex
100
AcDb2dVertex
 10
167.2473320855035
 20
-133.4122667100694
 30
0.0
  0
VERTEX
  5
1A1
330
194
100
AcDbEntity
  8
一般
  6
Continuous
 62
     7
370
     9
100
AcDbVertex
100
AcDb2dVertex
 10
167.2473320855035
 20
-133.5679850260417
 30
0.0
  0
VERTEX
  5
1A2
330
194
100
AcDbEntity
  8
一般
  6
Continuous
 62
     7
370
     9
100
AcDbVertex
100
AcDb2dVertex
 10
166.2076022677952
 20
-133.5679850260417
 30
0.0
  0
VERTEX
  5
1A3
330
194
100
AcDbEntity
  8
一般
  6
Continuous
 62
     7
370
     9
100
AcDbVertex
100
AcDb2dVertex
 10
166.2076022677952
 20
-134.4743896484375
 30
0.0
  0
VERTEX
  5
1A4
330
194
100
AcDbEntity
  8
一般
  6
Continuous
 62
     7
370
     9
100
AcDbVertex
100
AcDb2dVertex
 10
167.0640530056424
 20
-134.4743896484375
 30
0.0
  0
VERTEX
  5
1A5
330
194
100
AcDbEntity
  8
一般
  6
Continuous
 62
     7
370
     9
100
AcDbVertex
100
AcDb2dVertex
 10
167.0640530056424
 20
-134.6462999131945
 30
0.0
  0
VERTEX
  5
1A6
330
194
100
AcDbEntity
  8
一般
  6
Continuous
 62
     7
370
     9
100
AcDbVertex
100
AcDb2dVertex
 10
167.6566094292535
 20
-136.226220703125
 30
0.0
  0
VERTEX
  5
1A7
330
194
100
AcDbEntity
  8
一般
  6
Continuous
 62
     7
370
     9
100
AcDbVertex
100
AcDb2dVertex
 10
167.2190823025174
 20
-136.226220703125
 30
0.0
  0
VERTEX
  5
1A8
330
194
100
AcDbEntity
  8
一般
  6
Continuous
 62
     7
370
     9
100
AcDbVertex
100
AcDb2dVertex
 10
166.6265258789062
 20
-134.6462999131945
 30
0.0
  0
VERTEX
  5
1A9
330
194
100
AcDbEntity
  8
一般
  6
Continuous
 62
     7
370
     9
100
AcDbVertex
100
AcDb2dVertex
 10
166.2076022677952
 20
-134.6462999131945
 30
0.0
  0
VERTEX
  5
1AA
330
194
100
AcDbEntity
  8
一般
  6
Continuous
 62
     7
370
     9
100
AcDbVertex
100
AcDb2dVertex
 10
166.2076022677952
 20
-136.226220703125
 30
0.0
  0
VERTEX
  5
1AB
330
194
100
AcDbEntity
  8
一般
  6
Continuous
 62
     7
370
     9
100
AcDbVertex
100
AcDb2dVertex
 10
165.5371866861979
 20
-136.226220703125
 30
0.0
  0
VERTEX
  5
1AC
330
194
100
AcDbEntity
  8
一般
  6
Continuous
 62
     7
370
     9
100
AcDbVertex
100
AcDb2dVertex
 10
165.5371866861979
 20
-134.6462999131945
 30
0.0
  0
VERTEX
  5
1AD
330
194
100
AcDbEntity
  8
一般
  6
Continuous
 62
     7
370
     9
100
AcDbVertex
100
AcDb2dVertex
 10
165.1203301323785
 20
-134.6462999131945
 30
0.0
  0
VERTEX
  5
1AE
330
194
100
AcDbEntity
  8
一般
  6
Continuous
 62
     7
370
     9
100
AcDbVertex
100
AcDb2dVertex
 10
164.3300252278646
 20
-136.226220703125
 30
0.0
  0
VERTEX
  5
1AF
330
194
100
AcDbEntity
  8
一般
  6
Continuous
 62
     7
370
     9
100
AcDbVertex
100
AcDb2dVertex
 10
163.8718275282119
 20
-136.226220703125
 30
0.0
  0
VERTEX
  5
1B0
330
194
100
AcDbEntity
  8
一般
  6
Continuous
 62
     7
370
     9
100
AcDbVertex
100
AcDb2dVertex
 10
164.6621324327257
 20
-134.6462999131945
 30
0.0
  0
VERTEX
  5
1B1
330
194
100
AcDbEntity
  8
一般
  6
Continuous
 62
     7
370
     9
100
AcDbVertex
100
AcDb2dVertex
 10
164.6621324327257
 20
-134.4743896484375
 30
0.0
  0
VERTEX
  5
1B2
330
194
100
AcDbEntity
  8
一般
  6
Continuous
 62
     7
370
     9
100
AcDbVertex
100
AcDb2dVertex
 10
165.5371866861979
 20
-134.4743896484375
 30
0.0
  0
VERTEX
  5
1B3
330
194
100
AcDbEntity
  8
一般
  6
Continuous
 62
     7
370
     9
100
AcDbVertex
100
AcDb2dVertex
 10
165.5371866861979
 20
-133.5679850260417
 30
0.0
  0
VERTEX
  5
1B4
330
194
100
AcDbEntity
  8
一般
  6
Continuous
 62
     7
370
     9
100
AcDbVertex
100
AcDb2dVertex
 10
164.1074720594618
 20
-133.5679850260417
 30
0.0
  0
VERTEX
  5
1B5
330
194
100
AcDbEntity
  8
一般
  6
Continuous
 62
     7
370
     9
100
AcDbVertex
100
AcDb2dVertex
 10
164.1074720594618
 20
-133.4122667100694
 30
0.0
  0
VERTEX
  5
1B6
330
194
100
AcDbEntity
  8
一般
  6
Continuous
 62
     7
370
     9
100
AcDbVertex
100
AcDb2dVertex
 10
165.5371866861979
 20
-133.4122667100694
 30
0.0
  0
VERTEX
  5
1B7
330
194
100
AcDbEntity
  8
一般
  6
Continuous
 62
     7
370
     9
100
AcDbVertex
100
AcDb2dVertex
 10
165.5371866861979
 20
-132.4800238715278
 30
0.0
  0
VERTEX
  5
1B8
330
194
100
AcDbEntity
  8
一般
  6
Continuous
 62
     7
370
     9
100
AcDbVertex
100
AcDb2dVertex
 10
164.1074720594618
 20
-132.4800238715278
 30
0.0
  0
SEQEND
  5
1B9
330
194
100
AcDbEntity
  8
一般
  6
Continuous
 62
     7
370
     9
  0
HATCH
  5
1BA
330
51
100
AcDbEntity
  8
一般
  6
Continuous
 62
     7
370
     0
100
AcDbHatch
 10
0.0
 20
0.0
 30
0.0
210
0.0
220
0.0
230
1.0
  2
SOLID
 70
     1
 71
     1
 91
        1
 92
        1
 93
       36
 72
     1
 10
164.1074720594618
 20
-131.1357476128472
 11
164.5174384223091
 21
-131.1357476128472
 72
     1
 10
164.5174384223091
 20
-131.1357476128472
 11
164.5174384223091
 21
-132.3160373263888
 72
     1
 10
164.5174384223091
 20
-132.3160373263888
 11
165.5371866861979
 21
-132.3160373263888
 72
     1
 10
165.5371866861979
 20
-132.3160373263888
 11
165.5371866861979
 21
-131.1357476128472
 72
     1
 10
165.5371866861979
 20
-131.1357476128472
 11
166.2076022677952
 21
-131.1357476128472
 72
     1
 10
166.2076022677952
 20
-131.1357476128472
 11
166.2076022677952
 21
-132.3160373263888
 72
     1
 10
166.2076022677952
 20
-132.3160373263888
 11
167.3775566948785
 21
-132.3160373263888
 72
     1
 10
167.3775566948785
 20
-132.3160373263888
 11
167.3775566948785
 21
-132.4800238715278
 72
     1
 10
167.3775566948785
 20
-132.4800238715278
 11
166.2076022677952
 21
-132.4800238715278
 72
     1
 10
166.2076022677952
 20
-132.4800238715278
 11
166.2076022677952
 21
-133.4122667100694
 72
     1
 10
166.2076022677952
 20
-133.4122667100694
 11
167.2473320855035
 21
-133.4122667100694
 72
     1
 10
167.2473320855035
 20
-133.4122667100694
 11
167.2473320855035
 21
-133.5679850260417
 72
     1
 10
167.2473320855035
 20
-133.5679850260417
 11
166.2076022677952
 21
-133.5679850260417
 72
     1
 10
166.2076022677952
 20
-133.5679850260417
 11
166.2076022677952
 21
-134.4743896484375
 72
     1
 10
166.2076022677952
 20
-134.4743896484375
 11
167.0640530056424
 21
-134.4743896484375
 72
     1
 10
167.0640530056424
 20
-134.4743896484375
 11
167.0640530056424
 21
-134.6462999131945
 72
     1
 10
167.0640530056424
 20
-134.6462999131945
 11
167.6566094292535
 21
-136.226220703125
 72
     1
 10
167.6566094292535
 20
-136.226220703125
 11
167.2190823025174
 21
-136.226220703125
 72
     1
 10
167.2190823025174
 20
-136.226220703125
 11
166.6265258789062
 21
-134.6462999131945
 72
     1
 10
166.6265258789062
 20
-134.6462999131945
 11
166.2076022677952
 21
-134.6462999131945
 72
     1
 10
166.2076022677952
 20
-134.6462999131945
 11
166.2076022677952
 21
-136.226220703125
 72
     1
 10
166.2076022677952
 20
-136.226220703125
 11
165.5371866861979
 21
-136.226220703125
 72
     1
 10
165.5371866861979
 20
-136.226220703125
 11
165.5371866861979
 21
-134.6462999131945
 72
     1
 10
165.5371866861979
 20
-134.6462999131945
 11
165.1203301323785
 21
-134.6462999131945
 72
     1
 10
165.1203301323785
 20
-134.6462999131945
 11
164.3300252278646
 21
-136.226220703125
 72
     1
 10
164.3300252278646
 20
-136.226220703125
 11
163.8718275282119
 21
-136.226220703125
 72
     1
 10
163.8718275282119
 20
-136.226220703125
 11
164.6621324327257
 21
-134.6462999131945
 72
     1
 10
164.6621324327257
 20
-134.6462999131945
 11
164.6621324327257
 21
-134.4743896484375
 72
     1
 10
164.6621324327257
 20
-134.4743896484375
 11
165.5371866861979
 21
-134.4743896484375
 72
     1
 10
165.5371866861979
 20
-134.4743896484375
 11
165.5371866861979
 21
-133.5679850260417
 72
     1
 10
165.5371866861979
 20
-133.5679850260417
 11
164.1074720594618
 21
-133.5679850260417
 72
     1
 10
164.1074720594618
 20
-133.5679850260417
 11
164.1074720594618
 21
-133.4122667100694
 72
     1
 10
164.1074720594618
 20
-133.4122667100694
 11
165.5371866861979
 21
-133.4122667100694
 72
     1
 10
165.5371866861979
 20
-133.4122667100694
 11
165.5371866861979
 21
-132.4800238715278
 72
     1
 10
165.5371866861979
 20
-132.4800238715278
 11
164.1074720594618
 21
-132.4800238715278
 72
     1
 10
164.1074720594618
 20
-132.4800238715278
 11
164.1074720594618
 21
-131.1357476128472
 97
        1
330
194
 75
     0
 76
     1
 98
        1
 10
0.0
 20
0.0
  0
ENDBLK
  5
53
330
51
100
AcDbEntity
  8
0
100
AcDbBlockEnd
  0
BLOCK
  5
55
330
54
100
AcDbEntity
  8
0
100
AcDbBlockBegin
  2
グループ-6-1
 70
     0
 10
0.0
 20
0.0
 30
0.0
  3
グループ-6-1
  1

  0
POLYLINE
  5
1BB
102
{ACAD_REACTORS
330
1C9
102
}
330
54
100
AcDbEntity
  8
一般
  6
Continuous
 62
     7
370
     9
100
AcDb2dPolyline
 66
     1
 10
0.0
 20
0.0
 30
0.0
 70
   129
  0
VERTEX
  5
1BC
330
1BB
100
AcDbEntity
  8
一般
  6
Continuous
 62
     7
370
     9
100
AcDbVertex
100
AcDb2dVertex
 10
169.5272962782118
 20
-133.1042751736111
 30
0.0
  0
VERTEX
  5
1BD
330
1BB
100
AcDbEntity
  8
一般
  6
Continuous
 62
     7
370
     9
100
AcDbVertex
100
AcDb2dVertex
 10
172.2771714952257
 20
-133.1042751736111
 30
0.0
  0
VERTEX
  5
1BE
330
1BB
100
AcDbEntity
  8
一般
  6
Continuous
 62
     7
370
     9
100
AcDbVertex
100
AcDb2dVertex
 10
172.2771714952257
 20
-133.3106363932292
 30
0.0
  0
VERTEX
  5
1BF
330
1BB
100
AcDbEntity
  8
一般
  6
Continuous
 62
     7
370
     9
100
AcDbVertex
100
AcDb2dVertex
 10
171.1072170681425
 20
-133.3106363932292
 30
0.0
  0
VERTEX
  5
1C0
330
1BB
100
AcDbEntity
  8
一般
  6
Continuous
 62
     7
370
     9
100
AcDbVertex
100
AcDb2dVertex
 10
171.1072170681425
 20
-134.9359418402779
 30
0.0
  0
VERTEX
  5
1C1
330
1BB
100
AcDbEntity
  8
一般
  6
Continuous
 62
     7
370
     9
100
AcDbVertex
100
AcDb2dVertex
 10
172.2771714952257
 20
-134.7953819444446
 30
0.0
  0
VERTEX
  5
1C2
330
1BB
100
AcDbEntity
  8
一般
  6
Continuous
 62
     7
370
     9
100
AcDbVertex
100
AcDb2dVertex
 10
172.2771714952257
 20
-135.6212619357639
 30
0.0
  0
VERTEX
  5
1C3
330
1BB
100
AcDbEntity
  8
一般
  6
Continuous
 62
     7
370
     9
100
AcDbVertex
100
AcDb2dVertex
 10
169.5272962782118
 20
-136.1710991753473
 30
0.0
  0
VERTEX
  5
1C4
330
1BB
100
AcDbEntity
  8
一般
  6
Continuous
 62
     7
370
     9
100
AcDbVertex
100
AcDb2dVertex
 10
169.5272962782118
 20
-135.125422092014
 30
0.0
  0
VERTEX
  5
1C5
330
1BB
100
AcDbEntity
  8
一般
  6
Continuous
 62
     7
370
     9
100
AcDbVertex
100
AcDb2dVertex
 10
170.3072658962673
 20
-135.0317154947919
 30
0.0
  0
VERTEX
  5
1C6
330
1BB
100
AcDbEntity
  8
一般
  6
Continuous
 62
     7
370
     9
100
AcDbVertex
100
AcDb2dVertex
 10
170.3072658962673
 20
-133.3106363932292
 30
0.0
  0
VERTEX
  5
1C7
330
1BB
100
AcDbEntity
  8
一般
  6
Continuous
 62
     7
370
     9
100
AcDbVertex
100
AcDb2dVertex
 10
169.5272962782118
 20
-133.3106363932292
 30
0.0
  0
SEQEND
  5
1C8
330
1BB
100
AcDbEntity
  8
一般
  6
Continuous
 62
     7
370
     9
  0
HATCH
  5
1C9
330
54
100
AcDbEntity
  8
一般
  6
Continuous
 62
     7
370
     0
100
AcDbHatch
 10
0.0
 20
0.0
 30
0.0
210
0.0
220
0.0
230
1.0
  2
SOLID
 70
     1
 71
     1
 91
        1
 92
        1
 93
       12
 72
     1
 10
169.5272962782118
 20
-133.1042751736111
 11
172.2771714952257
 21
-133.1042751736111
 72
     1
 10
172.2771714952257
 20
-133.1042751736111
 11
172.2771714952257
 21
-133.3106363932292
 72
     1
 10
172.2771714952257
 20
-133.3106363932292
 11
171.1072170681425
 21
-133.3106363932292
 72
     1
 10
171.1072170681425
 20
-133.3106363932292
 11
171.1072170681425
 21
-134.9359418402779
 72
     1
 10
171.1072170681425
 20
-134.9359418402779
 11
172.2771714952257
 21
-134.7953819444446
 72
     1
 10
172.2771714952257
 20
-134.7953819444446
 11
172.2771714952257
 21
-135.6212619357639
 72
     1
 10
172.2771714952257
 20
-135.6212619357639
 11
169.5272962782118
 21
-136.1710991753473
 72
     1
 10
169.5272962782118
 20
-136.1710991753473
 11
169.5272962782118
 21
-135.125422092014
 72
     1
 10
169.5272962782118
 20
-135.125422092014
 11
170.3072658962673
 21
-135.0317154947919
 72
     1
 10
170.3072658962673
 20
-135.0317154947919
 11
170.3072658962673
 21
-133.3106363932292
 72
     1
 10
170.3072658962673
 20
-133.3106363932292
 11
169.5272962782118
 21
-133.3106363932292
 72
     1
 10
169.5272962782118
 20
-133.3106363932292
 11
169.5272962782118
 21
-133.1042751736111
 97
        1
330
1BB
 75
     0
 76
     1
 98
        1
 10
0.0
 20
0.0
  0
POLYLINE
  5
1CA
102
{ACAD_REACTORS
330
1D8
102
}
330
54
100
AcDbEntity
  8
一般
  6
Continuous
 62
     7
370
     9
100
AcDb2dPolyline
 66
     1
 10
0.0
 20
0.0
 30
0.0
 70
   129
  0
VERTEX
  5
1CB
330
1CA
100
AcDbEntity
  8
一般
  6
Continuous
 62
     7
370
     9
100
AcDbVertex
100
AcDb2dVertex
 10
169.5272962782118
 20
-132.1940809461805
 30
0.0
  0
VERTEX
  5
1CC
330
1CA
100
AcDbEntity
  8
一般
  6
Continuous
 62
     7
370
     9
100
AcDbVertex
100
AcDb2dVertex
 10
172.7939358181424
 20
-132.1940809461805
 30
0.0
  0
VERTEX
  5
1CD
330
1CA
100
AcDbEntity
  8
一般
  6
Continuous
 62
     7
370
     9
100
AcDbVertex
100
AcDb2dVertex
 10
172.4742309570312
 20
-131.1357476128472
 30
0.0
  0
VERTEX
  5
1CE
330
1CA
100
AcDbEntity
  8
一般
  6
Continuous
 62
     7
370
     9
100
AcDbVertex
100
AcDb2dVertex
 10
173.3816691080729
 20
-131.1357476128472
 30
0.0
  0
VERTEX
  5
1CF
330
1CA
100
AcDbEntity
  8
一般
  6
Continuous
 62
     7
370
     9
100
AcDbVertex
100
AcDb2dVertex
 10
173.7020629882813
 20
-132.1940809461805
 30
0.0
  0
VERTEX
  5
1D0
330
1CA
100
AcDbEntity
  8
一般
  6
Continuous
 62
     7
370
     9
100
AcDbVertex
100
AcDb2dVertex
 10
174.8775295681424
 20
-132.1940809461805
 30
0.0
  0
VERTEX
  5
1D1
330
1CA
100
AcDbEntity
  8
一般
  6
Continuous
 62
     7
370
     9
100
AcDbVertex
100
AcDb2dVertex
 10
174.8775295681424
 20
-132.4004421657986
 30
0.0
  0
VERTEX
  5
1D2
330
1CA
100
AcDbEntity
  8
一般
  6
Continuous
 62
     7
370
     9
100
AcDbVertex
100
AcDb2dVertex
 10
173.7640747070313
 20
-132.4004421657986
 30
0.0
  0
VERTEX
  5
1D3
330
1CA
100
AcDbEntity
  8
一般
  6
Continuous
 62
     7
370
     9
100
AcDbVertex
100
AcDb2dVertex
 10
174.9209377712675
 20
-136.226220703125
 30
0.0
  0
VERTEX
  5
1D4
330
1CA
100
AcDbEntity
  8
一般
  6
Continuous
 62
     7
370
     9
100
AcDbVertex
100
AcDb2dVertex
 10
174.0128106011285
 20
-136.226220703125
 30
0.0
  0
VERTEX
  5
1D5
330
1CA
100
AcDbEntity
  8
一般
  6
Continuous
 62
     7
370
     9
100
AcDbVertex
100
AcDb2dVertex
 10
172.8566365559896
 20
-132.4004421657986
 30
0.0
  0
VERTEX
  5
1D6
330
1CA
100
AcDbEntity
  8
一般
  6
Continuous
 62
     7
370
     9
100
AcDbVertex
100
AcDb2dVertex
 10
169.5272962782118
 20
-132.4004421657986
 30
0.0
  0
SEQEND
  5
1D7
330
1CA
100
AcDbEntity
  8
一般
  6
Continuous
 62
     7
370
     9
  0
HATCH
  5
1D8
330
54
100
AcDbEntity
  8
一般
  6
Continuous
 62
     7
370
     0
100
AcDbHatch
 10
0.0
 20
0.0
 30
0.0
210
0.0
220
0.0
230
1.0
  2
SOLID
 70
     1
 71
     1
 91
        1
 92
        1
 93
       12
 72
     1
 10
169.5272962782118
 20
-132.1940809461805
 11
172.7939358181424
 21
-132.1940809461805
 72
     1
 10
172.7939358181424
 20
-132.1940809461805
 11
172.4742309570312
 21
-131.1357476128472
 72
     1
 10
172.4742309570312
 20
-131.1357476128472
 11
173.3816691080729
 21
-131.1357476128472
 72
     1
 10
173.3816691080729
 20
-131.1357476128472
 11
173.7020629882813
 21
-132.1940809461805
 72
     1
 10
173.7020629882813
 20
-132.1940809461805
 11
174.8775295681424
 21
-132.1940809461805
 72
     1
 10
174.8775295681424
 20
-132.1940809461805
 11
174.8775295681424
 21
-132.4004421657986
 72
     1
 10
174.8775295681424
 20
-132.4004421657986
 11
173.7640747070313
 21
-132.4004421657986
 72
     1
 10
173.7640747070313
 20
-132.4004421657986
 11
174.9209377712675
 21
-136.226220703125
 72
     1
 10
174.9209377712675
 20
-136.226220703125
 11
174.0128106011285
 21
-136.226220703125
 72
     1
 10
174.0128106011285
 20
-136.226220703125
 11
172.8566365559896
 21
-132.4004421657986
 72
     1
 10
172.8566365559896
 20
-132.4004421657986
 11
169.5272962782118
 21
-132.4004421657986
 72
     1
 10
169.5272962782118
 20
-132.4004421657986
 11
169.5272962782118
 21
-132.1940809461805
 97
        1
330
1CA
 75
     0
 76
     1
 98
        1
 10
0.0
 20
0.0
  0
SOLID
  5
1D9
330
54
100
AcDbEntity
  8
一般
  6
Continuous
 62
     7
370
     9
100
AcDbTrace
 10
174.3373385959201
 20
-131.3961968315973
 30
0.0
 11
174.8775295681424
 21
-131.3961968315973
 31
0.0
 12
174.3373385959201
 22
-131.5457139756945
 32
0.0
 13
174.8775295681424
 23
-131.5457139756945
 33
0.0
  0
ENDBLK
  5
56
330
54
100
AcDbEntity
  8
0
100
AcDbBlockEnd
  0
BLOCK
  5
58
330
57
100
AcDbEntity
  8
0
100
AcDbBlockBegin
  2
グループ-7-1
 70
     0
 10
0.0
 20
0.0
 30
0.0
  3
グループ-7-1
  1

  0
POLYLINE
  5
1DA
102
{ACAD_REACTORS
330
1E3
102
}
330
57
100
AcDbEntity
  8
一般
  6
Continuous
 62
     7
370
     9
100
AcDb2dPolyline
 66
     1
 10
0.0
 20
0.0
 30
0.0
 70
   129
  0
VERTEX
  5
1DB
330
1DA
100
AcDbEntity
  8
一般
  6
Continuous
 62
     7
370
     9
100
AcDbVertex
100
AcDb2dVertex
 10
177.0272691514758
 20
-132.2678059895834
 30
0.0
  0
VERTEX
  5
1DC
330
1DA
100
AcDbEntity
  8
一般
  6
Continuous
 62
     7
370
     9
100
AcDbVertex
100
AcDb2dVertex
 10
179.1797648111979
 20
-131.1357476128471
 30
0.0
  0
VERTEX
  5
1DD
330
1DA
100
AcDbEntity
  8
一般
  6
Continuous
 62
     7
370
     9
100
AcDbVertex
100
AcDb2dVertex
 10
180.3697007921007
 20
-131.1357476128471
 30
0.0
  0
VERTEX
  5
1DE
330
1DA
100
AcDbEntity
  8
一般
  6
Continuous
 62
     7
370
     9
100
AcDbVertex
100
AcDb2dVertex
 10
182.5077270507813
 20
-132.2678059895834
 30
0.0
  0
VERTEX
  5
1DF
330
1DA
100
AcDbEntity
  8
一般
  6
Continuous
 62
     7
370
     9
100
AcDbVertex
100
AcDb2dVertex
 10
182.5077270507813
 20
-133.0167697482639
 30
0.0
  0
VERTEX
  5
1E0
330
1DA
100
AcDbEntity
  8
一般
  6
Continuous
 62
     7
370
     9
100
AcDbVertex
100
AcDb2dVertex
 10
179.7674981011284
 20
-131.6463107638889
 30
0.0
  0
VERTEX
  5
1E1
330
1DA
100
AcDbEntity
  8
一般
  6
Continuous
 62
     7
370
     9
100
AcDbVertex
100
AcDb2dVertex
 10
177.0272691514758
 20
-133.0167697482639
 30
0.0
  0
SEQEND
  5
1E2
330
1DA
100
AcDbEntity
  8
一般
  6
Continuous
 62
     7
370
     9
  0
HATCH
  5
1E3
330
57
100
AcDbEntity
  8
一般
  6
Continuous
 62
     7
370
     0
100
AcDbHatch
 10
0.0
 20
0.0
 30
0.0
210
0.0
220
0.0
230
1.0
  2
SOLID
 70
     1
 71
     1
 91
        1
 92
        1
 93
        7
 72
     1
 10
177.0272691514758
 20
-132.2678059895834
 11
179.1797648111979
 21
-131.1357476128471
 72
     1
 10
179.1797648111979
 20
-131.1357476128471
 11
180.3697007921007
 21
-131.1357476128471
 72
     1
 10
180.3697007921007
 20
-131.1357476128471
 11
182.5077270507813
 21
-132.2678059895834
 72
     1
 10
182.5077270507813
 20
-132.2678059895834
 11
182.5077270507813
 21
-133.0167697482639
 72
     1
 10
182.5077270507813
 20
-133.0167697482639
 11
179.7674981011284
 21
-131.6463107638889
 72
     1
 10
179.7674981011284
 20
-131.6463107638889
 11
177.0272691514758
 21
-133.0167697482639
 72
     1
 10
177.0272691514758
 20
-133.0167697482639
 11
177.0272691514758
 21
-132.2678059895834
 97
        1
330
1DA
 75
     0
 76
     1
 98
        1
 10
0.0
 20
0.0
  0
SOLID
  5
1E4
330
57
100
AcDbEntity
  8
一般
  6
Continuous
 62
     7
370
     9
100
AcDbTrace
 10
178.0676879882812
 20
-133.2806640624999
 30
0.0
 11
181.4673082139756
 21
-133.2806640624999
 31
0.0
 12
178.0676879882812
 22
-133.0681016710068
 32
0.0
 13
181.4673082139756
 23
-133.0681016710068
 33
0.0
  0
POLYLINE
  5
1E5
102
{ACAD_REACTORS
330
1F3
102
}
330
57
100
AcDbEntity
  8
一般
  6
Continuous
 62
     7
370
     9
100
AcDb2dPolyline
 66
     1
 10
0.0
 20
0.0
 30
0.0
 70
   129
  0
VERTEX
  5
1E6
330
1E5
100
AcDbEntity
  8
一般
  6
Continuous
 62
     7
370
     9
100
AcDbVertex
100
AcDb2dVertex
 10
177.0272691514758
 20
-133.9014702690972
 30
0.0
  0
VERTEX
  5
1E7
330
1E5
100
AcDbEntity
  8
一般
  6
Continuous
 62
     7
370
     9
100
AcDbVertex
100
AcDb2dVertex
 10
182.5077270507813
 20
-133.9014702690972
 30
0.0
  0
VERTEX
  5
1E8
330
1E5
100
AcDbEntity
  8
一般
  6
Continuous
 62
     7
370
     9
100
AcDbVertex
100
AcDb2dVertex
 10
182.5077270507813
 20
-134.1357367621528
 30
0.0
  0
VERTEX
  5
1E9
330
1E5
100
AcDbEntity
  8
一般
  6
Continuous
 62
     7
370
     9
100
AcDbVertex
100
AcDb2dVertex
 10
179.654498969184
 20
-134.1357367621528
 30
0.0
  0
VERTEX
  5
1EA
330
1E5
100
AcDbEntity
  8
一般
  6
Continuous
 62
     7
370
     9
100
AcDbVertex
100
AcDb2dVertex
 10
178.1655287000868
 20
-136.0095241970487
 30
0.0
  0
VERTEX
  5
1EB
330
1E5
100
AcDbEntity
  8
一般
  6
Continuous
 62
     7
370
     9
100
AcDbVertex
100
AcDb2dVertex
 10
181.3660224066841
 20
-136.0095241970487
 30
0.0
  0
VERTEX
  5
1EC
330
1E5
100
AcDbEntity
  8
一般
  6
Continuous
 62
     7
370
     9
100
AcDbVertex
100
AcDb2dVertex
 10
179.9714477539063
 20
-134.2384006076388
 30
0.0
  0
VERTEX
  5
1ED
330
1E5
100
AcDbEntity
  8
一般
  6
Continuous
 62
     7
370
     9
100
AcDbVertex
100
AcDb2dVertex
 10
180.665289984809
 20
-134.2384006076388
 30
0.0
  0
VERTEX
  5
1EE
330
1E5
100
AcDbEntity
  8
一般
  6
Continuous
 62
     7
370
     9
100
AcDbVertex
100
AcDb2dVertex
 10
182.2328084309896
 20
-136.2158854166667
 30
0.0
  0
VERTEX
  5
1EF
330
1E5
100
AcDbEntity
  8
一般
  6
Continuous
 62
     7
370
     9
100
AcDbVertex
100
AcDb2dVertex
 10
177.3021877712674
 20
-136.2158854166667
 30
0.0
  0
VERTEX
  5
1F0
330
1E5
100
AcDbEntity
  8
一般
  6
Continuous
 62
     7
370
     9
100
AcDbVertex
100
AcDb2dVertex
 10
178.9516994900173
 20
-134.1357367621528
 30
0.0
  0
VERTEX
  5
1F1
330
1E5
100
AcDbEntity
  8
一般
  6
Continuous
 62
     7
370
     9
100
AcDbVertex
100
AcDb2dVertex
 10
177.0272691514758
 20
-134.1357367621528
 30
0.0
  0
SEQEND
  5
1F2
330
1E5
100
AcDbEntity
  8
一般
  6
Continuous
 62
     7
370
     9
  0
HATCH
  5
1F3
330
57
100
AcDbEntity
  8
一般
  6
Continuous
 62
     7
370
     0
100
AcDbHatch
 10
0.0
 20
0.0
 30
0.0
210
0.0
220
0.0
230
1.0
  2
SOLID
 70
     1
 71
     1
 91
        1
 92
        1
 93
       12
 72
     1
 10
177.0272691514758
 20
-133.9014702690972
 11
182.5077270507813
 21
-133.9014702690972
 72
     1
 10
182.5077270507813
 20
-133.9014702690972
 11
182.5077270507813
 21
-134.1357367621528
 72
     1
 10
182.5077270507813
 20
-134.1357367621528
 11
179.654498969184
 21
-134.1357367621528
 72
     1
 10
179.654498969184
 20
-134.1357367621528
 11
178.1655287000868
 21
-136.0095241970487
 72
     1
 10
178.1655287000868
 20
-136.0095241970487
 11
181.3660224066841
 21
-136.0095241970487
 72
     1
 10
181.3660224066841
 20
-136.0095241970487
 11
179.9714477539063
 21
-134.2384006076388
 72
     1
 10
179.9714477539063
 20
-134.2384006076388
 11
180.665289984809
 21
-134.2384006076388
 72
     1
 10
180.665289984809
 20
-134.2384006076388
 11
182.2328084309896
 21
-136.2158854166667
 72
     1
 10
182.2328084309896
 20
-136.2158854166667
 11
177.3021877712674
 21
-136.2158854166667
 72
     1
 10
177.3021877712674
 20
-136.2158854166667
 11
178.9516994900173
 21
-134.1357367621528
 72
     1
 10
178.9516994900173
 20
-134.1357367621528
 11
177.0272691514758
 21
-134.1357367621528
 72
     1
 10
177.0272691514758
 20
-134.1357367621528
 11
177.0272691514758
 21
-133.9014702690972
 97
        1
330
1E5
 75
     0
 76
     1
 98
        1
 10
0.0
 20
0.0
  0
ENDBLK
  5
59
330
57
100
AcDbEntity
  8
0
100
AcDbBlockEnd
  0
BLOCK
  5
5B
330
5A
100
AcDbEntity
  8
0
100
AcDbBlockBegin
  2
グループ-8-1
 70
     0
 10
0.0
 20
0.0
 30
0.0
  3
グループ-8-1
  1

  0
SOLID
  5
1F4
330
5A
100
AcDbEntity
  8
一般
  6
Continuous
 62
     7
370
     9
100
AcDbTrace
 10
185.0474514431423
 20
-131.3710476345486
 30
0.0
 11
186.757596842448
 21
-131.3710476345486
 31
0.0
 12
185.0474514431423
 22
-131.1460828993056
 32
0.0
 13
186.757596842448
 23
-131.1460828993056
 33
0.0
  0
POLYLINE
  5
1F5
102
{ACAD_REACTORS
330
20D
102
}
330
5A
100
AcDbEntity
  8
一般
  6
Continuous
 62
     7
370
     9
100
AcDb2dPolyline
 66
     1
 10
0.0
 20
0.0
 30
0.0
 70
   129
  0
VERTEX
  5
1F6
330
1F5
100
AcDbEntity
  8
一般
  6
Continuous
 62
     7
370
     9
100
AcDbVertex
100
AcDb2dVertex
 10
184.7876912434896
 20
-132.620583767361
 30
0.0
  0
VERTEX
  5
1F7
330
1F5
100
AcDbEntity
  8
一般
  6
Continuous
 62
     7
370
     9
100
AcDbVertex
100
AcDb2dVertex
 10
186.8871324327258
 20
-132.620583767361
 30
0.0
  0
VERTEX
  5
1F8
330
1F5
100
AcDbEntity
  8
一般
  6
Continuous
 62
     7
370
     9
100
AcDbVertex
100
AcDb2dVertex
 10
186.8871324327258
 20
-132.8362467447917
 30
0.0
  0
VERTEX
  5
1F9
330
1F5
100
AcDbEntity
  8
一般
  6
Continuous
 62
     7
370
     9
100
AcDbVertex
100
AcDb2dVertex
 10
186.3676120334201
 20
-132.8362467447917
 30
0.0
  0
VERTEX
  5
1FA
330
1F5
100
AcDbEntity
  8
一般
  6
Continuous
 62
     7
370
     9
100
AcDbVertex
100
AcDb2dVertex
 10
186.3676120334201
 20
-133.8553059895833
 30
0.0
  0
VERTEX
  5
1FB
330
1F5
100
AcDbEntity
  8
一般
  6
Continuous
 62
     7
370
     9
100
AcDbVertex
100
AcDb2dVertex
 10
186.8154744466146
 20
-133.8553059895833
 30
0.0
  0
VERTEX
  5
1FC
330
1F5
100
AcDbEntity
  8
一般
  6
Continuous
 62
     7
370
     9
100
AcDbVertex
100
AcDb2dVertex
 10
186.8154744466146
 20
-133.9958658854166
 30
0.0
  0
VERTEX
  5
1FD
330
1F5
100
AcDbEntity
  8
一般
  6
Continuous
 62
     7
370
     9
100
AcDbVertex
100
AcDb2dVertex
 10
187.2020141601562
 20
-135.4462510850694
 30
0.0
  0
VERTEX
  5
1FE
330
1F5
100
AcDbEntity
  8
一般
  6
Continuous
 62
     7
370
     9
100
AcDbVertex
100
AcDb2dVertex
 10
187.0001315646702
 20
-135.4462510850694
 30
0.0
  0
VERTEX
  5
1FF
330
1F5
100
AcDbEntity
  8
一般
  6
Continuous
 62
     7
370
     9
100
AcDbVertex
100
AcDb2dVertex
 10
186.6129028320312
 20
-133.9958658854166
 30
0.0
  0
VERTEX
  5
200
330
1F5
100
AcDbEntity
  8
一般
  6
Continuous
 62
     7
370
     9
100
AcDbVertex
100
AcDb2dVertex
 10
186.3676120334201
 20
-133.9958658854166
 30
0.0
  0
VERTEX
  5
201
330
1F5
100
AcDbEntity
  8
一般
  6
Continuous
 62
     7
370
     9
100
AcDbVertex
100
AcDb2dVertex
 10
186.3676120334201
 20
-136.2262207031249
 30
0.0
  0
VERTEX
  5
202
330
1F5
100
AcDbEntity
  8
一般
  6
Continuous
 62
     7
370
     9
100
AcDbVertex
100
AcDb2dVertex
 10
185.5676608615451
 20
-136.2262207031249
 30
0.0
  0
VERTEX
  5
203
330
1F5
100
AcDbEntity
  8
一般
  6
Continuous
 62
     7
370
     9
100
AcDbVertex
100
AcDb2dVertex
 10
185.5676608615451
 20
-133.9958658854166
 30
0.0
  0
VERTEX
  5
204
330
1F5
100
AcDbEntity
  8
一般
  6
Continuous
 62
     7
370
     9
100
AcDbVertex
100
AcDb2dVertex
 10
185.3216810438368
 20
-133.9958658854166
 30
0.0
  0
VERTEX
  5
205
330
1F5
100
AcDbEntity
  8
一般
  6
Continuous
 62
     7
370
     9
100
AcDbVertex
100
AcDb2dVertex
 10
184.8386786566841
 20
-135.4462510850694
 30
0.0
  0
VERTEX
  5
206
330
1F5
100
AcDbEntity
  8
一般
  6
Continuous
 62
     7
370
     9
100
AcDbVertex
100
AcDb2dVertex
 10
184.6243937174478
 20
-135.4462510850694
 30
0.0
  0
VERTEX
  5
207
330
1F5
100
AcDbEntity
  8
一般
  6
Continuous
 62
     7
370
     9
100
AcDbVertex
100
AcDb2dVertex
 10
185.1073961046007
 20
-133.9958658854166
 30
0.0
  0
VERTEX
  5
208
330
1F5
100
AcDbEntity
  8
一般
  6
Continuous
 62
     7
370
     9
100
AcDbVertex
100
AcDb2dVertex
 10
185.1073961046007
 20
-133.8553059895833
 30
0.0
  0
VERTEX
  5
209
330
1F5
100
AcDbEntity
  8
一般
  6
Continuous
 62
     7
370
     9
100
AcDbVertex
100
AcDb2dVertex
 10
185.5676608615451
 20
-133.8553059895833
 30
0.0
  0
VERTEX
  5
20A
330
1F5
100
AcDbEntity
  8
一般
  6
Continuous
 62
     7
370
     9
100
AcDbVertex
100
AcDb2dVertex
 10
185.5676608615451
 20
-132.8362467447917
 30
0.0
  0
VERTEX
  5
20B
330
1F5
100
AcDbEntity
  8
一般
  6
Continuous
 62
     7
370
     9
100
AcDbVertex
100
AcDb2dVertex
 10
184.7876912434896
 20
-132.8362467447917
 30
0.0
  0
SEQEND
  5
20C
330
1F5
100
AcDbEntity
  8
一般
  6
Continuous
 62
     7
370
     9
  0
HATCH
  5
20D
330
5A
100
AcDbEntity
  8
一般
  6
Continuous
 62
     7
370
     0
100
AcDbHatch
 10
0.0
 20
0.0
 30
0.0
210
0.0
220
0.0
230
1.0
  2
SOLID
 70
     1
 71
     1
 91
        1
 92
        1
 93
       22
 72
     1
 10
184.7876912434896
 20
-132.620583767361
 11
186.8871324327258
 21
-132.620583767361
 72
     1
 10
186.8871324327258
 20
-132.620583767361
 11
186.8871324327258
 21
-132.8362467447917
 72
     1
 10
186.8871324327258
 20
-132.8362467447917
 11
186.3676120334201
 21
-132.8362467447917
 72
     1
 10
186.3676120334201
 20
-132.8362467447917
 11
186.3676120334201
 21
-133.8553059895833
 72
     1
 10
186.3676120334201
 20
-133.8553059895833
 11
186.8154744466146
 21
-133.8553059895833
 72
     1
 10
186.8154744466146
 20
-133.8553059895833
 11
186.8154744466146
 21
-133.9958658854166
 72
     1
 10
186.8154744466146
 20
-133.9958658854166
 11
187.2020141601562
 21
-135.4462510850694
 72
     1
 10
187.2020141601562
 20
-135.4462510850694
 11
187.0001315646702
 21
-135.4462510850694
 72
     1
 10
187.0001315646702
 20
-135.4462510850694
 11
186.6129028320312
 21
-133.9958658854166
 72
     1
 10
186.6129028320312
 20
-133.9958658854166
 11
186.3676120334201
 21
-133.9958658854166
 72
     1
 10
186.3676120334201
 20
-133.9958658854166
 11
186.3676120334201
 21
-136.2262207031249
 72
     1
 10
186.3676120334201
 20
-136.2262207031249
 11
185.5676608615451
 21
-136.2262207031249
 72
     1
 10
185.5676608615451
 20
-136.2262207031249
 11
185.5676608615451
 21
-133.9958658854166
 72
     1
 10
185.5676608615451
 20
-133.9958658854166
 11
185.3216810438368
 21
-133.9958658854166
 72
     1
 10
185.3216810438368
 20
-133.9958658854166
 11
184.8386786566841
 21
-135.4462510850694
 72
     1
 10
184.8386786566841
 20
-135.4462510850694
 11
184.6243937174478
 21
-135.4462510850694
 72
     1
 10
184.6243937174478
 20
-135.4462510850694
 11
185.1073961046007
 21
-133.9958658854166
 72
     1
 10
185.1073961046007
 20
-133.9958658854166
 11
185.1073961046007
 21
-133.8553059895833
 72
     1
 10
185.1073961046007
 20
-133.8553059895833
 11
185.5676608615451
 21
-133.8553059895833
 72
     1
 10
185.5676608615451
 20
-133.8553059895833
 11
185.5676608615451
 21
-132.8362467447917
 72
     1
 10
185.5676608615451
 20
-132.8362467447917
 11
184.7876912434896
 21
-132.8362467447917
 72
     1
 10
184.7876912434896
 20
-132.8362467447917
 11
184.7876912434896
 21
-132.620583767361
 97
        1
330
1F5
 75
     0
 76
     1
 98
        1
 10
0.0
 20
0.0
  0
POLYLINE
  5
20E
102
{ACAD_REACTORS
330
220
102
}
330
5A
100
AcDbEntity
  8
一般
  6
Continuous
 62
     7
370
     9
100
AcDb2dPolyline
 66
     1
 10
0.0
 20
0.0
 30
0.0
 70
   129
  0
VERTEX
  5
20F
330
20E
100
AcDbEntity
  8
一般
  6
Continuous
 62
     7
370
     9
100
AcDbVertex
100
AcDb2dVertex
 10
188.2975545247395
 20
-131.1357476128471
 30
0.0
  0
VERTEX
  5
210
330
20E
100
AcDbEntity
  8
一般
  6
Continuous
 62
     7
370
     9
100
AcDbVertex
100
AcDb2dVertex
 10
189.2277303059895
 20
-131.1357476128471
 30
0.0
  0
VERTEX
  5
211
330
20E
100
AcDbEntity
  8
一般
  6
Continuous
 62
     7
370
     9
100
AcDbVertex
100
AcDb2dVertex
 10
189.2277303059895
 20
-132.620583767361
 30
0.0
  0
VERTEX
  5
212
330
20E
100
AcDbEntity
  8
一般
  6
Continuous
 62
     7
370
     9
100
AcDbVertex
100
AcDb2dVertex
 10
190.137235514323
 20
-132.620583767361
 30
0.0
  0
VERTEX
  5
213
330
20E
100
AcDbEntity
  8
一般
  6
Continuous
 62
     7
370
     9
100
AcDbVertex
100
AcDb2dVertex
 10
190.137235514323
 20
-132.8362467447917
 30
0.0
  0
VERTEX
  5
214
330
20E
100
AcDbEntity
  8
一般
  6
Continuous
 62
     7
370
     9
100
AcDbVertex
100
AcDb2dVertex
 10
189.2277303059895
 20
-132.8362467447917
 30
0.0
  0
VERTEX
  5
215
330
20E
100
AcDbEntity
  8
一般
  6
Continuous
 62
     7
370
     9
100
AcDbVertex
100
AcDb2dVertex
 10
189.2277303059895
 20
-136.0746365017361
 30
0.0
  0
VERTEX
  5
216
330
20E
100
AcDbEntity
  8
一般
  6
Continuous
 62
     7
370
     9
100
AcDbVertex
100
AcDb2dVertex
 10
190.2674601236978
 20
-136.0746365017361
 30
0.0
  0
VERTEX
  5
217
330
20E
100
AcDbEntity
  8
一般
  6
Continuous
 62
     7
370
     9
100
AcDbVertex
100
AcDb2dVertex
 10
190.2674601236978
 20
-136.2806532118055
 30
0.0
  0
VERTEX
  5
218
330
20E
100
AcDbEntity
  8
一般
  6
Continuous
 62
     7
370
     9
100
AcDbVertex
100
AcDb2dVertex
 10
187.6471204969618
 20
-136.2806532118055
 30
0.0
  0
VERTEX
  5
219
330
20E
100
AcDbEntity
  8
一般
  6
Continuous
 62
     7
370
     9
100
AcDbVertex
100
AcDb2dVertex
 10
187.6471204969618
 20
-136.0746365017361
 30
0.0
  0
VERTEX
  5
21A
330
20E
100
AcDbEntity
  8
一般
  6
Continuous
 62
     7
370
     9
100
AcDbVertex
100
AcDb2dVertex
 10
188.2975545247395
 20
-136.0746365017361
 30
0.0
  0
VERTEX
  5
21B
330
20E
100
AcDbEntity
  8
一般
  6
Continuous
 62
     7
370
     9
100
AcDbVertex
100
AcDb2dVertex
 10
188.2975545247395
 20
-132.8362467447917
 30
0.0
  0
VERTEX
  5
21C
330
20E
100
AcDbEntity
  8
一般
  6
Continuous
 62
     7
370
     9
100
AcDbVertex
100
AcDb2dVertex
 10
187.7773451063368
 20
-132.8362467447917
 30
0.0
  0
VERTEX
  5
21D
330
20E
100
AcDbEntity
  8
一般
  6
Continuous
 62
     7
370
     9
100
AcDbVertex
100
AcDb2dVertex
 10
187.7773451063368
 20
-132.620583767361
 30
0.0
  0
VERTEX
  5
21E
330
20E
100
AcDbEntity
  8
一般
  6
Continuous
 62
     7
370
     9
100
AcDbVertex
100
AcDb2dVertex
 10
188.2975545247395
 20
-132.620583767361
 30
0.0
  0
SEQEND
  5
21F
330
20E
100
AcDbEntity
  8
一般
  6
Continuous
 62
     7
370
     9
  0
HATCH
  5
220
330
5A
100
AcDbEntity
  8
一般
  6
Continuous
 62
     7
370
     0
100
AcDbHatch
 10
0.0
 20
0.0
 30
0.0
210
0.0
220
0.0
230
1.0
  2
SOLID
 70
     1
 71
     1
 91
        1
 92
        1
 93
       16
 72
     1
 10
188.2975545247395
 20
-131.1357476128471
 11
189.2277303059895
 21
-131.1357476128471
 72
     1
 10
189.2277303059895
 20
-131.1357476128471
 11
189.2277303059895
 21
-132.620583767361
 72
     1
 10
189.2277303059895
 20
-132.620583767361
 11
190.137235514323
 21
-132.620583767361
 72
     1
 10
190.137235514323
 20
-132.620583767361
 11
190.137235514323
 21
-132.8362467447917
 72
     1
 10
190.137235514323
 20
-132.8362467447917
 11
189.2277303059895
 21
-132.8362467447917
 72
     1
 10
189.2277303059895
 20
-132.8362467447917
 11
189.2277303059895
 21
-136.0746365017361
 72
     1
 10
189.2277303059895
 20
-136.0746365017361
 11
190.2674601236978
 21
-136.0746365017361
 72
     1
 10
190.2674601236978
 20
-136.0746365017361
 11
190.2674601236978
 21
-136.2806532118055
 72
     1
 10
190.2674601236978
 20
-136.2806532118055
 11
187.6471204969618
 21
-136.2806532118055
 72
     1
 10
187.6471204969618
 20
-136.2806532118055
 11
187.6471204969618
 21
-136.0746365017361
 72
     1
 10
187.6471204969618
 20
-136.0746365017361
 11
188.2975545247395
 21
-136.0746365017361
 72
     1
 10
188.2975545247395
 20
-136.0746365017361
 11
188.2975545247395
 21
-132.8362467447917
 72
     1
 10
188.2975545247395
 20
-132.8362467447917
 11
187.7773451063368
 21
-132.8362467447917
 72
     1
 10
187.7773451063368
 20
-132.8362467447917
 11
187.7773451063368
 21
-132.620583767361
 72
     1
 10
187.7773451063368
 20
-132.620583767361
 11
188.2975545247395
 21
-132.620583767361
 72
     1
 10
188.2975545247395
 20
-132.620583767361
 11
188.2975545247395
 21
-131.1357476128471
 97
        1
330
20E
 75
     0
 76
     1
 98
        1
 10
0.0
 20
0.0
  0
ENDBLK
  5
5C
330
5A
100
AcDbEntity
  8
0
100
AcDbBlockEnd
  0
BLOCK
  5
5E
330
5D
100
AcDbEntity
  8
0
100
AcDbBlockBegin
  2
グループ-9-1
 70
     0
 10
0.0
 20
0.0
 30
0.0
  3
グループ-9-1
  1

  0
INSERT
  5
221
330
5D
100
AcDbEntity
  8
一般
 62
     7
100
AcDbBlockReference
  2
グループ-1
 10
0.0
 20
0.0
 30
0.0
  0
INSERT
  5
222
330
5D
100
AcDbEntity
  8
一般
 62
     7
100
AcDbBlockReference
  2
グループ-2-1
 10
0.0
 20
0.0
 30
0.0
  0
INSERT
  5
223
330
5D
100
AcDbEntity
  8
一般
 62
     7
100
AcDbBlockReference
  2
グループ-3-1
 10
0.0
 20
0.0
 30
0.0
  0
INSERT
  5
224
330
5D
100
AcDbEntity
  8
一般
 62
     7
100
AcDbBlockReference
  2
グループ-4-1
 10
0.0
 20
0.0
 30
0.0
  0
INSERT
  5
225
330
5D
100
AcDbEntity
  8
一般
 62
     7
100
AcDbBlockReference
  2
グループ-5-1
 10
0.0
 20
0.0
 30
0.0
  0
INSERT
  5
226
330
5D
100
AcDbEntity
  8
一般
 62
     7
100
AcDbBlockReference
  2
グループ-6-1
 10
0.0
 20
0.0
 30
0.0
  0
INSERT
  5
227
330
5D
100
AcDbEntity
  8
一般
 62
     7
100
AcDbBlockReference
  2
グループ-7-1
 10
0.0
 20
0.0
 30
0.0
  0
INSERT
  5
228
330
5D
100
AcDbEntity
  8
一般
 62
     7
100
AcDbBlockReference
  2
グループ-8-1
 10
0.0
 20
0.0
 30
0.0
  0
ENDBLK
  5
5F
330
5D
100
AcDbEntity
  8
0
100
AcDbBlockEnd
  0
BLOCK
  5
61
330
60
100
AcDbEntity
  8
0
100
AcDbBlockBegin
  2
*D12
 70
     1
 10
0.0
 20
0.0
 30
0.0
  3
*D12
  1

  0
LINE
  5
229
330
60
100
AcDbEntity
  8
一般
  6
Continuous
 62
     0
370
    -2
100
AcDbLine
 10
-134.7835599584672
 20
-91.0
 30
0.0
 11
180.6252852179696
 21
-90.99999999999997
 31
0.0
  0
LINE
  5
22A
330
60
100
AcDbEntity
  8
一般
  6
Continuous
 62
     0
370
    -2
100
AcDbLine
 10
172.7038008469018
 20
-1.000000000000455
 30
0.0
 11
180.6252852179696
 21
-1.000000000000454
 31
0.0
  0
LINE
  5
22B
330
60
100
AcDbEntity
  8
一般
  6
Continuous
 62
     0
370
    -2
100
AcDbLine
 10
180.6112852179696
 20
-88.46062011718747
 30
0.0
 11
180.6112852179696
 21
-3.539379882812954
 31
0.0
  0
INSERT
  5
22C
330
60
100
AcDbEntity
  8
一般
 62
     0
370
    -2
100
AcDbBlockReference
  2
VW_EMPTYARROW
 10
180.6112852179696
 20
-90.99999999999997
 30
0.0
 41
2.5393798828125
 42
2.5393798828125
 43
2.5393798828125
 50
270.0
  0
INSERT
  5
231
330
60
100
AcDbEntity
  8
一般
 62
     0
370
    -2
100
AcDbBlockReference
  2
VW_EMPTYARROW
 10
180.6112852179696
 20
-1.000000000000454
 30
0.0
 41
2.5393798828125
 42
2.5393798828125
 43
2.5393798828125
 50
90.0
  0
MTEXT
  5
236
330
60
100
AcDbEntity
  8
一般
 62
     0
370
     9
100
AcDbMText
 10
179.3412852179696
 20
-46.00000000000021
 30
0.0
 40
2.5
 41
0.0
 71
     5
 72
     1
  1
\A1;90
  7
MS PMincho
 11
0.0
 21
1.0
 31
0.0
 73
     1
 44
1.0
  0
POINT
  5
237
330
60
100
AcDbEntity
  8
Defpoints
 62
     0
100
AcDbPoint
 10
-134.7835599584672
 20
-91.0
 30
0.0
  0
POINT
  5
238
330
60
100
AcDbEntity
  8
Defpoints
 62
     0
100
AcDbPoint
 10
172.7038008469018
 20
-1.000000000000455
 30
0.0
  0
POINT
  5
239
330
60
100
AcDbEntity
  8
Defpoints
 62
     0
100
AcDbPoint
 10
180.6112852179696
 20
-1.000000000000454
 30
0.0
  0
ENDBLK
  5
62
330
60
100
AcDbEntity
  8
0
100
AcDbBlockEnd
  0
BLOCK
  5
64
330
63
100
AcDbEntity
  8
0
100
AcDbBlockBegin
  2
*D13
 70
     1
 10
0.0
 20
0.0
 30
0.0
  3
*D13
  1

  0
LINE
  5
23A
330
63
100
AcDbEntity
  8
一般
  6
Continuous
 62
     0
370
    -2
100
AcDbLine
 10
-107.014
 20
-91.0
 30
0.0
 11
172.7178008469018
 21
-91.0
 31
0.0
  0
LINE
  5
23B
330
63
100
AcDbEntity
  8
一般
  6
Continuous
 62
     0
370
    -2
100
AcDbLine
 10
172.7038008469018
 20
-57.0
 30
0.0
 11
172.7178008469018
 21
-57.0
 31
0.0
  0
LINE
  5
23C
330
63
100
AcDbEntity
  8
一般
  6
Continuous
 62
     0
370
    -2
100
AcDbLine
 10
172.7038008469018
 20
-88.4606201171875
 30
0.0
 11
172.7038008469018
 21
-59.5393798828125
 31
0.0
  0
INSERT
  5
23D
330
63
100
AcDbEntity
  8
一般
 62
     0
370
    -2
100
AcDbBlockReference
  2
VW_EMPTYARROW
 10
172.7038008469018
 20
-91.0
 30
0.0
 41
2.5393798828125
 42
2.5393798828125
 43
2.5393798828125
 50
270.0
  0
INSERT
  5
242
330
63
100
AcDbEntity
  8
一般
 62
     0
370
    -2
100
AcDbBlockReference
  2
VW_EMPTYARROW
 10
172.7038008469018
 20
-57.0
 30
0.0
 41
2.5393798828125
 42
2.5393798828125
 43
2.5393798828125
 50
90.0
  0
MTEXT
  5
247
330
63
100
AcDbEntity
  8
一般
 62
     0
370
     9
100
AcDbMText
 10
171.4338008469018
 20
-74.0
 30
0.0
 40
2.5
 41
0.0
 71
     5
 72
     1
  1
\A1;34
  7
MS PMincho
 11
0.0
 21
1.0
 31
0.0
 73
     1
 44
1.0
  0
POINT
  5
248
330
63
100
AcDbEntity
  8
Defpoints
 62
     0
100
AcDbPoint
 10
-107.014
 20
-91.0
 30
0.0
  0
POINT
  5
249
330
63
100
AcDbEntity
  8
Defpoints
 62
     0
100
AcDbPoint
 10
172.7038008469018
 20
-57.0
 30
0.0
  0
POINT
  5
24A
330
63
100
AcDbEntity
  8
Defpoints
 62
     0
100
AcDbPoint
 10
172.7038008469018
 20
-57.0
 30
0.0
  0
ENDBLK
  5
65
330
63
100
AcDbEntity
  8
0
100
AcDbBlockEnd
  0
BLOCK
  5
67
330
66
100
AcDbEntity
  8
0
100
AcDbBlockBegin
  2
*D14
 70
     1
 10
0.0
 20
0.0
 30
0.0
  3
*D14
  1

  0
LINE
  5
24B
330
66
100
AcDbEntity
  8
一般
  6
Continuous
 62
     0
370
    -2
100
AcDbLine
 10
155.2164400415319
 20
-16.49479305373688
 30
0.0
 11
155.2164400415319
 21
-98.74234758373937
 31
0.0
  0
LINE
  5
24C
330
66
100
AcDbEntity
  8
一般
  6
Continuous
 62
     0
370
    -2
100
AcDbLine
 10
-139.7835599584681
 20
-88.72834758373938
 30
0.0
 11
-139.7835599584681
 21
-98.74234758373937
 31
0.0
  0
LINE
  5
24D
330
66
100
AcDbEntity
  8
一般
  6
Continuous
 62
     0
370
    -2
100
AcDbLine
 10
152.6770601587194
 20
-98.72834758373938
 30
0.0
 11
-137.2441800756556
 21
-98.72834758373938
 31
0.0
  0
INSERT
  5
24E
330
66
100
AcDbEntity
  8
一般
 62
     0
370
    -2
100
AcDbBlockReference
  2
VW_EMPTYARROW
 10
155.2164400415319
 20
-98.72834758373938
 30
0.0
 41
2.5393798828125
 42
2.5393798828125
 43
2.5393798828125
  0
INSERT
  5
253
330
66
100
AcDbEntity
  8
一般
 62
     0
370
    -2
100
AcDbBlockReference
  2
VW_EMPTYARROW
 10
-139.7835599584681
 20
-98.72834758373938
 30
0.0
 41
2.5393798828125
 42
2.5393798828125
 43
2.5393798828125
 50
180.0
  0
MTEXT
  5
258
330
66
100
AcDbEntity
  8
一般
 62
     0
370
     9
100
AcDbMText
 10
7.716440041531882
 20
-97.45834758373938
 30
0.0
 40
2.5
 41
0.0
 71
     5
 72
     1
  1
\A1;600
  7
MS PMincho
 73
     1
 44
1.0
  0
POINT
  5
259
330
66
100
AcDbEntity
  8
Defpoints
 62
     0
100
AcDbPoint
 10
155.2164400415319
 20
-16.49479305373688
 30
0.0
  0
POINT
  5
25A
330
66
100
AcDbEntity
  8
Defpoints
 62
     0
100
AcDbPoint
 10
-139.7835599584681
 20
-88.72834758373938
 30
0.0
  0
POINT
  5
25B
330
66
100
AcDbEntity
  8
Defpoints
 62
     0
100
AcDbPoint
 10
-139.7835599584681
 20
-98.72834758373938
 30
0.0
  0
ENDBLK
  5
68
330
66
100
AcDbEntity
  8
0
100
AcDbBlockEnd
  0
BLOCK
  5
6A
330
69
100
AcDbEntity
  8
0
100
AcDbBlockBegin
  2
*D15
 70
     1
 10
0.0
 20
0.0
 30
0.0
  3
*D15
  1

  0
LINE
  5
25C
330
69
100
AcDbEntity
  8
一般
  6
Continuous
 62
     0
370
    -2
100
AcDbLine
 10
-132.2135599584689
 20
-48.89497200000142
 30
0.0
 11
-107.0
 21
-48.89497200000142
 31
0.0
  0
LINE
  5
25D
330
69
100
AcDbEntity
  8
一般
  6
Continuous
 62
     0
370
    -2
100
AcDbLine
 10
-107.014
 20
-51.0
 30
0.0
 11
-107.0
 21
-51.0
 31
0.0
  0
LINE
  5
25E
330
69
100
AcDbEntity
  8
一般
  6
Continuous
 62
     0
370
    -2
100
AcDbLine
 10
-107.014
 20
-48.89497200000142
 30
0.0
 11
-107.014
 21
-51.0
 31
0.0
  0
LINE
  5
25F
330
69
100
AcDbEntity
  8
一般
  6
Continuous
 62
     0
370
    -2
100
AcDbLine
 10
-107.014
 20
-46.35559211718892
 30
0.0
 11
-107.014
 21
-43.81621223437642
 31
0.0
  0
LINE
  5
260
330
69
100
AcDbEntity
  8
一般
  6
Continuous
 62
     0
370
    -2
100
AcDbLine
 10
-107.014
 20
-53.5393798828125
 30
0.0
 11
-107.014
 21
-56.07875976562499
 31
0.0
  0
INSERT
  5
265
330
69
100
AcDbEntity
  8
一般
 62
     0
370
    -2
100
AcDbBlockReference
  2
VW_EMPTYARROW
 10
-107.014
 20
-48.89497200000142
 30
0.0
 41
2.5393798828125
 42
2.5393798828125
 43
2.5393798828125
 50
270.0
  0
INSERT
  5
266
330
69
100
AcDbEntity
  8
一般
 62
     0
370
    -2
100
AcDbBlockReference
  2
VW_EMPTYARROW
 10
-107.014
 20
-51.0
 30
0.0
 41
2.5393798828125
 42
2.5393798828125
 43
2.5393798828125
 50
90.0
  0
MTEXT
  5
26B
330
69
100
AcDbEntity
  8
一般
 62
     0
370
     9
100
AcDbMText
 10
-108.284
 20
-49.94748600000071
 30
0.0
 40
2.5
 41
0.0
 71
     5
 72
     1
  1
\A1;2
  7
MS PMincho
 11
0.0
 21
1.0
 31
0.0
 73
     1
 44
1.0
  0
POINT
  5
26C
330
69
100
AcDbEntity
  8
Defpoints
 62
     0
100
AcDbPoint
 10
-132.2135599584689
 20
-48.89497200000142
 30
0.0
  0
POINT
  5
26D
330
69
100
AcDbEntity
  8
Defpoints
 62
     0
100
AcDbPoint
 10
-107.014
 20
-51.0
 30
0.0
  0
POINT
  5
26E
330
69
100
AcDbEntity
  8
Defpoints
 62
     0
100
AcDbPoint
 10
-107.014
 20
-51.0
 30
0.0
  0
ENDBLK
  5
6B
330
69
100
AcDbEntity
  8
0
100
AcDbBlockEnd
  0
BLOCK
  5
6D
330
6C
100
AcDbEntity
  8
0
100
AcDbBlockBegin
  2
*D16
 70
     1
 10
0.0
 20
0.0
 30
0.0
  3
*D16
  1

  0
LINE
  5
26F
330
6C
100
AcDbEntity
  8
一般
  6
Continuous
 62
     0
370
    -2
100
AcDbLine
 10
114.5476322031119
 20
-57.00000000000045
 30
0.0
 11
114.5616322031119
 21
-57.00000000000045
 31
0.0
  0
LINE
  5
270
330
6C
100
AcDbEntity
  8
一般
  6
Continuous
 62
     0
370
    -2
100
AcDbLine
 10
114.5476322031119
 20
-51.00000000000045
 30
0.0
 11
114.5616322031119
 21
-51.00000000000045
 31
0.0
  0
LINE
  5
271
330
6C
100
AcDbEntity
  8
一般
  6
Continuous
 62
     0
370
    -2
100
AcDbLine
 10
114.5476322031119
 20
-54.46062011718796
 30
0.0
 11
114.5476322031119
 21
-53.53937988281295
 31
0.0
  0
INSERT
  5
272
330
6C
100
AcDbEntity
  8
一般
 62
     0
370
    -2
100
AcDbBlockReference
  2
VW_EMPTYARROW
 10
114.5476322031119
 20
-57.00000000000045
 30
0.0
 41
2.5393798828125
 42
2.5393798828125
 43
2.5393798828125
 50
270.0
  0
INSERT
  5
273
330
6C
100
AcDbEntity
  8
一般
 62
     0
370
    -2
100
AcDbBlockReference
  2
VW_EMPTYARROW
 10
114.5476322031119
 20
-51.00000000000045
 30
0.0
 41
2.5393798828125
 42
2.5393798828125
 43
2.5393798828125
 50
90.0
  0
MTEXT
  5
278
330
6C
100
AcDbEntity
  8
一般
 62
     0
370
     9
100
AcDbMText
 10
116.3960920245409
 20
-54.00000000000045
 30
0.0
 40
2.5
 41
0.0
 71
     5
 72
     1
  1
\A1;6
  7
MS PMincho
 11
0.0
 21
1.0
 31
0.0
 73
     1
 44
1.0
  0
POINT
  5
279
330
6C
100
AcDbEntity
  8
Defpoints
 62
     0
100
AcDbPoint
 10
114.5476322031119
 20
-57.00000000000045
 30
0.0
  0
POINT
  5
27E
330
6C
100
AcDbEntity
  8
Defpoints
 62
     0
100
AcDbPoint
 10
114.5476322031119
 20
-51.00000000000045
 30
0.0
  0
POINT
  5
27F
330
6C
100
AcDbEntity
  8
Defpoints
 62
     0
100
AcDbPoint
 10
114.5476322031119
 20
-51.00000000000045
 30
0.0
  0
ENDBLK
  5
6E
330
6C
100
AcDbEntity
  8
0
100
AcDbBlockEnd
  0
BLOCK
  5
70
330
6F
100
AcDbEntity
  8
0
100
AcDbBlockBegin
  2
*D17
 70
     1
 10
0.0
 20
0.0
 30
0.0
  3
*D17
  1

  0
LINE
  5
282
330
6F
100
AcDbEntity
  8
一般
  6
Continuous
 62
     0
370
    -2
100
AcDbLine
 10
114.5476322031119
 20
-51.00000000000045
 30
0.0
 11
114.5616322031119
 21
-51.00000000000045
 31
0.0
  0
LINE
  5
283
330
6F
100
AcDbEntity
  8
一般
  6
Continuous
 62
     0
370
    -2
100
AcDbLine
 10
143.037816025034
 20
-0.9999999999995453
 30
0.0
 11
114.5336322031119
 21
-0.999999999999547
 31
0.0
  0
LINE
  5
284
330
6F
100
AcDbEntity
  8
一般
  6
Continuous
 62
     0
370
    -2
100
AcDbLine
 10
114.5476322031119
 20
-48.46062011718796
 30
0.0
 11
114.5476322031119
 21
-3.539379882812047
 31
0.0
  0
INSERT
  5
285
330
6F
100
AcDbEntity
  8
一般
 62
     0
370
    -2
100
AcDbBlockReference
  2
VW_EMPTYARROW
 10
114.5476322031119
 20
-51.00000000000045
 30
0.0
 41
2.5393798828125
 42
2.5393798828125
 43
2.5393798828125
 50
270.0
  0
INSERT
  5
28A
330
6F
100
AcDbEntity
  8
一般
 62
     0
370
    -2
100
AcDbBlockReference
  2
VW_EMPTYARROW
 10
114.5476322031119
 20
-0.999999999999547
 30
0.0
 41
2.5393798828125
 42
2.5393798828125
 43
2.5393798828125
 50
90.0
  0
MTEXT
  5
28F
330
6F
100
AcDbEntity
  8
一般
 62
     0
370
     9
100
AcDbMText
 10
113.2776322031119
 20
-26.0
 30
0.0
 40
2.5
 41
0.0
 71
     5
 72
     1
  1
\A1;50
  7
MS PMincho
 11
0.0
 21
1.0
 31
0.0
 73
     1
 44
1.0
  0
POINT
  5
290
330
6F
100
AcDbEntity
  8
Defpoints
 62
     0
100
AcDbPoint
 10
114.5476322031119
 20
-51.00000000000045
 30
0.0
  0
POINT
  5
291
330
6F
100
AcDbEntity
  8
Defpoints
 62
     0
100
AcDbPoint
 10
143.037816025034
 20
-0.9999999999995453
 30
0.0
  0
POINT
  5
292
330
6F
100
AcDbEntity
  8
Defpoints
 62
     0
100
AcDbPoint
 10
114.5476322031119
 20
-0.999999999999547
 30
0.0
  0
ENDBLK
  5
71
330
6F
100
AcDbEntity
  8
0
100
AcDbBlockEnd
  0
BLOCK
  5
73
330
72
100
AcDbEntity
  8
0
100
AcDbBlockBegin
  2
*D18
 70
     1
 10
0.0
 20
0.0
 30
0.0
  3
*D18
  1

  0
LINE
  5
293
330
72
100
AcDbEntity
  8
一般
  6
Continuous
 62
     0
370
    -2
100
AcDbLine
 10
165.2164400415319
 20
-57.0
 30
0.0
 11
172.7178008469018
 21
-57.0
 31
0.0
  0
LINE
  5
294
330
72
100
AcDbEntity
  8
一般
  6
Continuous
 62
     0
370
    -2
100
AcDbLine
 10
165.2164400415319
 20
-1.000000000000455
 30
0.0
 11
172.7178008469018
 21
-1.000000000000454
 31
0.0
  0
LINE
  5
295
330
72
100
AcDbEntity
  8
一般
  6
Continuous
 62
     0
370
    -2
100
AcDbLine
 10
172.7038008469018
 20
-54.4606201171875
 30
0.0
 11
172.7038008469018
 21
-3.539379882812954
 31
0.0
  0
INSERT
  5
296
330
72
100
AcDbEntity
  8
一般
 62
     0
370
    -2
100
AcDbBlockReference
  2
VW_EMPTYARROW
 10
172.7038008469018
 20
-57.0
 30
0.0
 41
2.5393798828125
 42
2.5393798828125
 43
2.5393798828125
 50
270.0
  0
INSERT
  5
29B
330
72
100
AcDbEntity
  8
一般
 62
     0
370
    -2
100
AcDbBlockReference
  2
VW_EMPTYARROW
 10
172.7038008469018
 20
-1.000000000000454
 30
0.0
 41
2.5393798828125
 42
2.5393798828125
 43
2.5393798828125
 50
90.0
  0
MTEXT
  5
2A0
330
72
100
AcDbEntity
  8
一般
 62
     0
370
     9
100
AcDbMText
 10
171.4338008469018
 20
-29.00000000000023
 30
0.0
 40
2.5
 41
0.0
 71
     5
 72
     1
  1
\A1;56
  7
MS PMincho
 11
0.0
 21
1.0
 31
0.0
 73
     1
 44
1.0
  0
POINT
  5
2A1
330
72
100
AcDbEntity
  8
Defpoints
 62
     0
100
AcDbPoint
 10
165.2164400415319
 20
-57.0
 30
0.0
  0
POINT
  5
2A2
330
72
100
AcDbEntity
  8
Defpoints
 62
     0
100
AcDbPoint
 10
165.2164400415319
 20
-1.000000000000455
 30
0.0
  0
POINT
  5
2A3
330
72
100
AcDbEntity
  8
Defpoints
 62
     0
100
AcDbPoint
 10
172.7038008469018
 20
-1.000000000000454
 30
0.0
  0
ENDBLK
  5
74
330
72
100
AcDbEntity
  8
0
100
AcDbBlockEnd
  0
BLOCK
  5
76
330
75
100
AcDbEntity
  8
0
100
AcDbBlockBegin
  2
*D19
 70
     1
 10
0.0
 20
0.0
 30
0.0
  3
*D19
  1

  0
LINE
  5
2A4
330
75
100
AcDbEntity
  8
一般
  6
Continuous
 62
     0
370
    -2
100
AcDbLine
 10
145.2164400415332
 20
-57.0
 30
0.0
 11
165.2304400415319
 21
-57.0
 31
0.0
  0
LINE
  5
2A5
330
75
100
AcDbEntity
  8
一般
  6
Continuous
 62
     0
370
    -2
100
AcDbLine
 10
165.2164400415319
 20
-7.000000000000455
 30
0.0
 11
165.2304400415319
 21
-7.000000000000455
 31
0.0
  0
LINE
  5
2A6
330
75
100
AcDbEntity
  8
一般
  6
Continuous
 62
     0
370
    -2
100
AcDbLine
 10
165.2164400415319
 20
-54.4606201171875
 30
0.0
 11
165.2164400415319
 21
-9.539379882812955
 31
0.0
  0
INSERT
  5
2A7
330
75
100
AcDbEntity
  8
一般
 62
     0
370
    -2
100
AcDbBlockReference
  2
VW_EMPTYARROW
 10
165.2164400415319
 20
-57.0
 30
0.0
 41
2.5393798828125
 42
2.5393798828125
 43
2.5393798828125
 50
270.0
  0
INSERT
  5
2AC
330
75
100
AcDbEntity
  8
一般
 62
     0
370
    -2
100
AcDbBlockReference
  2
VW_EMPTYARROW
 10
165.2164400415319
 20
-7.000000000000455
 30
0.0
 41
2.5393798828125
 42
2.5393798828125
 43
2.5393798828125
 50
90.0
  0
MTEXT
  5
2B1
330
75
100
AcDbEntity
  8
一般
 62
     0
370
     9
100
AcDbMText
 10
163.9464400415319
 20
-32.00000000000023
 30
0.0
 40
2.5
 41
0.0
 71
     5
 72
     1
  1
\A1;50
  7
MS PMincho
 11
0.0
 21
1.0
 31
0.0
 73
     1
 44
1.0
  0
POINT
  5
2B2
330
75
100
AcDbEntity
  8
Defpoints
 62
     0
100
AcDbPoint
 10
145.2164400415332
 20
-57.0
 30
0.0
  0
POINT
  5
2B3
330
75
100
AcDbEntity
  8
Defpoints
 62
     0
100
AcDbPoint
 10
165.2164400415319
 20
-7.000000000000455
 30
0.0
  0
POINT
  5
2B4
330
75
100
AcDbEntity
  8
Defpoints
 62
     0
100
AcDbPoint
 10
165.2164400415319
 20
-7.000000000000455
 30
0.0
  0
ENDBLK
  5
77
330
75
100
AcDbEntity
  8
0
100
AcDbBlockEnd
  0
BLOCK
  5
79
330
78
100
AcDbEntity
  8
0
100
AcDbBlockBegin
  2
*D20
 70
     1
 10
0.0
 20
0.0
 30
0.0
  3
*D20
  1

  0
LINE
  5
2B5
330
78
100
AcDbEntity
  8
一般
  6
Continuous
 62
     0
370
    -2
100
AcDbLine
 10
155.2164400415319
 20
-7.000000000000455
 30
0.0
 11
155.2164400415319
 21
-28.78044546999751
 31
0.0
  0
LINE
  5
2B6
330
78
100
AcDbEntity
  8
一般
  6
Continuous
 62
     0
370
    -2
100
AcDbLine
 10
146.2164400415323
 20
-28.76644546999751
 30
0.0
 11
146.2164400415323
 21
-28.78044546999751
 31
0.0
  0
LINE
  5
2B7
330
78
100
AcDbEntity
  8
一般
  6
Continuous
 62
     0
370
    -2
100
AcDbLine
 10
152.6770601587194
 20
-28.76644546999751
 30
0.0
 11
148.7558199243448
 21
-28.76644546999751
 31
0.0
  0
INSERT
  5
2B8
330
78
100
AcDbEntity
  8
一般
 62
     0
370
    -2
100
AcDbBlockReference
  2
VW_EMPTYARROW
 10
155.2164400415319
 20
-28.76644546999751
 30
0.0
 41
2.5393798828125
 42
2.5393798828125
 43
2.5393798828125
  0
INSERT
  5
2BD
330
78
100
AcDbEntity
  8
一般
 62
     0
370
    -2
100
AcDbBlockReference
  2
VW_EMPTYARROW
 10
146.2164400415323
 20
-28.76644546999751
 30
0.0
 41
2.5393798828125
 42
2.5393798828125
 43
2.5393798828125
 50
180.0
  0
MTEXT
  5
2C2
330
78
100
AcDbEntity
  8
一般
 62
     0
370
     9
100
AcDbMText
 10
150.7164400415321
 20
-27.49644546999751
 30
0.0
 40
2.5
 41
0.0
 71
     5
 72
     1
  1
\A1;9
  7
MS PMincho
 73
     1
 44
1.0
  0
POINT
  5
2C3
330
78
100
AcDbEntity
  8
Defpoints
 62
     0
100
AcDbPoint
 10
155.2164400415319
 20
-7.000000000000455
 30
0.0
  0
POINT
  5
2C4
330
78
100
AcDbEntity
  8
Defpoints
 62
     0
100
AcDbPoint
 10
146.2164400415323
 20
-28.76644546999751
 30
0.0
  0
POINT
  5
2C5
330
78
100
AcDbEntity
  8
Defpoints
 62
     0
100
AcDbPoint
 10
146.2164400415323
 20
-28.76644546999751
 30
0.0
  0
ENDBLK
  5
7A
330
78
100
AcDbEntity
  8
0
100
AcDbBlockEnd
  0
BLOCK
  5
7C
330
7B
100
AcDbEntity
  8
0
100
AcDbBlockBegin
  2
*D21
 70
     1
 10
0.0
 20
0.0
 30
0.0
  3
*D21
  1

  0
LINE
  5
2C6
330
7B
100
AcDbEntity
  8
一般
  6
Continuous
 62
     0
370
    -2
100
AcDbLine
 10
155.2164400415319
 20
-7.000000000000455
 30
0.0
 11
165.2104400415319
 21
-7.000000000000454
 31
0.0
  0
LINE
  5
2C7
330
7B
100
AcDbEntity
  8
一般
  6
Continuous
 62
     0
370
    -2
100
AcDbLine
 10
155.2164400415319
 20
-1.000000000000455
 30
0.0
 11
165.2104400415319
 21
-1.000000000000454
 31
0.0
  0
LINE
  5
2C8
330
7B
100
AcDbEntity
  8
一般
  6
Continuous
 62
     0
370
    -2
100
AcDbLine
 10
165.1964400415318
 20
-4.460620117187954
 30
0.0
 11
165.1964400415318
 21
-3.539379882812954
 31
0.0
  0
INSERT
  5
2C9
330
7B
100
AcDbEntity
  8
一般
 62
     0
370
    -2
100
AcDbBlockReference
  2
VW_EMPTYARROW
 10
165.1964400415318
 20
-7.000000000000454
 30
0.0
 41
2.5393798828125
 42
2.5393798828125
 43
2.5393798828125
 50
270.0
  0
INSERT
  5
2CA
330
7B
100
AcDbEntity
  8
一般
 62
     0
370
    -2
100
AcDbBlockReference
  2
VW_EMPTYARROW
 10
165.1964400415318
 20
-1.000000000000454
 30
0.0
 41
2.5393798828125
 42
2.5393798828125
 43
2.5393798828125
 50
90.0
  0
MTEXT
  5
2CF
330
7B
100
AcDbEntity
  8
一般
 62
     0
370
     9
100
AcDbMText
 10
163.9264400415318
 20
-4.000000000000454
 30
0.0
 40
2.5
 41
0.0
 71
     5
 72
     1
  1
\A1;6
  7
MS PMincho
 11
0.0
 21
1.0
 31
0.0
 73
     1
 44
1.0
  0
POINT
  5
2D0
330
7B
100
AcDbEntity
  8
Defpoints
 62
     0
100
AcDbPoint
 10
155.2164400415319
 20
-7.000000000000455
 30
0.0
  0
POINT
  5
2D5
330
7B
100
AcDbEntity
  8
Defpoints
 62
     0
100
AcDbPoint
 10
155.2164400415319
 20
-1.000000000000455
 30
0.0
  0
POINT
  5
2D6
330
7B
100
AcDbEntity
  8
Defpoints
 62
     0
100
AcDbPoint
 10
165.1964400415318
 20
-1.000000000000454
 30
0.0
  0
ENDBLK
  5
7D
330
7B
100
AcDbEntity
  8
0
100
AcDbBlockEnd
  0
BLOCK
  5
7F
330
7E
100
AcDbEntity
  8
0
100
AcDbBlockBegin
  2
*D22
 70
     1
 10
0.0
 20
0.0
 30
0.0
  3
*D22
  1

  0
LINE
  5
2D9
330
7E
100
AcDbEntity
  8
一般
  6
Continuous
 62
     0
370
    -2
100
AcDbLine
 10
139.7164400415314
 20
-0.9999999999990905
 30
0.0
 11
139.7164400415314
 21
4.821688350354511
 31
0.0
  0
LINE
  5
2DA
330
7E
100
AcDbEntity
  8
一般
  6
Continuous
 62
     0
370
    -2
100
AcDbLine
 10
155.2164400415319
 20
-1.000000000000455
 30
0.0
 11
155.2164400415319
 21
4.821688350354511
 31
0.0
  0
LINE
  5
2DB
330
7E
100
AcDbEntity
  8
一般
  6
Continuous
 62
     0
370
    -2
100
AcDbLine
 10
142.2558199243439
 20
4.80768835035451
 30
0.0
 11
152.6770601587194
 21
4.80768835035451
 31
0.0
  0
INSERT
  5
2DC
330
7E
100
AcDbEntity
  8
一般
 62
     0
370
    -2
100
AcDbBlockReference
  2
VW_EMPTYARROW
 10
139.7164400415314
 20
4.80768835035451
 30
0.0
 41
2.5393798828125
 42
2.5393798828125
 43
2.5393798828125
 50
180.0
  0
INSERT
  5
2E1
330
7E
100
AcDbEntity
  8
一般
 62
     0
370
    -2
100
AcDbBlockReference
  2
VW_EMPTYARROW
 10
155.2164400415319
 20
4.80768835035451
 30
0.0
 41
2.5393798828125
 42
2.5393798828125
 43
2.5393798828125
  0
MTEXT
  5
2E6
330
7E
100
AcDbEntity
  8
一般
 62
     0
370
     9
100
AcDbMText
 10
147.4664400415317
 20
6.07768835035451
 30
0.0
 40
2.5
 41
0.0
 71
     5
 72
     1
  1
\A1;15.5
  7
MS PMincho
 73
     1
 44
1.0
  0
POINT
  5
2E7
330
7E
100
AcDbEntity
  8
Defpoints
 62
     0
100
AcDbPoint
 10
139.7164400415314
 20
-0.9999999999990905
 30
0.0
  0
POINT
  5
2E8
330
7E
100
AcDbEntity
  8
Defpoints
 62
     0
100
AcDbPoint
 10
155.2164400415319
 20
-1.000000000000455
 30
0.0
  0
POINT
  5
2E9
330
7E
100
AcDbEntity
  8
Defpoints
 62
     0
100
AcDbPoint
 10
155.2164400415319
 20
4.80768835035451
 30
0.0
  0
ENDBLK
  5
80
330
7E
100
AcDbEntity
  8
0
100
AcDbBlockEnd
  0
BLOCK
  5
82
330
81
100
AcDbEntity
  8
0
100
AcDbBlockBegin
  2
*D23
 70
     1
 10
0.0
 20
0.0
 30
0.0
  3
*D23
  1

  0
LINE
  5
2EA
330
81
100
AcDbEntity
  8
一般
  6
Continuous
 62
     0
370
    -2
100
AcDbLine
 10
-133.7835599584677
 20
-90.0
 30
0.0
 11
-133.7835599584677
 21
-80.43438912744854
 31
0.0
  0
LINE
  5
2EB
330
81
100
AcDbEntity
  8
一般
  6
Continuous
 62
     0
370
    -2
100
AcDbLine
 10
-139.7835599584681
 20
-91.0
 30
0.0
 11
-139.7835599584681
 21
-80.43438912744854
 31
0.0
  0
LINE
  5
2EC
330
81
100
AcDbEntity
  8
一般
  6
Continuous
 62
     0
370
    -2
100
AcDbLine
 10
-136.3229398412802
 20
-80.44838912744854
 30
0.0
 11
-137.2441800756556
 21
-80.44838912744854
 31
0.0
  0
INSERT
  5
2ED
330
81
100
AcDbEntity
  8
一般
 62
     0
370
    -2
100
AcDbBlockReference
  2
VW_EMPTYARROW
 10
-133.7835599584677
 20
-80.44838912744854
 30
0.0
 41
2.5393798828125
 42
2.5393798828125
 43
2.5393798828125
  0
INSERT
  5
2EE
330
81
100
AcDbEntity
  8
一般
 62
     0
370
    -2
100
AcDbBlockReference
  2
VW_EMPTYARROW
 10
-139.7835599584681
 20
-80.44838912744854
 30
0.0
 41
2.5393798828125
 42
2.5393798828125
 43
2.5393798828125
 50
180.0
  0
MTEXT
  5
2F3
330
81
100
AcDbEntity
  8
一般
 62
     0
370
     9
100
AcDbMText
 10
-136.7835599584679
 20
-79.17838912744854
 30
0.0
 40
2.5
 41
0.0
 71
     5
 72
     1
  1
\A1;6
  7
MS PMincho
 73
     1
 44
1.0
  0
POINT
  5
2F4
330
81
100
AcDbEntity
  8
Defpoints
 62
     0
100
AcDbPoint
 10
-133.7835599584677
 20
-90.0
 30
0.0
  0
POINT
  5
2F9
330
81
100
AcDbEntity
  8
Defpoints
 62
     0
100
AcDbPoint
 10
-139.7835599584681
 20
-91.0
 30
0.0
  0
POINT
  5
2FA
330
81
100
AcDbEntity
  8
Defpoints
 62
     0
100
AcDbPoint
 10
-139.7835599584681
 20
-80.44838912744854
 30
0.0
  0
ENDBLK
  5
83
330
81
100
AcDbEntity
  8
0
100
AcDbBlockEnd
  0
BLOCK
  5
85
330
84
100
AcDbEntity
  8
0
100
AcDbBlockBegin
  2
*D24
 70
     1
 10
0.0
 20
0.0
 30
0.0
  3
*D24
  1

  0
LINE
  5
2FD
330
84
100
AcDbEntity
  8
一般
  6
Continuous
 62
     0
370
    -2
100
AcDbLine
 10
-139.7835599584681
 20
-91.0
 30
0.0
 11
-147.3785001825706
 21
-91.0
 31
0.0
  0
LINE
  5
2FE
330
84
100
AcDbEntity
  8
一般
  6
Continuous
 62
     0
370
    -2
100
AcDbLine
 10
-132.213559958468
 20
-48.89497200000005
 30
0.0
 11
-147.3785001825706
 21
-48.89497200000005
 31
0.0
  0
LINE
  5
2FF
330
84
100
AcDbEntity
  8
一般
  6
Continuous
 62
     0
370
    -2
100
AcDbLine
 10
-147.3645001825706
 20
-88.4606201171875
 30
0.0
 11
-147.3645001825706
 21
-51.43435188281255
 31
0.0
  0
INSERT
  5
300
330
84
100
AcDbEntity
  8
一般
 62
     0
370
    -2
100
AcDbBlockReference
  2
VW_EMPTYARROW
 10
-147.3645001825706
 20
-91.0
 30
0.0
 41
2.5393798828125
 42
2.5393798828125
 43
2.5393798828125
 50
270.0
  0
INSERT
  5
305
330
84
100
AcDbEntity
  8
一般
 62
     0
370
    -2
100
AcDbBlockReference
  2
VW_EMPTYARROW
 10
-147.3645001825706
 20
-48.89497200000005
 30
0.0
 41
2.5393798828125
 42
2.5393798828125
 43
2.5393798828125
 50
90.0
  0
MTEXT
  5
30A
330
84
100
AcDbEntity
  8
一般
 62
     0
370
     9
100
AcDbMText
 10
-148.6345001825706
 20
-69.94748600000003
 30
0.0
 40
2.5
 41
0.0
 71
     5
 72
     1
  1
\A1;42
  7
MS PMincho
 11
0.0
 21
1.0
 31
0.0
 73
     1
 44
1.0
  0
POINT
  5
30B
330
84
100
AcDbEntity
  8
Defpoints
 62
     0
100
AcDbPoint
 10
-139.7835599584681
 20
-91.0
 30
0.0
  0
POINT
  5
30C
330
84
100
AcDbEntity
  8
Defpoints
 62
     0
100
AcDbPoint
 10
-132.213559958468
 20
-48.89497200000005
 30
0.0
  0
POINT
  5
30D
330
84
100
AcDbEntity
  8
Defpoints
 62
     0
100
AcDbPoint
 10
-147.3645001825706
 20
-48.89497200000005
 30
0.0
  0
ENDBLK
  5
86
330
84
100
AcDbEntity
  8
0
100
AcDbBlockEnd
  0
BLOCK
  5
9F
330
9E
100
AcDbEntity
  8
0
100
AcDbBlockBegin
  2
VW_EMPTYARROW
 70
     0
 10
0.0
 20
0.0
 30
0.0
  3
VW_EMPTYARROW
  1

  0
LINE
  5
A1
330
9E
100
AcDbEntity
  8
0
  6
ByBlock
 62
     0
370
    -2
100
AcDbLine
 10
0.0
 20
0.0
 30
0.0
 11
-1.0
 21
0.0
 31
0.0
  0
POLYLINE
  5
A2
330
9E
100
AcDbEntity
  8
0
  6
破線の種類-1
 62
     0
370
    -2
100
AcDb2dPolyline
 66
     1
 10
0.0
 20
0.0
 30
0.0
 70
   128
  0
VERTEX
  5
A3
330
A2
100
AcDbEntity
  8
0
  6
破線の種類-1
 62
     0
370
    -2
100
AcDbVertex
100
AcDb2dVertex
 10
-0.9999389648437499
 20
0.2679328381102956
 30
0.0
  0
VERTEX
  5
A4
330
A2
100
AcDbEntity
  8
0
  6
破線の種類-1
 62
     0
370
    -2
100
AcDbVertex
100
AcDb2dVertex
 10
0.0
 20
0.0
 30
0.0
  0
VERTEX
  5
A5
330
A2
100
AcDbEntity
  8
0
  6
破線の種類-1
 62
     0
370
    -2
100
AcDbVertex
100
AcDb2dVertex
 10
-0.9999389648437498
 20
-0.2679328381102958
 30
0.0
  0
SEQEND
  5
A6
330
A2
100
AcDbEntity
  8
0
  6
破線の種類-1
 62
     0
370
    -2
  0
ENDBLK
  5
A0
330
9E
100
AcDbEntity
  8
0
100
AcDbBlockEnd
  0
ENDSEC
  0
SECTION
  2
ENTITIES
  0
MTEXT
  5
30E
330
1F
100
AcDbEntity
  8
一般
 62
     7
100
AcDbMText
 10
-12.76423781133981
 20
51.29749205967865
 30
0.0
 40
0.25
 41
0.0
 71
     6
 72
     1
  1
{\fOsaka|b0|i0|c128|p0; }
 73
     1
 44
1.004016064257028
  0
MTEXT
  5
30F
330
1F
100
AcDbEntity
  8
一般
 62
     7
100
AcDbMText
 10
-9.974337907452629
 20
51.42249205967865
 30
0.0
 40
0.25
 41
0.0
 71
     4
 72
     1
  1
{\fOsaka|b0|i0|c128|p0; }
 73
     1
 44
1.004016064257028
  0
MTEXT
  5
310
330
1F
100
AcDbEntity
  8
一般
 62
     7
100
AcDbMText
 10
-12.76423781133981
 20
51.29749205967865
 30
0.0
 40
0.25
 41
0.0
 71
     6
 72
     1
  1
{\fOsaka|b0|i0|c128|p0; }
 73
     1
 44
1.004016064257028
  0
MTEXT
  5
311
330
1F
100
AcDbEntity
  8
一般
 62
     7
100
AcDbMText
 10
-9.974337907452629
 20
51.42249205967865
 30
0.0
 40
0.25
 41
0.0
 71
     4
 72
     1
  1
{\fOsaka|b0|i0|c128|p0; }
 73
     1
 44
1.004016064257028
  0
MTEXT
  5
312
330
1F
100
AcDbEntity
  8
一般
 62
     7
100
AcDbMText
 10
-12.76423781133981
 20
51.29749205967865
 30
0.0
 40
0.25
 41
0.0
 71
     6
 72
     1
  1
{\fOsaka|b0|i0|c128|p0; }
 73
     1
 44
1.004016064257028
  0
MTEXT
  5
313
330
1F
100
AcDbEntity
  8
一般
 62
     7
100
AcDbMText
 10
-9.974337907452629
 20
51.42249205967865
 30
0.0
 40
0.25
 41
0.0
 71
     4
 72
     1
  1
{\fOsaka|b0|i0|c128|p0; }
 73
     1
 44
1.004016064257028
  0
LINE
  5
314
330
1F
100
AcDbEntity
  8
一般
 62
     7
100
AcDbLine
 10
-135.982361909795
 20
108.8
 30
0.0
 11
2.982361909794963
 21
108.8
 31
0.0
  0
LINE
  5
315
330
1F
100
AcDbEntity
  8
一般
 62
     7
100
AcDbLine
 10
144.0176380902051
 20
48.80000000000005
 30
0.0
 11
4.650990481968438
 21
48.80000000000005
 31
0.0
  0
LINE
  5
316
330
1F
100
AcDbEntity
  8
一般
 62
     7
100
AcDbLine
 10
-135.982361909795
 20
48.80000000000005
 30
0.0
 11
-135.982361909795
 21
108.8
 31
0.0
  0
LINE
  5
317
330
1F
100
AcDbEntity
  8
一般
 62
     7
100
AcDbLine
 10
-135.982361909795
 20
107.3
 30
0.0
 11
2.580438121148245
 21
107.3
 31
0.0
  0
LINE
  5
318
330
1F
100
AcDbEntity
  8
一般
 62
     7
100
AcDbLine
 10
-135.982361909795
 20
106.5
 30
0.0
 11
2.366078767203362
 21
106.5
 31
0.0
  0
LINE
  5
319
330
1F
100
AcDbEntity
  8
一般
  6
破線の種類-1
 62
     7
370
    15
100
AcDbLine
 10
144.0176380902051
 20
50.30000000000005
 30
0.0
 11
5.052914270615111
 21
50.30000000000005
 31
0.0
  0
LINE
  5
31A
330
1F
100
AcDbEntity
  8
一般
 62
     7
100
AcDbLine
 10
144.0176380902051
 20
108.8
 30
0.0
 11
144.0176380902051
 21
48.80000000000005
 31
0.0
  0
LINE
  5
31B
330
1F
100
AcDbEntity
  8
一般
 62
     7
370
    15
100
AcDbLine
 10
1.562231189910017
 20
103.5
 30
0.0
 11
3.786209487088309
 21
111.8
 31
0.0
  0
LINE
  5
31C
330
1F
100
AcDbEntity
  8
一般
 62
     7
370
    15
100
AcDbLine
 10
3.632783550730164
 20
103.5
 30
0.0
 11
5.856761847908501
 21
111.8
 31
0.0
  0
LINE
  5
31D
330
1F
100
AcDbEntity
  8
一般
 62
     7
100
AcDbLine
 10
5.052914270615111
 20
108.8
 30
0.0
 11
144.0176380902051
 21
108.8
 31
0.0
  0
LINE
  5
31E
330
1F
100
AcDbEntity
  8
一般
 62
     7
100
AcDbLine
 10
4.650990481968438
 20
107.3
 30
0.0
 11
144.0176380902051
 21
107.3
 31
0.0
  0
LINE
  5
31F
330
1F
100
AcDbEntity
  8
一般
 62
     7
100
AcDbLine
 10
4.436631128023556
 20
106.5
 30
0.0
 11
144.0176380902051
 21
106.5
 31
0.0
  0
LINE
  5
320
330
1F
100
AcDbEntity
  8
一般
 62
     7
370
    15
100
AcDbLine
 10
1.562231189910017
 20
45.00000000000005
 30
0.0
 11
3.786209487088309
 21
53.30000000000005
 31
0.0
  0
LINE
  5
321
330
1F
100
AcDbEntity
  8
一般
 62
     7
370
    15
100
AcDbLine
 10
3.632783550730164
 20
45.00000000000005
 30
0.0
 11
5.856761847908501
 21
53.30000000000005
 31
0.0
  0
LINE
  5
322
330
1F
100
AcDbEntity
  8
一般
  6
破線の種類-1
 62
     7
370
    15
100
AcDbLine
 10
2.982361909794963
 20
50.30000000000005
 30
0.0
 11
-135.982361909795
 21
50.30000000000005
 31
0.0
  0
LINE
  5
323
330
1F
100
AcDbEntity
  8
一般
 62
     7
100
AcDbLine
 10
2.580438121148291
 20
48.80000000000005
 30
0.0
 11
-135.982361909795
 21
48.80000000000005
 31
0.0
  0
MTEXT
  5
324
330
1F
100
AcDbEntity
  8
一般
 62
     7
100
AcDbMText
 10
-12.76423781133981
 20
51.29749205967865
 30
0.0
 40
0.25
 41
0.0
 71
     6
 72
     1
  1
{\fOsaka|b0|i0|c128|p0; }
 73
     1
 44
1.004016064257028
  0
MTEXT
  5
325
330
1F
100
AcDbEntity
  8
一般
 62
     7
100
AcDbMText
 10
-9.974337907452629
 20
51.42249205967865
 30
0.0
 40
0.25
 41
0.0
 71
     4
 72
     1
  1
{\fOsaka|b0|i0|c128|p0; }
 73
     1
 44
1.004016064257028
  0
LINE
  5
326
330
1F
100
AcDbEntity
  8
一般
 62
     7
100
AcDbLine
 10
162.2481042467946
 20
49.7
 30
0.0
 11
162.2481042467946
 21
107.8000000000002
 31
0.0
  0
LINE
  5
327
330
1F
100
AcDbEntity
  8
一般
 62
     7
100
AcDbLine
 10
161.6481042467946
 20
50.80420080628319
 30
0.0
 11
161.6481042467946
 21
106.4185823635559
 31
0.0
  0
LINE
  5
328
330
1F
100
AcDbEntity
  8
一般
 62
     7
100
AcDbLine
 10
162.0479161943013
 20
48.8000000000001
 30
0.0
 11
165.6481042467946
 21
48.8000000000001
 31
0.0
  0
LINE
  5
329
330
1F
100
AcDbEntity
  8
一般
 62
     7
100
AcDbLine
 10
162.3481042467945
 20
49.6
 30
0.0
 11
165.5481042467945
 21
49.60000000000019
 31
0.0
  0
LINE
  5
32A
330
1F
100
AcDbEntity
  8
一般
 62
     7
100
AcDbLine
 10
165.6481042467946
 20
48.8000000000001
 30
0.0
 11
165.6481042467946
 21
49.50000000000018
 31
0.0
  0
ARC
  5
32B
330
1F
100
AcDbEntity
  8
一般
 62
     7
100
AcDbCircle
 10
165.5481042467945
 20
49.50000000000018
 30
0.0
 40
0.1
100
AcDbArc
 50
0.0
 51
90.0
  0
ARC
  5
32C
330
1F
100
AcDbEntity
  8
一般
 62
     7
100
AcDbCircle
 10
162.3481042467945
 20
49.7
 30
0.0
 40
0.1
100
AcDbArc
 50
180.0
 51
270.0
  0
ARC
  5
32D
330
1F
100
AcDbEntity
  8
一般
 62
     7
100
AcDbCircle
 10
162.0479161943012
 20
49.40000000000009
 30
0.0
 40
0.6000000000000094
100
AcDbArc
 50
187.5177501032624
 51
270.0000000000086
  0
ARC
  5
32E
330
1F
100
AcDbEntity
  8
一般
 62
     7
100
AcDbCircle
 10
163.2376014467945
 20
49.55700000000016
 30
0.0
 40
1.799999999999956
100
AcDbArc
 50
160.8397894681035
 51
187.5177501032624
  0
ARC
  5
32F
330
1F
100
AcDbEntity
  8
一般
 62
     7
100
AcDbCircle
 10
159.6481042467944
 20
50.80420080628283
 30
0.0
 40
1.999999999999977
100
AcDbArc
 50
340.8397894681092
 51
0.0000000000130171
  0
LINE
  5
330
330
1F
100
AcDbEntity
  8
一般
 62
     7
100
AcDbLine
 10
156.6481042467944
 20
107.5821375983503
 30
0.0
 11
156.6481042467946
 21
108.8000000000001
 31
0.0
  0
LINE
  5
331
330
1F
100
AcDbEntity
  8
一般
 62
     7
100
AcDbLine
 10
156.6481042467946
 20
107.6151414155043
 30
0.0
 11
156.6481042467946
 21
108.8000000000001
 31
0.0
  0
ARC
  5
332
330
1F
100
AcDbEntity
  8
一般
 62
     7
100
AcDbCircle
 10
156.9981042467945
 20
107.5821375983503
 30
0.0
 40
0.35
100
AcDbArc
 50
180.0
 51
266.9999999999943
  0
ARC
  5
333
330
1F
100
AcDbEntity
  8
一般
 62
     7
100
AcDbCircle
 10
161.0481042467945
 20
106.4185823635559
 30
0.0
 40
0.6000000000000001
100
AcDbArc
 50
0.0
 51
87.00000000000301
  0
LINE
  5
334
330
1F
100
AcDbEntity
  8
一般
 62
     7
100
AcDbLine
 10
156.9797866621096
 20
107.2326172611862
 30
0.0
 11
161.0795058205405
 21
107.0177600844087
 31
0.0
  0
LINE
  5
335
330
1F
100
AcDbEntity
  8
一般
 62
     7
100
AcDbLine
 10
157.2481042467946
 20
108.2000000000001
 30
0.0
 11
157.2481042467946
 21
108.8000000000001
 31
0.0
  0
ARC
  5
336
330
1F
100
AcDbEntity
  8
一般
 62
     7
100
AcDbCircle
 10
157.5481042467945
 20
108.2000000000001
 30
0.0
 40
0.3
100
AcDbArc
 50
180.0
 51
270.0
  0
LINE
  5
337
330
1F
100
AcDbEntity
  8
一般
 62
     7
100
AcDbLine
 10
156.6481042467946
 20
108.8000000000001
 30
0.0
 11
157.2481042467946
 21
108.8000000000001
 31
0.0
  0
ARC
  5
338
330
1F
100
AcDbEntity
  8
一般
 62
     7
100
AcDbCircle
 10
162.1481042467944
 20
107.8000000000002
 30
0.0
 40
0.1
100
AcDbArc
 50
0.0
 51
90.0
  0
LINE
  5
339
330
1F
100
AcDbEntity
  8
一般
 62
     7
100
AcDbLine
 10
157.5481042467947
 20
107.9000000000001
 30
0.0
 11
162.1481042467946
 21
107.9000000000002
 31
0.0
  0
DIMENSION
  5
33A
330
1F
100
AcDbEntity
  8
寸法
  6
Continuous
 62
     7
370
     9
100
AcDbDimension
  2
*D1
 10
-149.0
 20
108.8
 30
0.0
 11
-150.2258570198105
 21
78.80000000000003
 31
0.0
 70
    32
 71
     5
 42
599.9999999999997
  3
MSP明朝寸法1
100
AcDbAlignedDimension
 13
-135.982361909795
 23
48.80000000000005
 33
0.0
 14
-135.982361909795
 24
108.8
 34
0.0
 50
-90.0
100
AcDbRotatedDimension
1001
ACAD
1000
DSTYLE
1002
{
1070
   147
1040
0.02
1070
   144
1040
10.0
1070
   340
1005
88
1070
   279
1070
     2
1002
}
  0
DIMENSION
  5
33B
330
1F
100
AcDbEntity
  8
寸法
  6
Continuous
 62
     7
370
     9
100
AcDbDimension
  2
*D2
 10
-135.982361909795
 20
33.0
 30
0.0
 11
4.017638090205025
 21
34.10527131782946
 31
0.0
 70
    32
 71
     5
 42
2800.0
  3
MSP明朝寸法1
100
AcDbAlignedDimension
 13
144.0176380902051
 23
48.80000000000005
 33
0.0
 14
-135.982361909795
 24
48.80000000000005
 34
0.0
100
AcDbRotatedDimension
1001
ACAD
1000
DSTYLE
1002
{
1070
   147
1040
0.02
1070
   144
1040
10.0
1070
   140
1040
2.170542635658915
1070
   340
1005
88
1070
   279
1070
     2
1002
}
  0
MTEXT
  5
33C
330
1F
100
AcDbEntity
  8
一般
100
AcDbMText
 10
145.1526593144242
 20
-121.022648759288
 30
0.0
 40
3.5
 41
0.0
 71
     2
 72
     1
  1
{\fMS PMincho|b0|i0|c128|p0;SVカウンター}
 73
     1
 44
0.8811854561101549
  0
LINE
  5
33D
330
1F
100
AcDbEntity
  8
一般
  6
Continuous
 62
     7
370
    15
100
AcDbLine
 10
-185.0
 20
140.0
 30
0.0
 11
201.0
 21
140.0
 31
0.0
  0
LINE
  5
33E
330
1F
100
AcDbEntity
  8
一般
  6
Continuous
 62
     7
370
    15
100
AcDbLine
 10
201.0
 20
-139.9999999999999
 30
0.0
 11
-185.0
 21
-139.9999999999999
 31
0.0
  0
LINE
  5
33F
330
1F
100
AcDbEntity
  8
一般
 62
     7
370
    15
100
AcDbLine
 10
-185.0
 20
140.0
 30
0.0
 11
-185.0
 21
-139.9999999999999
 31
0.0
  0
LINE
  5
340
330
1F
100
AcDbEntity
  8
一般
  6
Continuous
 62
     7
370
    15
100
AcDbLine
 10
201.0
 20
140.0
 30
0.0
 11
201.0
 21
-139.9999999999999
 31
0.0
  0
LINE
  5
341
330
1F
100
AcDbEntity
  8
一般
 62
     7
370
    15
100
AcDbLine
 10
116.0
 20
-115.7656935187268
 30
0.0
 11
201.0
 21
-115.7656935187268
 31
0.0
  0
LINE
  5
342
330
1F
100
AcDbEntity
  8
一般
 62
     7
370
    15
100
AcDbLine
 10
116.0
 20
-127.7656935187268
 30
0.0
 11
201.0
 21
-127.7656935187268
 31
0.0
  0
LINE
  5
343
330
1F
100
AcDbEntity
  8
一般
 62
     7
370
    15
100
AcDbLine
 10
116.0
 20
-139.7656935187268
 30
0.0
 11
116.0
 21
-115.7656935187268
 31
0.0
  0
MTEXT
  5
344
330
1F
100
AcDbEntity
  8
一般
 62
     7
100
AcDbMText
 10
117.6956708772145
 20
-116.6893907716768
 30
0.0
 40
2.255154639175258
 41
12.29830274945471
 71
     1
 72
     1
  1
{\fMS PMincho|b0|i0|c128|p0;製品名}
 73
     1
 44
1.113023522662077
  0
LINE
  5
345
330
1F
100
AcDbEntity
  8
一般
 62
     7
370
    15
100
AcDbLine
 10
173.0
 20
-127.7656935187268
 30
0.0
 11
173.0
 21
-115.7656935187268
 31
0.0
  0
LINE
  5
346
330
1F
100
AcDbEntity
  8
一般
 62
     7
370
    15
100
AcDbLine
 10
178.0
 20
-127.7656935187268
 30
0.0
 11
178.0
 21
-115.7656935187268
 31
0.0
  0
MTEXT
  5
347
330
1F
100
AcDbEntity
  8
一般
 62
     7
100
AcDbMText
 10
175.6710625402707
 20
-118.6816014198222
 30
0.0
 40
2.255154639175258
 41
0.0
 71
     2
 72
     1
  1
{\fMS PMincho|b0|i0|c128|p0;尺 \P度}
 73
     1
 44
0.8811854561101549
  0
MTEXT
  5
348
330
1F
100
AcDbEntity
  8
一般
100
AcDbMText
 10
189.2195483600531
 20
-120.551795543773
 30
0.0
 40
3.5
 41
0.0
 71
     2
 72
     1
  1
{\fMS PMincho|b0|i0|c128|p0;1/10,1/1}
 73
     1
 44
0.8811854561101549
  0
MTEXT
  5
349
330
1F
100
AcDbEntity
  8
一般
 62
     7
100
AcDbMText
 10
-147.0
 20
19.25339018087855
 30
0.0
 40
2.894056847545219
 41
0.0
 71
     1
 72
     1
  1
{\fMS PMincho|b0|i0|c128|p0;平面図　S=(1/10)}
 73
     1
 44
0.8811854561101549
  0
LINE
  5
34A
330
1F
100
AcDbEntity
  8
一般
  6
Continuous
 62
     7
370
     9
100
AcDbLine
 10
-146.0
 20
15.0
 30
0.0
 11
-116.0
 21
15.0
 31
0.0
  0
LINE
  5
34B
330
1F
100
AcDbEntity
  8
一般
  6
Continuous
 62
     7
370
     9
100
AcDbLine
 10
-146.0
 20
14.0
 30
0.0
 11
-116.0
 21
14.0
 31
0.0
  0
MTEXT
  5
34C
330
1F
100
AcDbEntity
  8
一般
 62
     7
100
AcDbMText
 10
-147.0
 20
-111.7466098191214
 30
0.0
 40
2.894056847545219
 41
0.0
 71
     1
 72
     1
  1
{\fMS PMincho|b0|i0|c128|p0;断面図　S=(1/1)}
 73
     1
 44
0.8811854561101549
  0
LINE
  5
34D
330
1F
100
AcDbEntity
  8
一般
  6
Continuous
 62
     7
370
     9
100
AcDbLine
 10
-146.0
 20
-116.0
 30
0.0
 11
-116.0
 21
-116.0
 31
0.0
  0
LINE
  5
34E
330
1F
100
AcDbEntity
  8
一般
  6
Continuous
 62
     7
370
     9
100
AcDbLine
 10
-146.0
 20
-117.0
 30
0.0
 11
-116.0
 21
-117.0
 31
0.0
  0
INSERT
  5
34F
330
1F
100
AcDbEntity
  8
一般
 62
     7
100
AcDbBlockReference
  2
グループ-9-1
 10
0.0
 20
0.0
 30
0.0
  0
DIMENSION
  5
350
330
1F
100
AcDbEntity
  8
一般
  6
Continuous
 62
     7
370
     9
100
AcDbDimension
  2
*D12
 10
180.6112852179696
 20
-1.000000000000454
 30
0.0
 11
179.3412852179696
 21
-46.00000000000021
 31
0.0
 70
    32
 71
     5
 42
89.99999999999953
  3
MSP明朝寸法1
100
AcDbAlignedDimension
 13
-134.7835599584672
 23
-91.0
 33
0.0
 14
172.7038008469018
 24
-1.000000000000455
 34
0.0
 50
-90.0
100
AcDbRotatedDimension
1001
ACAD
1000
DSTYLE
1002
{
1070
   140
1040
2.5
1070
   340
1005
88
1070
   279
1070
     2
1070
   271
1070
     2
1002
}
  0
DIMENSION
  5
351
330
1F
100
AcDbEntity
  8
一般
  6
Continuous
 62
     7
370
     9
100
AcDbDimension
  2
*D13
 10
172.7038008469018
 20
-57.0
 30
0.0
 11
171.4338008469018
 21
-74.0
 31
0.0
 70
    32
 71
     5
 42
33.99999999999999
  3
MSP明朝寸法1
100
AcDbAlignedDimension
 13
-107.014
 23
-91.0
 33
0.0
 14
172.7038008469018
 24
-57.0
 34
0.0
 50
-90.0
100
AcDbRotatedDimension
1001
ACAD
1000
DSTYLE
1002
{
1070
   140
1040
2.5
1070
   340
1005
88
1070
   279
1070
     2
1070
   271
1070
     2
1002
}
  0
DIMENSION
  5
352
330
1F
100
AcDbEntity
  8
一般
  6
Continuous
 62
     7
370
     9
100
AcDbDimension
  2
*D14
 10
-139.7835599584681
 20
-98.72834758373938
 30
0.0
 11
7.716440041531882
 21
-97.45834758373938
 31
0.0
 70
    32
  1
600
 71
     5
 42
295.0
  3
MSP明朝寸法1
100
AcDbAlignedDimension
 13
155.2164400415319
 23
-16.49479305373688
 33
0.0
 14
-139.7835599584681
 24
-88.72834758373938
 34
0.0
100
AcDbRotatedDimension
1001
ACAD
1000
DSTYLE
1002
{
1070
   140
1040
2.5
1070
   340
1005
88
1070
   279
1070
     2
1070
   271
1070
     2
1002
}
  0
LINE
  5
353
330
1F
100
AcDbEntity
  8
一般
  6
Continuous
 62
     7
100
AcDbLine
 10
-119.7415518956371
 20
-51.0
 30
0.0
 11
6.479058230948453
 21
-51.0
 31
0.0
  0
LINE
  5
354
330
1F
100
AcDbEntity
  8
一般
  6
Continuous
 62
     7
100
AcDbLine
 10
-132.783559958469
 20
-57.0
 30
0.0
 11
5.421096346697709
 21
-57.0
 31
0.0
  0
LINE
  5
355
330
1F
100
AcDbEntity
  8
一般
  6
Continuous
 62
     7
100
AcDbLine
 10
-133.783559958469
 20
-58.0
 30
0.0
 11
-133.7835599584677
 21
-90.0
 31
0.0
  0
LINE
  5
356
330
1F
100
AcDbEntity
  8
一般
  6
Continuous
 62
     7
100
AcDbLine
 10
-139.7835599584681
 20
-54.99811947506714
 30
0.0
 11
-139.7835599584681
 21
-91.0
 31
0.0
  0
ARC
  5
357
330
1F
100
AcDbEntity
  8
一般
  6
Continuous
 62
     7
100
AcDbCircle
 10
-134.7835599584672
 20
-90.0
 30
0.0
 40
1.0
100
AcDbArc
 50
270.0
 51
0.0
  0
LINE
  5
358
330
1F
100
AcDbEntity
  8
一般
  6
Continuous
 62
     7
100
AcDbLine
 10
-139.7835599584681
 20
-91.0
 30
0.0
 11
-134.7835599584677
 21
-91.0
 31
0.0
  0
DIMENSION
  5
359
330
1F
100
AcDbEntity
  8
一般
  6
Continuous
 62
     7
370
     9
100
AcDbDimension
  2
*D15
 10
-107.014
 20
-51.0
 30
0.0
 11
-108.284
 21
-49.94748600000071
 31
0.0
 70
    32
  1
2
 71
     5
 42
2.105027999998585
  3
MSP明朝寸法1
100
AcDbAlignedDimension
 13
-132.2135599584689
 23
-48.89497200000142
 33
0.0
 14
-107.014
 24
-51.0
 34
0.0
 50
-90.0
100
AcDbRotatedDimension
1001
ACAD
1000
DSTYLE
1002
{
1070
   140
1040
2.5
1070
   340
1005
88
1070
   279
1070
     2
1070
   271
1070
     2
1002
}
  0
ARC
  5
35A
330
1F
100
AcDbEntity
  8
一般
  6
Continuous
 62
     7
100
AcDbCircle
 10
-119.7415518956412
 20
-31.0
 30
0.0
 40
20.0000000000002
100
AcDbArc
 50
250.8397894681096
 51
270.000000000013
  0
ARC
  5
35B
330
1F
100
AcDbEntity
  8
一般
  6
Continuous
 62
     7
100
AcDbCircle
 10
-132.213559958468
 20
-66.89497200000005
 30
0.0
 40
17.99999999999999
100
AcDbArc
 50
70.83978946810394
 51
97.51775010326254
  0
ARC
  5
35C
330
1F
100
AcDbEntity
  8
一般
  6
Continuous
 62
     7
100
AcDbCircle
 10
-133.7835599584681
 20
-54.99811947506714
 30
0.0
 40
6.000000000000093
100
AcDbArc
 50
97.51775010326234
 51
180.000000000013
  0
ARC
  5
35D
330
1F
100
AcDbEntity
  8
一般
  6
Continuous
 62
     7
100
AcDbCircle
 10
-132.783559958469
 20
-57.99999999999909
 30
0.0
 40
1.0
100
AcDbArc
 50
90.0
 51
180.0
  0
LINE
  5
35E
330
1F
100
AcDbEntity
  8
一般
  6
Continuous
 62
     7
100
AcDbLine
 10
10.54076467849166
 20
-51.0
 30
0.0
 11
131.4022636770916
 21
-51.00000000000045
 31
0.0
  0
LINE
  5
35F
330
1F
100
AcDbEntity
  8
一般
  6
Continuous
 62
     7
100
AcDbLine
 10
9.48280279424091
 20
-57.0
 30
0.0
 11
146.2164400415342
 21
-56.99999999999818
 31
0.0
  0
LINE
  5
360
330
1F
100
AcDbEntity
  8
一般
  6
Continuous
 62
     7
370
    15
100
AcDbLine
 10
11.24607260132518
 20
-47.0
 30
0.0
 11
8.77749487140693
 21
-61.0
 31
0.0
  0
LINE
  5
361
330
1F
100
AcDbEntity
  8
一般
  6
Continuous
 62
     7
370
    15
100
AcDbLine
 10
7.184366153782435
 20
-47.0
 30
0.0
 11
4.715788423863728
 21
-61.0
 31
0.0
  0
DIMENSION
  5
362
330
1F
100
AcDbEntity
  8
一般
  6
Continuous
 62
     7
370
     9
100
AcDbDimension
  2
*D16
 10
114.5476322031119
 20
-51.00000000000045
 30
0.0
 11
116.3960920245409
 21
-54.00000000000045
 31
0.0
 70
   160
 71
     5
 42
6.0
  3
MSP明朝寸法1
100
AcDbAlignedDimension
 13
114.5476322031119
 23
-57.00000000000045
 33
0.0
 14
114.5476322031119
 24
-51.00000000000045
 34
0.0
 50
-90.0
100
AcDbRotatedDimension
1001
ACAD
1000
DSTYLE
1002
{
1070
   140
1040
2.5
1070
   340
1005
88
1070
   279
1070
     2
1070
   271
1070
     2
1002
}
  0
DIMENSION
  5
363
330
1F
100
AcDbEntity
  8
一般
  6
Continuous
 62
     7
370
     9
100
AcDbDimension
  2
*D17
 10
114.5476322031119
 20
-0.999999999999547
 30
0.0
 11
113.2776322031119
 21
-26.0
 31
0.0
 70
    32
 71
     5
 42
50.00000000000091
  3
MSP明朝寸法1
100
AcDbAlignedDimension
 13
114.5476322031119
 23
-51.00000000000045
 33
0.0
 14
143.037816025034
 24
-0.9999999999995453
 34
0.0
 50
-90.0
100
AcDbRotatedDimension
1001
ACAD
1000
DSTYLE
1002
{
1070
   140
1040
2.5
1070
   340
1005
88
1070
   279
1070
     2
1070
   271
1070
     2
1002
}
  0
ARC
  5
364
330
1F
100
AcDbEntity
  8
一般
  6
Continuous
 62
     7
100
AcDbCircle
 10
131.4022636770902
 20
-45.00000000000045
 30
0.0
 40
6.0
100
AcDbArc
 50
270.0
 51
357.0000000000031
  0
DIMENSION
  5
365
330
1F
100
AcDbEntity
  8
一般
  6
Continuous
 62
     7
370
     9
100
AcDbDimension
  2
*D18
 10
172.7038008469018
 20
-1.000000000000454
 30
0.0
 11
171.4338008469018
 21
-29.00000000000023
 31
0.0
 70
    32
 71
     5
 42
55.99999999999955
  3
MSP明朝寸法1
100
AcDbAlignedDimension
 13
165.2164400415319
 23
-57.0
 33
0.0
 14
165.2164400415319
 24
-1.000000000000455
 34
0.0
 50
-90.0
100
AcDbRotatedDimension
1001
ACAD
1000
DSTYLE
1002
{
1070
   140
1040
2.5
1070
   340
1005
88
1070
   279
1070
     2
1070
   271
1070
     2
1002
}
  0
DIMENSION
  5
366
330
1F
100
AcDbEntity
  8
一般
  6
Continuous
 62
     7
370
     9
100
AcDbDimension
  2
*D19
 10
165.2164400415319
 20
-7.000000000000455
 30
0.0
 11
163.9464400415319
 21
-32.00000000000023
 31
0.0
 70
    32
 71
     5
 42
49.99999999999955
  3
MSP明朝寸法1
100
AcDbAlignedDimension
 13
145.2164400415332
 23
-57.0
 33
0.0
 14
165.2164400415319
 24
-7.000000000000455
 34
0.0
 50
-90.0
100
AcDbRotatedDimension
1001
ACAD
1000
DSTYLE
1002
{
1070
   140
1040
2.5
1070
   340
1005
88
1070
   279
1070
     2
1070
   271
1070
     2
1002
}
  0
DIMENSION
  5
367
330
1F
100
AcDbEntity
  8
一般
  6
Continuous
 62
     7
370
     9
100
AcDbDimension
  2
*D20
 10
146.2164400415323
 20
-28.76644546999751
 30
0.0
 11
150.7164400415321
 21
-27.49644546999751
 31
0.0
 70
    32
 71
     5
 42
8.999999999999545
  3
MSP明朝寸法1
100
AcDbAlignedDimension
 13
155.2164400415319
 23
-7.000000000000455
 33
0.0
 14
146.2164400415323
 24
-28.76644546999751
 34
0.0
100
AcDbRotatedDimension
1001
ACAD
1000
DSTYLE
1002
{
1070
   140
1040
2.5
1070
   340
1005
88
1070
   279
1070
     2
1070
   271
1070
     2
1002
}
  0
DIMENSION
  5
368
330
1F
100
AcDbEntity
  8
一般
  6
Continuous
 62
     7
370
     9
100
AcDbDimension
  2
*D21
 10
165.1964400415318
 20
-1.000000000000454
 30
0.0
 11
163.9264400415318
 21
-4.000000000000454
 31
0.0
 70
    32
 71
     5
 42
6.0
  3
MSP明朝寸法1
100
AcDbAlignedDimension
 13
155.2164400415319
 23
-7.000000000000455
 33
0.0
 14
155.2164400415319
 24
-1.000000000000455
 34
0.0
 50
-90.0
100
AcDbRotatedDimension
1001
ACAD
1000
DSTYLE
1002
{
1070
   140
1040
2.5
1070
   340
1005
88
1070
   279
1070
     2
1070
   271
1070
     2
1002
}
  0
DIMENSION
  5
369
330
1F
100
AcDbEntity
  8
一般
  6
Continuous
 62
     7
370
     9
100
AcDbDimension
  2
*D22
 10
155.2164400415319
 20
4.80768835035451
 30
0.0
 11
147.4664400415317
 21
6.07768835035451
 31
0.0
 70
    32
 71
     5
 42
15.50000000000045
  3
MSP明朝寸法1
100
AcDbAlignedDimension
 13
139.7164400415314
 23
-0.9999999999990905
 33
0.0
 14
155.2164400415319
 24
-1.000000000000455
 34
0.0
100
AcDbRotatedDimension
1001
ACAD
1000
DSTYLE
1002
{
1070
   140
1040
2.5
1070
   340
1005
88
1070
   279
1070
     2
1070
   271
1070
     2
1002
}
  0
LINE
  5
36A
330
1F
100
AcDbEntity
  8
一般
  6
Continuous
 62
     7
100
AcDbLine
 10
155.2164400415319
 20
-1.000000000000455
 30
0.0
 11
155.2164400415319
 21
-7.000000000000455
 31
0.0
  0
LINE
  5
36B
330
1F
100
AcDbEntity
  8
一般
  6
Continuous
 62
     7
100
AcDbLine
 10
139.5426126533927
 20
-4.316824153150264
 30
0.0
 11
137.3940408856193
 21
-45.31401573745825
 31
0.0
  0
LINE
  5
36C
330
1F
100
AcDbEntity
  8
一般
  6
Continuous
 62
     7
100
AcDbLine
 10
146.2164400415314
 20
-8.000000000000455
 30
0.0
 11
146.2164400415342
 21
-56.99999999999818
 31
0.0
  0
LINE
  5
36D
330
1F
100
AcDbEntity
  8
一般
  6
Continuous
 62
     7
100
AcDbLine
 10
143.3678541965743
 20
-1.0
 30
0.0
 11
155.2164400415319
 21
-1.0
 31
0.0
  0
LINE
  5
36E
330
1F
100
AcDbEntity
  8
一般
  6
Continuous
 62
     7
100
AcDbLine
 10
143.0378160250335
 20
-0.9999999999995453
 30
0.0
 11
155.2164400415319
 21
-1.000000000000455
 31
0.0
  0
ARC
  5
36F
330
1F
100
AcDbEntity
  8
一般
  6
Continuous
 62
     7
100
AcDbCircle
 10
143.0378160250335
 20
-4.499999999999545
 30
0.0
 40
3.5
100
AcDbArc
 50
90.0
 51
177.0000000000017
  0
LINE
  5
370
330
1F
100
AcDbEntity
  8
一般
  6
Continuous
 62
     7
100
AcDbLine
 10
147.2164400415314
 20
-7.000000000000455
 30
0.0
 11
155.2164400415319
 21
-7.000000000000455
 31
0.0
  0
DIMENSION
  5
371
330
1F
100
AcDbEntity
  8
一般
  6
Continuous
 62
     7
370
     9
100
AcDbDimension
  2
*D23
 10
-139.7835599584681
 20
-80.44838912744854
 30
0.0
 11
-136.7835599584679
 21
-79.17838912744854
 31
0.0
 70
    32
 71
     5
 42
6.000000000000455
  3
MSP明朝寸法1
100
AcDbAlignedDimension
 13
-133.7835599584677
 23
-90.0
 33
0.0
 14
-139.7835599584681
 24
-91.0
 34
0.0
100
AcDbRotatedDimension
1001
ACAD
1000
DSTYLE
1002
{
1070
   140
1040
2.5
1070
   340
1005
88
1070
   279
1070
     2
1070
   271
1070
     2
1002
}
  0
DIMENSION
  5
372
330
1F
100
AcDbEntity
  8
一般
  6
Continuous
 62
     7
370
     9
100
AcDbDimension
  2
*D24
 10
-147.3645001825706
 20
-48.89497200000005
 30
0.0
 11
-148.6345001825706
 21
-69.94748600000003
 31
0.0
 70
    32
  1
42
 71
     5
 42
42.10502799999995
  3
MSP明朝寸法1
100
AcDbAlignedDimension
 13
-139.7835599584681
 23
-91.0
 33
0.0
 14
-132.213559958468
 24
-48.89497200000005
 34
0.0
 50
-90.0
100
AcDbRotatedDimension
1001
ACAD
1000
DSTYLE
1002
{
1070
   140
1040
2.5
1070
   340
1005
88
1070
   279
1070
     2
1070
   271
1070
     2
1002
}
  0
ARC
  5
373
330
1F
100
AcDbEntity
  8
一般
  6
Continuous
 62
     7
100
AcDbCircle
 10
147.2164400415314
 20
-8.000000000000455
 30
0.0
 40
1.0
100
AcDbArc
 50
90.0
 51
180.0
  0
VIEWPORT
  5
374
330
1B
100
AcDbEntity
 67
     1
  8
0
100
AcDbViewport
 10
128.5
 20
97.5
 30
0.0
 40
314.226
 41
222.18
 68
     1
 69
     1
 12
128.5
 22
97.5
 13
0.0
 23
0.0
 14
10.0
 24
10.0
 15
10.0
 25
10.0
 16
0.0
 26
0.0
 36
1.0
 17
0.0
 27
0.0
 37
0.0
 42
50.0
 43
0.0
 44
0.0
 45
222.18
 50
0.0
 51
0.0
 72
   100
 90
   557152
  1

281
     0
 71
     1
 74
     0
110
0.0
120
0.0
130
0.0
111
1.0
121
0.0
131
0.0
112
0.0
122
1.0
132
0.0
 79
     0
146
0.0
  0
ENDSEC
  0
SECTION
  2
OBJECTS
  0
DICTIONARY
  5
C
330
0
100
AcDbDictionary
281
     1
  3
ACAD_GROUP
350
D
  3
ACAD_LAYOUT
350
1A
  3
ACAD_MATERIAL
350
3B
  3
ACAD_MLEADERSTYLE
350
377
  3
ACAD_MLINESTYLE
350
17
  3
ACAD_PLOTSETTINGS
350
19
  3
ACAD_PLOTSTYLENAME
350
E
  3
ACAD_VISUALSTYLE
350
2A
  3
ACAD_WIPEOUT_VARS
350
87
  3
AcDbVariableDictionary
350
375
  0
DICTIONARY
  5
D
102
{ACAD_REACTORS
330
C
102
}
330
C
100
AcDbDictionary
281
     1
  0
DICTIONARY
  5
1A
102
{ACAD_REACTORS
330
C
102
}
330
C
100
AcDbDictionary
281
     1
  3
Layout1
350
1E
  3
Model
350
22
  0
DICTIONARY
  5
3B
102
{ACAD_REACTORS
330
C
102
}
330
C
100
AcDbDictionary
281
     1
  3
ByBlock
350
3D
  3
ByLayer
350
3C
  3
Global
350
3E
  0
DICTIONARY
  5
377
102
{ACAD_REACTORS
330
C
102
}
330
C
100
AcDbDictionary
281
     1
  0
DICTIONARY
  5
17
102
{ACAD_REACTORS
330
C
102
}
330
C
100
AcDbDictionary
281
     1
  3
Standard
350
18
  0
DICTIONARY
  5
19
102
{ACAD_REACTORS
330
C
102
}
330
C
100
AcDbDictionary
281
     1
  0
ACDBDICTIONARYWDFLT
  5
E
102
{ACAD_REACTORS
330
C
102
}
330
C
100
AcDbDictionary
281
     1
  3
Normal
350
F
100
AcDbDictionaryWithDefault
340
F
  0
DICTIONARY
  5
2A
102
{ACAD_REACTORS
330
C
102
}
330
C
100
AcDbDictionary
281
     1
  3
2dWireframe
350
2F
  3
3D Hidden
350
31
  3
3dWireframe
350
30
  3
Basic
350
32
  3
Brighten
350
36
  3
ColorChange
350
3A
  3
Conceptual
350
34
  3
Dim
350
35
  3
Facepattern
350
39
  3
Flat
350
2B
  3
FlatWithEdges
350
2C
  3
Gouraud
350
2D
  3
GouraudWithEdges
350
2E
  3
Linepattern
350
38
  3
Realistic
350
33
  3
Thicken
350
37
  0
WIPEOUTVARIABLES
  5
87
102
{ACAD_REACTORS
330
C
102
}
330
C
100
AcDbWipeoutVariables
 70
     0
  0
DICTIONARY
  5
375
102
{ACAD_REACTORS
330
C
102
}
330
C
100
AcDbDictionary
281
     1
  3
DIMASSOC
350
379
  3
HIDETEXT
350
37A
  3
XCLIPFRAME
350
378
  0
LAYOUT
  5
1E
102
{ACAD_REACTORS
330
1A
102
}
330
1A
100
AcDbPlotSettings
  1

  2
none_device
  4
ISO_A4_(210.00_x_297.00_MM)
  6

 40
7.5
 41
20.0
 42
7.5
 43
20.0
 44
210.0
 45
297.0
 46
0.0
 47
0.0
 48
0.0
 49
0.0
140
0.0
141
0.0
142
1.0
143
1.0
 70
   688
 72
     1
 73
     1
 74
     5
  7

 75
    16
147
1.0
148
0.0
149
0.0
100
AcDbLayout
  1
Layout1
 70
     1
 71
     1
 10
-20.0
 20
-7.5
 11
277.0
 21
202.5
 12
0.0
 22
0.0
 32
0.0
 14
1.000000000000000E+20
 24
1.000000000000000E+20
 34
1.000000000000000E+20
 15
-1.000000000000000E+20
 25
-1.000000000000000E+20
 35
-1.000000000000000E+20
146
0.0
 13
0.0
 23
0.0
 33
0.0
 16
1.0
 26
0.0
 36
0.0
 17
0.0
 27
1.0
 37
0.0
 76
     0
330
1B
331
374
  0
LAYOUT
  5
22
102
{ACAD_REACTORS
330
1A
102
}
330
1A
100
AcDbPlotSettings
  1

  2
none_device
  4

  6

 40
0.0
 41
0.0
 42
0.0
 43
0.0
 44
0.0
 45
0.0
 46
0.0
 47
0.0
 48
0.0
 49
0.0
140
0.0
141
0.0
142
1.0
143
1.0
 70
  1712
 72
     0
 73
     0
 74
     0
  7

 75
     0
147
1.0
148
0.0
149
0.0
100
AcDbLayout
  1
Model
 70
     1
 71
     0
 10
0.0
 20
0.0
 11
12.0
 21
9.0
 12
0.0
 22
0.0
 32
0.0
 14
-185.0
 24
-139.9999999999999
 34
0.0
 15
201.0
 25
140.0
 35
0.0
146
0.0
 13
0.0
 23
0.0
 33
0.0
 16
1.0
 26
0.0
 36
0.0
 17
0.0
 27
1.0
 37
0.0
 76
     0
330
1F
331
29
  0
MATERIAL
  5
3D
102
{ACAD_REACTORS
330
3B
102
}
102
{ACAD_XDICTIONARY
360
39D
102
}
330
3B
100
AcDbMaterial
  1
ByBlock
  0
MATERIAL
  5
3C
102
{ACAD_REACTORS
330
3B
102
}
102
{ACAD_XDICTIONARY
360
39B
102
}
330
3B
100
AcDbMaterial
  1
ByLayer
  0
MATERIAL
  5
3E
102
{ACAD_REACTORS
330
3B
102
}
102
{ACAD_XDICTIONARY
360
39F
102
}
330
3B
100
AcDbMaterial
  1
Global
  0
MLINESTYLE
  5
18
102
{ACAD_REACTORS
330
17
102
}
330
17
100
AcDbMlineStyle
  2
Standard
 70
     0
  3

 62
   256
 51
90.0
 52
90.0
 71
     2
 49
0.5
 62
   256
  6
BYLAYER
 49
-0.5
 62
   256
  6
BYLAYER
  0
ACDBPLACEHOLDER
  5
F
102
{ACAD_REACTORS
330
E
102
}
330
E
  0
VISUALSTYLE
  5
2F
102
{ACAD_REACTORS
330
2A
102
}
102
{ACAD_XDICTIONARY
360
383
102
}
330
2A
100
AcDbVisualStyle
  2
2dWireframe
 70
     4
 71
     0
 72
     2
 73
     0
 90
        0
 40
-0.6
 41
-30.0
 62
     5
 63
     7
 74
     1
 91
        4
 64
     7
 65
   257
 75
     1
175
     1
 42
1.0
 92
        0
 66
   257
 43
1.0
 76
     1
 77
     6
 78
     2
 67
     7
 79
     5
170
     0
171
     0
290
     0
174
     0
 93
        1
 44
0.0
173
     0
291
     0
 45
0.0
1001
ACAD
1000
AcDbSavedByObjectVersion
1070
     0
  0
VISUALSTYLE
  5
31
102
{ACAD_REACTORS
330
2A
102
}
102
{ACAD_XDICTIONARY
360
387
102
}
330
2A
100
AcDbVisualStyle
  2
3D Hidden
 70
     6
 71
     1
 72
     2
 73
     2
 90
        0
 40
-0.6
 41
-30.0
 62
     5
 63
     7
 74
     2
 91
        2
 64
     7
 65
   257
 75
     2
175
     1
 42
40.0
 92
        0
 66
   257
 43
1.0
 76
     1
 77
     6
 78
     2
 67
     7
 79
     3
170
     0
171
     0
290
     0
174
     0
 93
        1
 44
0.0
173
     0
291
     0
 45
0.0
1001
ACAD
1000
AcDbSavedByObjectVersion
1070
     0
  0
VISUALSTYLE
  5
30
102
{ACAD_REACTORS
330
2A
102
}
102
{ACAD_XDICTIONARY
360
385
102
}
330
2A
100
AcDbVisualStyle
  2
3dWireframe
 70
     5
 71
     0
 72
     2
 73
     0
 90
        0
 40
-0.6
 41
-30.0
 62
     5
 63
     7
 74
     1
 91
        4
 64
     7
 65
   257
 75
     1
175
     1
 42
1.0
 92
        0
 66
   257
 43
1.0
 76
     1
 77
     6
 78
     2
 67
     7
 79
     5
170
     0
171
     0
290
     0
174
     0
 93
        1
 44
0.0
173
     0
291
     0
 45
0.0
1001
ACAD
1000
AcDbSavedByObjectVersion
1070
     0
  0
VISUALSTYLE
  5
32
102
{ACAD_REACTORS
330
2A
102
}
102
{ACAD_XDICTIONARY
360
389
102
}
330
2A
100
AcDbVisualStyle
  2
Basic
 70
     7
 71
     1
 72
     0
 73
     1
 90
        0
 40
-0.6
 41
-30.0
 62
     5
 63
     7
 74
     0
 91
        4
 64
     7
 65
   257
 75
     1
175
     1
 42
1.0
 92
        8
 66
     7
 43
1.0
 76
     1
 77
     6
 78
     2
 67
     7
 79
     5
170
     0
171
     0
290
     0
174
     0
 93
        1
 44
0.0
173
     0
291
     1
 45
0.0
1001
ACAD
1000
AcDbSavedByObjectVersion
1070
     0
  0
VISUALSTYLE
  5
36
102
{ACAD_REACTORS
330
2A
102
}
102
{ACAD_XDICTIONARY
360
391
102
}
330
2A
100
AcDbVisualStyle
  2
Brighten
 70
    12
 71
     2
 72
     2
 73
     0
 90
        0
 40
-0.6
 41
-30.0
 62
     5
 63
     7
 74
     1
 91
        4
 64
     7
 65
   257
 75
     1
175
     1
 42
1.0
 92
        8
 66
     7
 43
1.0
 76
     1
 77
     6
 78
     2
 67
     7
 79
     5
170
     0
171
     0
290
     0
174
     0
 93
        1
 44
50.0
173
     0
291
     1
 45
0.0
1001
ACAD
1000
AcDbSavedByObjectVersion
1070
     0
  0
VISUALSTYLE
  5
3A
102
{ACAD_REACTORS
330
2A
102
}
102
{ACAD_XDICTIONARY
360
399
102
}
330
2A
100
AcDbVisualStyle
  2
ColorChange
 70
    16
 71
     2
 72
     2
 73
     3
 90
        0
 40
-0.6
 41
-30.0
 62
     5
 63
     8
 74
     1
 91
        4
 64
     7
 65
   257
 75
     1
175
     1
 42
1.0
 92
        8
 66
     8
 43
1.0
 76
     1
 77
     6
 78
     2
 67
     7
 79
     5
170
     0
171
     0
290
     0
174
     0
 93
        1
 44
0.0
173
     0
291
     1
 45
0.0
1001
ACAD
1000
AcDbSavedByObjectVersion
1070
     0
  0
VISUALSTYLE
  5
34
102
{ACAD_REACTORS
330
2A
102
}
102
{ACAD_XDICTIONARY
360
38D
102
}
330
2A
100
AcDbVisualStyle
  2
Conceptual
 70
     9
 71
     3
 72
     2
 73
     0
 90
        0
 40
-0.6
 41
-30.0
 62
     5
 63
     7
 74
     2
 91
        2
 64
     7
 65
   257
 75
     1
175
     1
 42
40.0
 92
        8
 66
     7
 43
1.0
 76
     1
 77
     6
 78
     2
 67
     7
 79
     3
170
     0
171
     0
290
     0
174
     0
 93
        1
 44
0.0
173
     0
291
     0
 45
0.0
1001
ACAD
1000
AcDbSavedByObjectVersion
1070
     0
  0
VISUALSTYLE
  5
35
102
{ACAD_REACTORS
330
2A
102
}
102
{ACAD_XDICTIONARY
360
38F
102
}
330
2A
100
AcDbVisualStyle
  2
Dim
 70
    11
 71
     2
 72
     2
 73
     0
 90
        0
 40
-0.6
 41
-30.0
 62
     5
 63
     7
 74
     1
 91
        4
 64
     7
 65
   257
 75
     1
175
     1
 42
1.0
 92
        8
 66
     7
 43
1.0
 76
     1
 77
     6
 78
     2
 67
     7
 79
     5
170
     0
171
     0
290
     0
174
     0
 93
        1
 44
-50.0
173
     0
291
     1
 45
0.0
1001
ACAD
1000
AcDbSavedByObjectVersion
1070
     0
  0
VISUALSTYLE
  5
39
102
{ACAD_REACTORS
330
2A
102
}
102
{ACAD_XDICTIONARY
360
397
102
}
330
2A
100
AcDbVisualStyle
  2
Facepattern
 70
    15
 71
     2
 72
     2
 73
     0
 90
        0
 40
-0.6
 41
-30.0
 62
     5
 63
     7
 74
     1
 91
        4
 64
     7
 65
   257
 75
     1
175
     1
 42
1.0
 92
        8
 66
     7
 43
1.0
 76
     1
 77
     6
 78
     2
 67
     7
 79
     5
170
     0
171
     0
290
     0
174
     0
 93
        1
 44
0.0
173
     0
291
     1
 45
0.0
1001
ACAD
1000
AcDbSavedByObjectVersion
1070
     0
  0
VISUALSTYLE
  5
2B
102
{ACAD_REACTORS
330
2A
102
}
102
{ACAD_XDICTIONARY
360
37B
102
}
330
2A
100
AcDbVisualStyle
  2
Flat
 70
     0
 71
     2
 72
     1
 73
     1
 90
        2
 40
-0.6
 41
30.0
 62
     5
 63
     7
 74
     0
 91
        4
 64
     7
 65
   257
 75
     1
175
     1
 42
1.0
 92
        8
 66
     7
 43
1.0
 76
     1
 77
     6
 78
     2
 67
     7
 79
     5
170
     0
171
     0
290
     0
174
     0
 93
       13
 44
0.0
173
     0
291
     1
 45
0.0
1001
ACAD
1000
AcDbSavedByObjectVersion
1070
     0
  0
VISUALSTYLE
  5
2C
102
{ACAD_REACTORS
330
2A
102
}
102
{ACAD_XDICTIONARY
360
37D
102
}
330
2A
100
AcDbVisualStyle
  2
FlatWithEdges
 70
     1
 71
     2
 72
     1
 73
     1
 90
        2
 40
-0.6
 41
30.0
 62
     5
 63
     7
 74
     1
 91
        4
 64
     7
 65
   257
 75
     1
175
     1
 42
1.0
 92
        0
 66
   257
 43
1.0
 76
     1
 77
     6
 78
     2
 67
     7
 79
     5
170
     0
171
     0
290
     0
174
     0
 93
       13
 44
0.0
173
     0
291
     1
 45
0.0
1001
ACAD
1000
AcDbSavedByObjectVersion
1070
     0
  0
VISUALSTYLE
  5
2D
102
{ACAD_REACTORS
330
2A
102
}
102
{ACAD_XDICTIONARY
360
37F
102
}
330
2A
100
AcDbVisualStyle
  2
Gouraud
 70
     2
 71
     2
 72
     2
 73
     1
 90
        2
 40
-0.6
 41
30.0
 62
     5
 63
     7
 74
     0
 91
        4
 64
     7
 65
   257
 75
     1
175
     1
 42
1.0
 92
        0
 66
     7
 43
1.0
 76
     1
 77
     6
 78
     2
 67
     7
 79
     5
170
     0
171
     0
290
     0
174
     0
 93
       13
 44
0.0
173
     0
291
     1
 45
0.0
1001
ACAD
1000
AcDbSavedByObjectVersion
1070
     0
  0
VISUALSTYLE
  5
2E
102
{ACAD_REACTORS
330
2A
102
}
102
{ACAD_XDICTIONARY
360
381
102
}
330
2A
100
AcDbVisualStyle
  2
GouraudWithEdges
 70
     3
 71
     2
 72
     2
 73
     1
 90
        2
 40
-0.6
 41
30.0
 62
     5
 63
     7
 74
     1
 91
        4
 64
     7
 65
   257
 75
     1
175
     1
 42
1.0
 92
        0
 66
   257
 43
1.0
 76
     1
 77
     6
 78
     2
 67
     7
 79
     5
170
     0
171
     0
290
     0
174
     0
 93
       13
 44
0.0
173
     0
291
     1
 45
0.0
1001
ACAD
1000
AcDbSavedByObjectVersion
1070
     0
  0
VISUALSTYLE
  5
38
102
{ACAD_REACTORS
330
2A
102
}
102
{ACAD_XDICTIONARY
360
395
102
}
330
2A
100
AcDbVisualStyle
  2
Linepattern
 70
    14
 71
     2
 72
     2
 73
     0
 90
        0
 40
-0.6
 41
-30.0
 62
     5
 63
     7
 74
     1
 91
        4
 64
     7
 65
   257
 75
     7
175
     7
 42
1.0
 92
        8
 66
     7
 43
1.0
 76
     1
 77
     6
 78
     2
 67
     7
 79
     5
170
     0
171
     0
290
     0
174
     0
 93
        1
 44
0.0
173
     0
291
     1
 45
0.0
1001
ACAD
1000
AcDbSavedByObjectVersion
1070
     0
  0
VISUALSTYLE
  5
33
102
{ACAD_REACTORS
330
2A
102
}
102
{ACAD_XDICTIONARY
360
38B
102
}
330
2A
100
AcDbVisualStyle
  2
Realistic
 70
     8
 71
     2
 72
     2
 73
     0
 90
        0
 40
-0.6
 41
-30.0
 62
     5
 63
     7
 74
     1
 91
        0
 64
     7
 65
   257
 75
     1
175
     1
 42
1.0
 92
        8
 66
     8
 43
1.0
 76
     1
 77
     6
 78
     2
 67
     7
 79
     5
170
     0
171
     0
290
     0
174
     0
 93
       13
 44
0.0
173
     0
291
     0
 45
0.0
1001
ACAD
1000
AcDbSavedByObjectVersion
1070
     0
  0
VISUALSTYLE
  5
37
102
{ACAD_REACTORS
330
2A
102
}
102
{ACAD_XDICTIONARY
360
393
102
}
330
2A
100
AcDbVisualStyle
  2
Thicken
 70
    13
 71
     2
 72
     2
 73
     0
 90
        0
 40
-0.6
 41
-30.0
 62
     5
 63
     7
 74
     1
 91
        4
 64
     7
 65
   257
 75
     1
175
     1
 42
1.0
 92
       12
 66
     7
 43
1.0
 76
     1
 77
     6
 78
     2
 67
     7
 79
     5
170
     0
171
     0
290
     0
174
     0
 93
        1
 44
0.0
173
     0
291
     1
 45
0.0
1001
ACAD
1000
AcDbSavedByObjectVersion
1070
     0
  0
DICTIONARYVAR
  5
379
102
{ACAD_REACTORS
330
375
102
}
330
375
100
DictionaryVariables
280
     0
  1
2
  0
DICTIONARYVAR
  5
37A
102
{ACAD_REACTORS
330
375
102
}
330
375
100
DictionaryVariables
280
     0
  1
1
  0
DICTIONARYVAR
  5
378
102
{ACAD_REACTORS
330
375
102
}
330
375
100
DictionaryVariables
280
     0
  1
0
  0
DICTIONARY
  5
39D
330
3D
100
AcDbDictionary
280
     1
281
     1
  3
ACAD_XREC_ROUNDTRIP
360
39E
  0
DICTIONARY
  5
39B
330
3C
100
AcDbDictionary
280
     1
281
     1
  3
ACAD_XREC_ROUNDTRIP
360
39C
  0
DICTIONARY
  5
39F
330
3E
100
AcDbDictionary
280
     1
281
     1
  3
ACAD_XREC_ROUNDTRIP
360
3A0
  0
DICTIONARY
  5
383
330
2F
100
AcDbDictionary
280
     1
281
     1
  3
ACAD_XREC_ROUNDTRIP
360
384
  0
DICTIONARY
  5
387
330
31
100
AcDbDictionary
280
     1
281
     1
  3
ACAD_XREC_ROUNDTRIP
360
388
  0
DICTIONARY
  5
385
330
30
100
AcDbDictionary
280
     1
281
     1
  3
ACAD_XREC_ROUNDTRIP
360
386
  0
DICTIONARY
  5
389
330
32
100
AcDbDictionary
280
     1
281
     1
  3
ACAD_XREC_ROUNDTRIP
360
38A
  0
DICTIONARY
  5
391
330
36
100
AcDbDictionary
280
     1
281
     1
  3
ACAD_XREC_ROUNDTRIP
360
392
  0
DICTIONARY
  5
399
330
3A
100
AcDbDictionary
280
     1
281
     1
  3
ACAD_XREC_ROUNDTRIP
360
39A
  0
DICTIONARY
  5
38D
330
34
100
AcDbDictionary
280
     1
281
     1
  3
ACAD_XREC_ROUNDTRIP
360
38E
  0
DICTIONARY
  5
38F
330
35
100
AcDbDictionary
280
     1
281
     1
  3
ACAD_XREC_ROUNDTRIP
360
390
  0
DICTIONARY
  5
397
330
39
100
AcDbDictionary
280
     1
281
     1
  3
ACAD_XREC_ROUNDTRIP
360
398
  0
DICTIONARY
  5
37B
330
2B
100
AcDbDictionary
280
     1
281
     1
  3
ACAD_XREC_ROUNDTRIP
360
37C
  0
DICTIONARY
  5
37D
330
2C
100
AcDbDictionary
280
     1
281
     1
  3
ACAD_XREC_ROUNDTRIP
360
37E
  0
DICTIONARY
  5
37F
330
2D
100
AcDbDictionary
280
     1
281
     1
  3
ACAD_XREC_ROUNDTRIP
360
380
  0
DICTIONARY
  5
381
330
2E
100
AcDbDictionary
280
     1
281
     1
  3
ACAD_XREC_ROUNDTRIP
360
382
  0
DICTIONARY
  5
395
330
38
100
AcDbDictionary
280
     1
281
     1
  3
ACAD_XREC_ROUNDTRIP
360
396
  0
DICTIONARY
  5
38B
330
33
100
AcDbDictionary
280
     1
281
     1
  3
ACAD_XREC_ROUNDTRIP
360
38C
  0
DICTIONARY
  5
393
330
37
100
AcDbDictionary
280
     1
281
     1
  3
ACAD_XREC_ROUNDTRIP
360
394
  0
XRECORD
  5
39E
102
{ACAD_REACTORS
330
39D
102
}
330
39D
100
AcDbXrecord
280
     1
102
MATERIAL
148
0.0
149
0.0
149
0.0
 93
        0
 94
      127
282
     0
 72
     1
 77
     1
171
     1
175
     1
179
     1
273
     0
  0
XRECORD
  5
39C
102
{ACAD_REACTORS
330
39B
102
}
330
39B
100
AcDbXrecord
280
     1
102
MATERIAL
148
0.0
149
0.0
149
0.0
 93
        0
 94
      127
282
     0
 72
     1
 77
     1
171
     1
175
     1
179
     1
273
     0
  0
XRECORD
  5
3A0
102
{ACAD_REACTORS
330
39F
102
}
330
39F
100
AcDbXrecord
280
     1
102
MATERIAL
148
0.0
149
0.0
149
0.0
 93
        0
 94
      127
282
     0
 72
     1
 77
     1
171
     1
175
     1
179
     1
273
     0
  0
XRECORD
  5
384
102
{ACAD_REACTORS
330
383
102
}
330
383
100
AcDbXrecord
280
     1
102
RTVSPropertyOp0
 70
     1
102
RTVSPropertyOp1
 70
     1
102
RTVSPropertyOp2
 70
     1
102
RTVSPropertyOp3
 70
     1
102
RTVSPropertyOp4
 70
     1
102
RTVSPropertyOp5
 70
     1
102
RTVSPropertyOp6
 70
     1
102
RTVSPropertyOp7
 70
     1
102
RTVSPropertyOp8
 70
     1
102
RTVSPropertyOp9
 70
     1
102
RTVSPropertyOp10
 70
     1
102
RTVSPropertyOp11
 70
     1
102
RTVSPropertyOp12
 70
     1
102
RTVSPropertyOp13
 70
     1
102
RTVSPropertyOp14
 70
     1
102
RTVSPropertyOp15
 70
     1
102
RTVSPropertyOp16
 70
     1
102
RTVSPropertyOp17
 70
     1
102
RTVSPropertyOp18
 70
     1
102
RTVSPropertyOp19
 70
     1
102
RTVSPropertyOp20
 70
     1
102
RTVSPropertyOp21
 70
     1
102
RTVSPropertyOp22
 70
     1
102
RTVSPropertyOp23
 70
     1
102
RTVSPropertyOp24
 70
     1
102
RTVSPropertyOp25
 70
     1
102
RTVSPropertyOp26
 70
     1
102
RTVSPropertyOp27
 70
     1
102
RTVSPropertyOp28
 70
     1
102
RTVSPropertyOp29
 70
     1
102
RTVSPropertyOp30
 70
     1
102
RTVSPropertyOp31
 70
     1
102
RTVSPropertyOp32
 70
     1
  0
XRECORD
  5
388
102
{ACAD_REACTORS
330
387
102
}
330
387
100
AcDbXrecord
280
     1
102
RTVSPropertyOp0
 70
     1
102
RTVSPropertyOp1
 70
     1
102
RTVSPropertyOp2
 70
     1
102
RTVSPropertyOp3
 70
     1
102
RTVSPropertyOp4
 70
     1
102
RTVSPropertyOp5
 70
     1
102
RTVSPropertyOp6
 70
     1
102
RTVSPropertyOp7
 70
     1
102
RTVSPropertyOp8
 70
     1
102
RTVSPropertyOp9
 70
     1
102
RTVSPropertyOp10
 70
     1
102
RTVSPropertyOp11
 70
     1
102
RTVSPropertyOp12
 70
     1
102
RTVSPropertyOp13
 70
     1
102
RTVSPropertyOp14
 70
     1
102
RTVSPropertyOp15
 70
     1
102
RTVSPropertyOp16
 70
     1
102
RTVSPropertyOp17
 70
     1
102
RTVSPropertyOp18
 70
     1
102
RTVSPropertyOp19
 70
     1
102
RTVSPropertyOp20
 70
     1
102
RTVSPropertyOp21
 70
     1
102
RTVSPropertyOp22
 70
     1
102
RTVSPropertyOp23
 70
     1
102
RTVSPropertyOp24
 70
     1
102
RTVSPropertyOp25
 70
     1
102
RTVSPropertyOp26
 70
     1
102
RTVSPropertyOp27
 70
     1
102
RTVSPropertyOp28
 70
     1
102
RTVSPropertyOp29
 70
     1
102
RTVSPropertyOp30
 70
     1
102
RTVSPropertyOp31
 70
     1
102
RTVSPropertyOp32
 70
     1
  0
XRECORD
  5
386
102
{ACAD_REACTORS
330
385
102
}
330
385
100
AcDbXrecord
280
     1
102
RTVSPropertyOp0
 70
     1
102
RTVSPropertyOp1
 70
     1
102
RTVSPropertyOp2
 70
     1
102
RTVSPropertyOp3
 70
     1
102
RTVSPropertyOp4
 70
     1
102
RTVSPropertyOp5
 70
     1
102
RTVSPropertyOp6
 70
     1
102
RTVSPropertyOp7
 70
     1
102
RTVSPropertyOp8
 70
     1
102
RTVSPropertyOp9
 70
     1
102
RTVSPropertyOp10
 70
     1
102
RTVSPropertyOp11
 70
     1
102
RTVSPropertyOp12
 70
     1
102
RTVSPropertyOp13
 70
     1
102
RTVSPropertyOp14
 70
     1
102
RTVSPropertyOp15
 70
     1
102
RTVSPropertyOp16
 70
     1
102
RTVSPropertyOp17
 70
     1
102
RTVSPropertyOp18
 70
     1
102
RTVSPropertyOp19
 70
     1
102
RTVSPropertyOp20
 70
     1
102
RTVSPropertyOp21
 70
     1
102
RTVSPropertyOp22
 70
     1
102
RTVSPropertyOp23
 70
     1
102
RTVSPropertyOp24
 70
     1
102
RTVSPropertyOp25
 70
     1
102
RTVSPropertyOp26
 70
     1
102
RTVSPropertyOp27
 70
     1
102
RTVSPropertyOp28
 70
     1
102
RTVSPropertyOp29
 70
     1
102
RTVSPropertyOp30
 70
     1
102
RTVSPropertyOp31
 70
     1
102
RTVSPropertyOp32
 70
     1
  0
XRECORD
  5
38A
102
{ACAD_REACTORS
330
389
102
}
330
389
100
AcDbXrecord
280
     1
102
RTVSPropertyOp0
 70
     1
102
RTVSPropertyOp1
 70
     1
102
RTVSPropertyOp2
 70
     1
102
RTVSPropertyOp3
 70
     1
102
RTVSPropertyOp4
 70
     1
102
RTVSPropertyOp5
 70
     1
102
RTVSPropertyOp6
 70
     1
102
RTVSPropertyOp7
 70
     1
102
RTVSPropertyOp8
 70
     1
102
RTVSPropertyOp9
 70
     1
102
RTVSPropertyOp10
 70
     1
102
RTVSPropertyOp11
 70
     1
102
RTVSPropertyOp12
 70
     1
102
RTVSPropertyOp13
 70
     1
102
RTVSPropertyOp14
 70
     1
102
RTVSPropertyOp15
 70
     1
102
RTVSPropertyOp16
 70
     1
102
RTVSPropertyOp17
 70
     1
102
RTVSPropertyOp18
 70
     1
102
RTVSPropertyOp19
 70
     1
102
RTVSPropertyOp20
 70
     1
102
RTVSPropertyOp21
 70
     1
102
RTVSPropertyOp22
 70
     1
102
RTVSPropertyOp23
 70
     1
102
RTVSPropertyOp24
 70
     1
102
RTVSPropertyOp25
 70
     1
102
RTVSPropertyOp26
 70
     1
102
RTVSPropertyOp27
 70
     1
102
RTVSPropertyOp28
 70
     1
102
RTVSPropertyOp29
 70
     1
102
RTVSPropertyOp30
 70
     1
102
RTVSPropertyOp31
 70
     1
102
RTVSPropertyOp32
 70
     1
  0
XRECORD
  5
392
102
{ACAD_REACTORS
330
391
102
}
330
391
100
AcDbXrecord
280
     1
102
RTVSPropertyOp0
 70
     1
102
RTVSPropertyOp1
 70
     1
102
RTVSPropertyOp2
 70
     1
102
RTVSPropertyOp3
 70
     1
102
RTVSPropertyOp4
 70
     1
102
RTVSPropertyOp5
 70
     1
102
RTVSPropertyOp6
 70
     1
102
RTVSPropertyOp7
 70
     1
102
RTVSPropertyOp8
 70
     1
102
RTVSPropertyOp9
 70
     1
102
RTVSPropertyOp10
 70
     1
102
RTVSPropertyOp11
 70
     1
102
RTVSPropertyOp12
 70
     1
102
RTVSPropertyOp13
 70
     1
102
RTVSPropertyOp14
 70
     1
102
RTVSPropertyOp15
 70
     1
102
RTVSPropertyOp16
 70
     1
102
RTVSPropertyOp17
 70
     1
102
RTVSPropertyOp18
 70
     1
102
RTVSPropertyOp19
 70
     1
102
RTVSPropertyOp20
 70
     1
102
RTVSPropertyOp21
 70
     1
102
RTVSPropertyOp22
 70
     1
102
RTVSPropertyOp23
 70
     1
102
RTVSPropertyOp24
 70
     1
102
RTVSPropertyOp25
 70
     1
102
RTVSPropertyOp26
 70
     1
102
RTVSPropertyOp27
 70
     1
102
RTVSPropertyOp28
 70
     1
102
RTVSPropertyOp29
 70
     1
102
RTVSPropertyOp30
 70
     1
102
RTVSPropertyOp31
 70
     1
102
RTVSPropertyOp32
 70
     1
  0
XRECORD
  5
39A
102
{ACAD_REACTORS
330
399
102
}
330
399
100
AcDbXrecord
280
     1
102
RTVSPropertyOp0
 70
     1
102
RTVSPropertyOp1
 70
     1
102
RTVSPropertyOp2
 70
     1
102
RTVSPropertyOp3
 70
     1
102
RTVSPropertyOp4
 70
     1
102
RTVSPropertyOp5
 70
     1
102
RTVSPropertyOp6
 70
     1
102
RTVSPropertyOp7
 70
     1
102
RTVSPropertyOp8
 70
     1
102
RTVSPropertyOp9
 70
     1
102
RTVSPropertyOp10
 70
     1
102
RTVSPropertyOp11
 70
     1
102
RTVSPropertyOp12
 70
     1
102
RTVSPropertyOp13
 70
     1
102
RTVSPropertyOp14
 70
     1
102
RTVSPropertyOp15
 70
     1
102
RTVSPropertyOp16
 70
     1
102
RTVSPropertyOp17
 70
     1
102
RTVSPropertyOp18
 70
     1
102
RTVSPropertyOp19
 70
     1
102
RTVSPropertyOp20
 70
     1
102
RTVSPropertyOp21
 70
     1
102
RTVSPropertyOp22
 70
     1
102
RTVSPropertyOp23
 70
     1
102
RTVSPropertyOp24
 70
     1
102
RTVSPropertyOp25
 70
     1
102
RTVSPropertyOp26
 70
     1
102
RTVSPropertyOp27
 70
     1
102
RTVSPropertyOp28
 70
     1
102
RTVSPropertyOp29
 70
     1
102
RTVSPropertyOp30
 70
     1
102
RTVSPropertyOp31
 70
     1
102
RTVSPropertyOp32
 70
     1
  0
XRECORD
  5
38E
102
{ACAD_REACTORS
330
38D
102
}
330
38D
100
AcDbXrecord
280
     1
102
RTVSPropertyOp0
 70
     1
102
RTVSPropertyOp1
 70
     1
102
RTVSPropertyOp2
 70
     1
102
RTVSPropertyOp3
 70
     1
102
RTVSPropertyOp4
 70
     1
102
RTVSPropertyOp5
 70
     1
102
RTVSPropertyOp6
 70
     1
102
RTVSPropertyOp7
 70
     1
102
RTVSPropertyOp8
 70
     1
102
RTVSPropertyOp9
 70
     1
102
RTVSPropertyOp10
 70
     1
102
RTVSPropertyOp11
 70
     1
102
RTVSPropertyOp12
 70
     1
102
RTVSPropertyOp13
 70
     1
102
RTVSPropertyOp14
 70
     1
102
RTVSPropertyOp15
 70
     1
102
RTVSPropertyOp16
 70
     1
102
RTVSPropertyOp17
 70
     1
102
RTVSPropertyOp18
 70
     1
102
RTVSPropertyOp19
 70
     1
102
RTVSPropertyOp20
 70
     1
102
RTVSPropertyOp21
 70
     1
102
RTVSPropertyOp22
 70
     1
102
RTVSPropertyOp23
 70
     1
102
RTVSPropertyOp24
 70
     1
102
RTVSPropertyOp25
 70
     1
102
RTVSPropertyOp26
 70
     1
102
RTVSPropertyOp27
 70
     1
102
RTVSPropertyOp28
 70
     1
102
RTVSPropertyOp29
 70
     1
102
RTVSPropertyOp30
 70
     1
102
RTVSPropertyOp31
 70
     1
102
RTVSPropertyOp32
 70
     1
  0
XRECORD
  5
390
102
{ACAD_REACTORS
330
38F
102
}
330
38F
100
AcDbXrecord
280
     1
102
RTVSPropertyOp0
 70
     1
102
RTVSPropertyOp1
 70
     1
102
RTVSPropertyOp2
 70
     1
102
RTVSPropertyOp3
 70
     1
102
RTVSPropertyOp4
 70
     1
102
RTVSPropertyOp5
 70
     1
102
RTVSPropertyOp6
 70
     1
102
RTVSPropertyOp7
 70
     1
102
RTVSPropertyOp8
 70
     1
102
RTVSPropertyOp9
 70
     1
102
RTVSPropertyOp10
 70
     1
102
RTVSPropertyOp11
 70
     1
102
RTVSPropertyOp12
 70
     1
102
RTVSPropertyOp13
 70
     1
102
RTVSPropertyOp14
 70
     1
102
RTVSPropertyOp15
 70
     1
102
RTVSPropertyOp16
 70
     1
102
RTVSPropertyOp17
 70
     1
102
RTVSPropertyOp18
 70
     1
102
RTVSPropertyOp19
 70
     1
102
RTVSPropertyOp20
 70
     1
102
RTVSPropertyOp21
 70
     1
102
RTVSPropertyOp22
 70
     1
102
RTVSPropertyOp23
 70
     1
102
RTVSPropertyOp24
 70
     1
102
RTVSPropertyOp25
 70
     1
102
RTVSPropertyOp26
 70
     1
102
RTVSPropertyOp27
 70
     1
102
RTVSPropertyOp28
 70
     1
102
RTVSPropertyOp29
 70
     1
102
RTVSPropertyOp30
 70
     1
102
RTVSPropertyOp31
 70
     1
102
RTVSPropertyOp32
 70
     1
  0
XRECORD
  5
398
102
{ACAD_REACTORS
330
397
102
}
330
397
100
AcDbXrecord
280
     1
102
RTVSPropertyOp0
 70
     1
102
RTVSPropertyOp1
 70
     1
102
RTVSPropertyOp2
 70
     1
102
RTVSPropertyOp3
 70
     1
102
RTVSPropertyOp4
 70
     1
102
RTVSPropertyOp5
 70
     1
102
RTVSPropertyOp6
 70
     1
102
RTVSPropertyOp7
 70
     1
102
RTVSPropertyOp8
 70
     1
102
RTVSPropertyOp9
 70
     1
102
RTVSPropertyOp10
 70
     1
102
RTVSPropertyOp11
 70
     1
102
RTVSPropertyOp12
 70
     1
102
RTVSPropertyOp13
 70
     1
102
RTVSPropertyOp14
 70
     1
102
RTVSPropertyOp15
 70
     1
102
RTVSPropertyOp16
 70
     1
102
RTVSPropertyOp17
 70
     1
102
RTVSPropertyOp18
 70
     1
102
RTVSPropertyOp19
 70
     1
102
RTVSPropertyOp20
 70
     1
102
RTVSPropertyOp21
 70
     1
102
RTVSPropertyOp22
 70
     1
102
RTVSPropertyOp23
 70
     1
102
RTVSPropertyOp24
 70
     1
102
RTVSPropertyOp25
 70
     1
102
RTVSPropertyOp26
 70
     1
102
RTVSPropertyOp27
 70
     1
102
RTVSPropertyOp28
 70
     1
102
RTVSPropertyOp29
 70
     1
102
RTVSPropertyOp30
 70
     1
102
RTVSPropertyOp31
 70
     1
102
RTVSPropertyOp32
 70
     1
  0
XRECORD
  5
37C
102
{ACAD_REACTORS
330
37B
102
}
330
37B
100
AcDbXrecord
280
     1
102
RTVSPropertyOp0
 70
     1
102
RTVSPropertyOp1
 70
     1
102
RTVSPropertyOp2
 70
     1
102
RTVSPropertyOp3
 70
     1
102
RTVSPropertyOp4
 70
     1
102
RTVSPropertyOp5
 70
     1
102
RTVSPropertyOp6
 70
     1
102
RTVSPropertyOp7
 70
     1
102
RTVSPropertyOp8
 70
     1
102
RTVSPropertyOp9
 70
     1
102
RTVSPropertyOp10
 70
     1
102
RTVSPropertyOp11
 70
     1
102
RTVSPropertyOp12
 70
     1
102
RTVSPropertyOp13
 70
     1
102
RTVSPropertyOp14
 70
     1
102
RTVSPropertyOp15
 70
     1
102
RTVSPropertyOp16
 70
     1
102
RTVSPropertyOp17
 70
     1
102
RTVSPropertyOp18
 70
     1
102
RTVSPropertyOp19
 70
     1
102
RTVSPropertyOp20
 70
     1
102
RTVSPropertyOp21
 70
     1
102
RTVSPropertyOp22
 70
     1
102
RTVSPropertyOp23
 70
     1
102
RTVSPropertyOp24
 70
     1
102
RTVSPropertyOp25
 70
     1
102
RTVSPropertyOp26
 70
     1
102
RTVSPropertyOp27
 70
     1
102
RTVSPropertyOp28
 70
     1
102
RTVSPropertyOp29
 70
     1
102
RTVSPropertyOp30
 70
     1
102
RTVSPropertyOp31
 70
     1
102
RTVSPropertyOp32
 70
     1
  0
XRECORD
  5
37E
102
{ACAD_REACTORS
330
37D
102
}
330
37D
100
AcDbXrecord
280
     1
102
RTVSPropertyOp0
 70
     1
102
RTVSPropertyOp1
 70
     1
102
RTVSPropertyOp2
 70
     1
102
RTVSPropertyOp3
 70
     1
102
RTVSPropertyOp4
 70
     1
102
RTVSPropertyOp5
 70
     1
102
RTVSPropertyOp6
 70
     1
102
RTVSPropertyOp7
 70
     1
102
RTVSPropertyOp8
 70
     1
102
RTVSPropertyOp9
 70
     1
102
RTVSPropertyOp10
 70
     1
102
RTVSPropertyOp11
 70
     1
102
RTVSPropertyOp12
 70
     1
102
RTVSPropertyOp13
 70
     1
102
RTVSPropertyOp14
 70
     1
102
RTVSPropertyOp15
 70
     1
102
RTVSPropertyOp16
 70
     1
102
RTVSPropertyOp17
 70
     1
102
RTVSPropertyOp18
 70
     1
102
RTVSPropertyOp19
 70
     1
102
RTVSPropertyOp20
 70
     1
102
RTVSPropertyOp21
 70
     1
102
RTVSPropertyOp22
 70
     1
102
RTVSPropertyOp23
 70
     1
102
RTVSPropertyOp24
 70
     1
102
RTVSPropertyOp25
 70
     1
102
RTVSPropertyOp26
 70
     1
102
RTVSPropertyOp27
 70
     1
102
RTVSPropertyOp28
 70
     1
102
RTVSPropertyOp29
 70
     1
102
RTVSPropertyOp30
 70
     1
102
RTVSPropertyOp31
 70
     1
102
RTVSPropertyOp32
 70
     1
  0
XRECORD
  5
380
102
{ACAD_REACTORS
330
37F
102
}
330
37F
100
AcDbXrecord
280
     1
102
RTVSPropertyOp0
 70
     1
102
RTVSPropertyOp1
 70
     1
102
RTVSPropertyOp2
 70
     1
102
RTVSPropertyOp3
 70
     1
102
RTVSPropertyOp4
 70
     1
102
RTVSPropertyOp5
 70
     1
102
RTVSPropertyOp6
 70
     1
102
RTVSPropertyOp7
 70
     1
102
RTVSPropertyOp8
 70
     1
102
RTVSPropertyOp9
 70
     1
102
RTVSPropertyOp10
 70
     1
102
RTVSPropertyOp11
 70
     1
102
RTVSPropertyOp12
 70
     1
102
RTVSPropertyOp13
 70
     1
102
RTVSPropertyOp14
 70
     1
102
RTVSPropertyOp15
 70
     1
102
RTVSPropertyOp16
 70
     1
102
RTVSPropertyOp17
 70
     1
102
RTVSPropertyOp18
 70
     1
102
RTVSPropertyOp19
 70
     1
102
RTVSPropertyOp20
 70
     1
102
RTVSPropertyOp21
 70
     1
102
RTVSPropertyOp22
 70
     1
102
RTVSPropertyOp23
 70
     1
102
RTVSPropertyOp24
 70
     1
102
RTVSPropertyOp25
 70
     1
102
RTVSPropertyOp26
 70
     1
102
RTVSPropertyOp27
 70
     1
102
RTVSPropertyOp28
 70
     1
102
RTVSPropertyOp29
 70
     1
102
RTVSPropertyOp30
 70
     1
102
RTVSPropertyOp31
 70
     1
102
RTVSPropertyOp32
 70
     1
  0
XRECORD
  5
382
102
{ACAD_REACTORS
330
381
102
}
330
381
100
AcDbXrecord
280
     1
102
RTVSPropertyOp0
 70
     1
102
RTVSPropertyOp1
 70
     1
102
RTVSPropertyOp2
 70
     1
102
RTVSPropertyOp3
 70
     1
102
RTVSPropertyOp4
 70
     1
102
RTVSPropertyOp5
 70
     1
102
RTVSPropertyOp6
 70
     1
102
RTVSPropertyOp7
 70
     1
102
RTVSPropertyOp8
 70
     1
102
RTVSPropertyOp9
 70
     1
102
RTVSPropertyOp10
 70
     1
102
RTVSPropertyOp11
 70
     1
102
RTVSPropertyOp12
 70
     1
102
RTVSPropertyOp13
 70
     1
102
RTVSPropertyOp14
 70
     1
102
RTVSPropertyOp15
 70
     1
102
RTVSPropertyOp16
 70
     1
102
RTVSPropertyOp17
 70
     1
102
RTVSPropertyOp18
 70
     1
102
RTVSPropertyOp19
 70
     1
102
RTVSPropertyOp20
 70
     1
102
RTVSPropertyOp21
 70
     1
102
RTVSPropertyOp22
 70
     1
102
RTVSPropertyOp23
 70
     1
102
RTVSPropertyOp24
 70
     1
102
RTVSPropertyOp25
 70
     1
102
RTVSPropertyOp26
 70
     1
102
RTVSPropertyOp27
 70
     1
102
RTVSPropertyOp28
 70
     1
102
RTVSPropertyOp29
 70
     1
102
RTVSPropertyOp30
 70
     1
102
RTVSPropertyOp31
 70
     1
102
RTVSPropertyOp32
 70
     1
  0
XRECORD
  5
396
102
{ACAD_REACTORS
330
395
102
}
330
395
100
AcDbXrecord
280
     1
102
RTVSPropertyOp0
 70
     1
102
RTVSPropertyOp1
 70
     1
102
RTVSPropertyOp2
 70
     1
102
RTVSPropertyOp3
 70
     1
102
RTVSPropertyOp4
 70
     1
102
RTVSPropertyOp5
 70
     1
102
RTVSPropertyOp6
 70
     1
102
RTVSPropertyOp7
 70
     1
102
RTVSPropertyOp8
 70
     1
102
RTVSPropertyOp9
 70
     1
102
RTVSPropertyOp10
 70
     1
102
RTVSPropertyOp11
 70
     1
102
RTVSPropertyOp12
 70
     1
102
RTVSPropertyOp13
 70
     1
102
RTVSPropertyOp14
 70
     1
102
RTVSPropertyOp15
 70
     1
102
RTVSPropertyOp16
 70
     1
102
RTVSPropertyOp17
 70
     1
102
RTVSPropertyOp18
 70
     1
102
RTVSPropertyOp19
 70
     1
102
RTVSPropertyOp20
 70
     1
102
RTVSPropertyOp21
 70
     1
102
RTVSPropertyOp22
 70
     1
102
RTVSPropertyOp23
 70
     1
102
RTVSPropertyOp24
 70
     1
102
RTVSPropertyOp25
 70
     1
102
RTVSPropertyOp26
 70
     1
102
RTVSPropertyOp27
 70
     1
102
RTVSPropertyOp28
 70
     1
102
RTVSPropertyOp29
 70
     1
102
RTVSPropertyOp30
 70
     1
102
RTVSPropertyOp31
 70
     1
102
RTVSPropertyOp32
 70
     1
  0
XRECORD
  5
38C
102
{ACAD_REACTORS
330
38B
102
}
330
38B
100
AcDbXrecord
280
     1
102
RTVSPropertyOp0
 70
     1
102
RTVSPropertyOp1
 70
     1
102
RTVSPropertyOp2
 70
     1
102
RTVSPropertyOp3
 70
     1
102
RTVSPropertyOp4
 70
     1
102
RTVSPropertyOp5
 70
     1
102
RTVSPropertyOp6
 70
     1
102
RTVSPropertyOp7
 70
     1
102
RTVSPropertyOp8
 70
     1
102
RTVSPropertyOp9
 70
     1
102
RTVSPropertyOp10
 70
     1
102
RTVSPropertyOp11
 70
     1
102
RTVSPropertyOp12
 70
     1
102
RTVSPropertyOp13
 70
     1
102
RTVSPropertyOp14
 70
     1
102
RTVSPropertyOp15
 70
     1
102
RTVSPropertyOp16
 70
     1
102
RTVSPropertyOp17
 70
     1
102
RTVSPropertyOp18
 70
     1
102
RTVSPropertyOp19
 70
     1
102
RTVSPropertyOp20
 70
     1
102
RTVSPropertyOp21
 70
     1
102
RTVSPropertyOp22
 70
     1
102
RTVSPropertyOp23
 70
     1
102
RTVSPropertyOp24
 70
     1
102
RTVSPropertyOp25
 70
     1
102
RTVSPropertyOp26
 70
     1
102
RTVSPropertyOp27
 70
     1
102
RTVSPropertyOp28
 70
     1
102
RTVSPropertyOp29
 70
     1
102
RTVSPropertyOp30
 70
     1
102
RTVSPropertyOp31
 70
     1
102
RTVSPropertyOp32
 70
     1
  0
XRECORD
  5
394
102
{ACAD_REACTORS
330
393
102
}
330
393
100
AcDbXrecord
280
     1
102
RTVSPropertyOp0
 70
     1
102
RTVSPropertyOp1
 70
     1
102
RTVSPropertyOp2
 70
     1
102
RTVSPropertyOp3
 70
     1
102
RTVSPropertyOp4
 70
     1
102
RTVSPropertyOp5
 70
     1
102
RTVSPropertyOp6
 70
     1
102
RTVSPropertyOp7
 70
     1
102
RTVSPropertyOp8
 70
     1
102
RTVSPropertyOp9
 70
     1
102
RTVSPropertyOp10
 70
     1
102
RTVSPropertyOp11
 70
     1
102
RTVSPropertyOp12
 70
     1
102
RTVSPropertyOp13
 70
     1
102
RTVSPropertyOp14
 70
     1
102
RTVSPropertyOp15
 70
     1
102
RTVSPropertyOp16
 70
     1
102
RTVSPropertyOp17
 70
     1
102
RTVSPropertyOp18
 70
     1
102
RTVSPropertyOp19
 70
     1
102
RTVSPropertyOp20
 70
     1
102
RTVSPropertyOp21
 70
     1
102
RTVSPropertyOp22
 70
     1
102
RTVSPropertyOp23
 70
     1
102
RTVSPropertyOp24
 70
     1
102
RTVSPropertyOp25
 70
     1
102
RTVSPropertyOp26
 70
     1
102
RTVSPropertyOp27
 70
     1
102
RTVSPropertyOp28
 70
     1
102
RTVSPropertyOp29
 70
     1
102
RTVSPropertyOp30
 70
     1
102
RTVSPropertyOp31
 70
     1
102
RTVSPropertyOp32
 70
     1
  0
ENDSEC
  0
EOF
