  0
SECTION
  2
HEADER
  9
$ACADVER
  1
AC1015
  9
$ACADMAINTVER
 70
     6
  9
$DWGCODEPAGE
  3
ANSI_932
  9
$INSBASE
 10
0.0
 20
0.0
 30
0.0
  9
$EXTMIN
 10
6005.231778651874
 20
450.3227020337636
 30
0.0
  9
$EXTMAX
 10
6425.390103847187
 20
747.3545318677479
 30
0.0
  9
$LIMMIN
 10
0.0
 20
0.0
  9
$LIMMAX
 10
12.0
 20
9.0
  9
$ORTHOMODE
 70
     0
  9
$REGENMODE
 70
     1
  9
$FILLMODE
 70
     1
  9
$QTEXTMODE
 70
     0
  9
$MIRRTEXT
 70
     1
  9
$LTSCALE
 40
12.7
  9
$ATTMODE
 70
     1
  9
$TEXTSIZE
 40
0.2
  9
$TRACEWID
 40
1.0
  9
$TEXTSTYLE
  7
STANDARD
  9
$CLAYER
  8
一般
  9
$CELTYPE
  6
ByLayer
  9
$CECOLOR
 62
   256
  9
$CELTSCALE
 40
1.0
  9
$DISPSILH
 70
     0
  9
$DIMSCALE
 40
1.0
  9
$DIMASZ
 40
2.24482421875
  9
$DIMEXO
 40
1.5875
  9
$DIMDLI
 40
10.16
  9
$DIMRND
 40
0.0
  9
$DIMDLE
 40
1.5875
  9
$DIMEXE
 40
3.175
  9
$DIMTP
 40
0.0
  9
$DIMTM
 40
0.0
  9
$DIMTXT
 40
16.04134366925064
  9
$DIMCEN
 40
0.0
  9
$DIMTSZ
 40
0.0
  9
$DIMTOL
 70
     0
  9
$DIMLIM
 70
     0
  9
$DIMTIH
 70
     0
  9
$DIMTOH
 70
     0
  9
$DIMSE1
 70
     0
  9
$DIMSE2
 70
     0
  9
$DIMTAD
 70
     1
  9
$DIMZIN
 70
     8
  9
$DIMBLK
  1
VW_SLASH
  9
$DIMASO
 70
     1
  9
$DIMSHO
 70
     1
  9
$DIMPOST
  1
<>
  9
$DIMAPOST
  1
[]
  9
$DIMALT
 70
     0
  9
$DIMALTD
 70
     3
  9
$DIMALTF
 40
0.0393700787401575
  9
$DIMLFAC
 40
1.0
  9
$DIMTOFL
 70
     1
  9
$DIMTVP
 40
0.0
  9
$DIMTIX
 70
     1
  9
$DIMSOXD
 70
     0
  9
$DIMSAH
 70
     0
  9
$DIMBLK1
  1
VW_SLASH
  9
$DIMBLK2
  1
VW_SLASH
  9
$DIMSTYLE
  2
Arch
  9
$DIMCLRD
 70
     0
  9
$DIMCLRE
 70
     0
  9
$DIMCLRT
 70
     0
  9
$DIMTFAC
 40
1.0
  9
$DIMGAP
 40
1.5875
  9
$DIMJUST
 70
     0
  9
$DIMSD1
 70
     0
  9
$DIMSD2
 70
     0
  9
$DIMTOLJ
 70
     1
  9
$DIMTZIN
 70
     8
  9
$DIMALTZ
 70
     8
  9
$DIMALTTZ
 70
     8
  9
$DIMUPT
 70
     0
  9
$DIMDEC
 70
     0
  9
$DIMTDEC
 70
     0
  9
$DIMALTU
 70
     4
  9
$DIMALTTD
 70
     2
  9
$DIMTXSTY
  7
Osaka
  9
$DIMAUNIT
 70
     0
  9
$DIMADEC
 70
     2
  9
$DIMALTRND
 40
0.0
  9
$DIMAZIN
 70
     0
  9
$DIMDSEP
 70
    46
  9
$DIMATFIT
 70
     0
  9
$DIMFRAC
 70
     2
  9
$DIMLDRBLK
  1
VW_FILLEDARROW
  9
$DIMLUNIT
 70
     2
  9
$DIMLWD
 70
    -2
  9
$DIMLWE
 70
    -2
  9
$DIMTMOVE
 70
     0
  9
$LUNITS
 70
     2
  9
$LUPREC
 70
     4
  9
$SKETCHINC
 40
0.1
  9
$FILLETRAD
 40
0.5
  9
$AUNITS
 70
     0
  9
$AUPREC
 70
     0
  9
$MENU
  1
.
  9
$ELEVATION
 40
0.0
  9
$PELEVATION
 40
0.0
  9
$THICKNESS
 40
0.0
  9
$LIMCHECK
 70
     0
  9
$CHAMFERA
 40
0.5
  9
$CHAMFERB
 40
0.5
  9
$CHAMFERC
 40
1.0
  9
$CHAMFERD
 40
0.0
  9
$SKPOLY
 70
     0
  9
$TDCREATE
 40
2456133.447060174
  9
$TDUCREATE
 40
2456133.072060174
  9
$TDUPDATE
 40
2456133.447071748
  9
$TDUUPDATE
 40
2456133.072071759
  9
$TDINDWG
 40
0.0000000116
  9
$TDUSRTIMER
 40
0.0000000116
  9
$USRTIMER
 70
     1
  9
$ANGBASE
 50
0.0
  9
$ANGDIR
 70
     0
  9
$PDMODE
 70
     1
  9
$PDSIZE
 40
-2.0
  9
$PLINEWID
 40
0.0
  9
$SPLFRAME
 70
     0
  9
$SPLINETYPE
 70
     6
  9
$SPLINESEGS
 70
     8
  9
$HANDSEED
  5
2CE
  9
$SURFTAB1
 70
     6
  9
$SURFTAB2
 70
     6
  9
$SURFTYPE
 70
     6
  9
$SURFU
 70
     6
  9
$SURFV
 70
     6
  9
$UCSBASE
  2

  9
$UCSNAME
  2

  9
$UCSORG
 10
0.0
 20
0.0
 30
0.0
  9
$UCSXDIR
 10
1.0
 20
0.0
 30
0.0
  9
$UCSYDIR
 10
0.0
 20
1.0
 30
0.0
  9
$UCSORTHOREF
  2

  9
$UCSORTHOVIEW
 70
     0
  9
$UCSORGTOP
 10
0.0
 20
0.0
 30
0.0
  9
$UCSORGBOTTOM
 10
0.0
 20
0.0
 30
0.0
  9
$UCSORGLEFT
 10
0.0
 20
0.0
 30
0.0
  9
$UCSORGRIGHT
 10
0.0
 20
0.0
 30
0.0
  9
$UCSORGFRONT
 10
0.0
 20
0.0
 30
0.0
  9
$UCSORGBACK
 10
0.0
 20
0.0
 30
0.0
  9
$PUCSBASE
  2

  9
$PUCSNAME
  2

  9
$PUCSORG
 10
0.0
 20
0.0
 30
0.0
  9
$PUCSXDIR
 10
1.0
 20
0.0
 30
0.0
  9
$PUCSYDIR
 10
0.0
 20
1.0
 30
0.0
  9
$PUCSORTHOREF
  2

  9
$PUCSORTHOVIEW
 70
     0
  9
$PUCSORGTOP
 10
0.0
 20
0.0
 30
0.0
  9
$PUCSORGBOTTOM
 10
0.0
 20
0.0
 30
0.0
  9
$PUCSORGLEFT
 10
0.0
 20
0.0
 30
0.0
  9
$PUCSORGRIGHT
 10
0.0
 20
0.0
 30
0.0
  9
$PUCSORGFRONT
 10
0.0
 20
0.0
 30
0.0
  9
$PUCSORGBACK
 10
0.0
 20
0.0
 30
0.0
  9
$USERI1
 70
     0
  9
$USERI2
 70
     0
  9
$USERI3
 70
     0
  9
$USERI4
 70
     0
  9
$USERI5
 70
     0
  9
$USERR1
 40
0.0
  9
$USERR2
 40
0.0
  9
$USERR3
 40
0.0
  9
$USERR4
 40
0.0
  9
$USERR5
 40
0.0
  9
$WORLDVIEW
 70
     1
  9
$SHADEDGE
 70
     3
  9
$SHADEDIF
 70
    70
  9
$TILEMODE
 70
     0
  9
$MAXACTVP
 70
    64
  9
$PINSBASE
 10
0.0
 20
0.0
 30
0.0
  9
$PLIMCHECK
 70
     0
  9
$PEXTMIN
 10
-185.1884014027016
 20
-139.8933839021333
 30
0.0
  9
$PEXTMAX
 10
200.8115985972983
 20
140.1066160978667
 30
0.0
  9
$PLIMMIN
 10
-220.583120727539
 20
-155.9417106628417
  9
$PLIMMAX
 10
220.583120727539
 20
155.9417106628417
  9
$UNITMODE
 70
     0
  9
$VISRETAIN
 70
     1
  9
$PLINEGEN
 70
     0
  9
$PSLTSCALE
 70
     1
  9
$TREEDEPTH
 70
  3020
  9
$CMLSTYLE
  2
Standard
  9
$CMLJUST
 70
     0
  9
$CMLSCALE
 40
1.0
  9
$PROXYGRAPHICS
 70
     1
  9
$MEASUREMENT
 70
     1
  9
$CELWEIGHT
370
    -1
  9
$ENDCAPS
280
     0
  9
$JOINSTYLE
280
     0
  9
$LWDISPLAY
290
     1
  9
$INSUNITS
 70
     4
  9
$HYPERLINKBASE
  1

  9
$STYLESHEET
  1

  9
$XEDIT
290
     1
  9
$CEPSNTYPE
380
     0
  9
$PSTYLEMODE
290
     1
  9
$FINGERPRINTGUID
  2
{5F2B0823-385F-A6C2-B538-3EE29CCCAD58}
  9
$VERSIONGUID
  2
{FAEB1C32-E019-11D5-929B-00C0DF256EC4}
  9
$EXTNAMES
290
     1
  9
$PSVPSCALE
 40
0.0
  9
$OLESTARTUP
290
     0
  0
ENDSEC
  0
SECTION
  2
CLASSES
  0
CLASS
  1
ACDBDICTIONARYWDFLT
  2
AcDbDictionaryWithDefault
  3
ObjectDBX Classes
 90
        0
280
     0
281
     0
  0
CLASS
  1
VISUALSTYLE
  2
AcDbVisualStyle
  3
ObjectDBX Classes
 90
     4095
280
     0
281
     0
  0
CLASS
  1
MATERIAL
  2
AcDbMaterial
  3
ObjectDBX Classes
 90
     1153
280
     0
281
     0
  0
CLASS
  1
WIPEOUTVARIABLES
  2
AcDbWipeoutVariables
  3
WipeOut|AutoCAD Express Tool|expresstools@autodesk.com
 90
        0
280
     0
281
     0
  0
CLASS
  1
DICTIONARYVAR
  2
AcDbDictionaryVar
  3
ObjectDBX Classes
 90
        0
280
     0
281
     0
  0
CLASS
  1
SCALE
  2
AcDbScale
  3
ObjectDBX Classes
 90
     1153
280
     0
281
     0
  0
CLASS
  1
ACDBPLACEHOLDER
  2
AcDbPlaceHolder
  3
ObjectDBX Classes
 90
        0
280
     0
281
     0
  0
CLASS
  1
LAYOUT
  2
AcDbLayout
  3
ObjectDBX Classes
 90
        0
280
     0
281
     0
  0
ENDSEC
  0
SECTION
  2
TABLES
  0
TABLE
  2
VPORT
  5
8
330
0
100
AcDbSymbolTable
 70
     1
  0
VPORT
  5
29
330
8
100
AcDbSymbolTableRecord
100
AcDbViewportTableRecord
  2
*Active
 70
     0
 10
0.0
 20
0.0
 11
1.0
 21
1.0
 12
6215.310941249531
 22
598.8386169507557
 13
0.0
 23
0.0
 14
0.5
 24
0.5
 15
0.5
 25
0.5
 16
0.0
 26
0.0
 36
1.0
 17
0.0
 27
0.0
 37
0.0
 40
297.0318298339843
 41
0.0597806530215212
 42
2000.0
 43
0.0
 44
0.0
 50
0.0
 51
0.0
 71
     0
 72
   100
 73
     1
 74
     3
 75
     0
 76
     0
 77
     0
 78
     0
281
     0
 65
     1
110
0.0
120
0.0
130
0.0
111
1.0
121
0.0
131
0.0
112
0.0
122
1.0
132
0.0
 79
     0
146
0.0
  0
ENDTAB
  0
TABLE
  2
LTYPE
  5
5
330
0
100
AcDbSymbolTable
 70
    19
  0
LTYPE
  5
14
330
5
100
AcDbSymbolTableRecord
100
AcDbLinetypeTableRecord
  2
ByBlock
 70
     0
  3

 72
    65
 73
     0
 40
0.0
  0
LTYPE
  5
15
330
5
100
AcDbSymbolTableRecord
100
AcDbLinetypeTableRecord
  2
ByLayer
 70
     0
  3

 72
    65
 73
     0
 40
0.0
  0
LTYPE
  5
16
330
5
100
AcDbSymbolTableRecord
100
AcDbLinetypeTableRecord
  2
Continuous
 70
     0
  3
Solid line
 72
    65
 73
     0
 40
0.0
  0
LTYPE
  5
4C
330
5
100
AcDbSymbolTableRecord
100
AcDbLinetypeTableRecord
  2
ISO-02 破線
 70
     0
  3

 72
    65
 73
     2
 40
0.24
 49
0.24
 74
     0
 49
-0.06
 74
     0
  0
LTYPE
  5
4D
330
5
100
AcDbSymbolTableRecord
100
AcDbLinetypeTableRecord
  2
ISO-03 跳び破線
 70
     0
  3

 72
    65
 73
     2
 40
0.24
 49
0.24
 74
     0
 49
-0.36
 74
     0
  0
LTYPE
  5
4E
330
5
100
AcDbSymbolTableRecord
100
AcDbLinetypeTableRecord
  2
ISO-04 一点長鎖線
 70
     0
  3

 72
    65
 73
     4
 40
0.48
 49
0.48
 74
     0
 49
-0.0600000000000001
 74
     0
 49
0.01
 74
     0
 49
-0.0600000000000001
 74
     0
  0
LTYPE
  5
4F
330
5
100
AcDbSymbolTableRecord
100
AcDbLinetypeTableRecord
  2
ISO-05 二点長鎖線
 70
     0
  3

 72
    65
 73
     6
 40
0.48
 49
0.48
 74
     0
 49
-0.0600000000000001
 74
     0
 49
0.01
 74
     0
 49
-0.0600000000000001
 74
     0
 49
0.01
 74
     0
 49
-0.0600000000000001
 74
     0
  0
LTYPE
  5
50
330
5
100
AcDbSymbolTableRecord
100
AcDbLinetypeTableRecord
  2
ISO-06 三点長鎖線
 70
     0
  3

 72
    65
 73
     8
 40
0.48
 49
0.48
 74
     0
 49
-0.0600000000000001
 74
     0
 49
0.01
 74
     0
 49
-0.0600000000000001
 74
     0
 49
0.01
 74
     0
 49
-0.0600000000000001
 74
     0
 49
0.01
 74
     0
 49
-0.0600000000000001
 74
     0
  0
LTYPE
  5
51
330
5
100
AcDbSymbolTableRecord
100
AcDbLinetypeTableRecord
  2
ISO-07 点線
 70
     0
  3

 72
    65
 73
     2
 40
0.01
 49
0.01
 74
     0
 49
-0.06
 74
     0
  0
LTYPE
  5
52
330
5
100
AcDbSymbolTableRecord
100
AcDbLinetypeTableRecord
  2
ISO-08 一点鎖線
 70
     0
  3

 72
    65
 73
     4
 40
0.48
 49
0.48
 74
     0
 49
-0.0600000000000001
 74
     0
 49
0.12
 74
     0
 49
-0.0599999999999999
 74
     0
  0
LTYPE
  5
53
330
5
100
AcDbSymbolTableRecord
100
AcDbLinetypeTableRecord
  2
ISO-09 二点鎖線
 70
     0
  3

 72
    65
 73
     6
 40
0.48
 49
0.48
 74
     0
 49
-0.0600000000000001
 74
     0
 49
0.12
 74
     0
 49
-0.0599999999999999
 74
     0
 49
0.12
 74
     0
 49
-0.0599999999999999
 74
     0
  0
LTYPE
  5
54
330
5
100
AcDbSymbolTableRecord
100
AcDbLinetypeTableRecord
  2
ISO-10 一点短鎖線
 70
     0
  3

 72
    65
 73
     4
 40
0.24
 49
0.24
 74
     0
 49
-0.06
 74
     0
 49
0.01
 74
     0
 49
-0.06
 74
     0
  0
LTYPE
  5
55
330
5
100
AcDbSymbolTableRecord
100
AcDbLinetypeTableRecord
  2
ISO-11 一点二短鎖線
 70
     0
  3

 72
    65
 73
     6
 40
0.24
 49
0.24
 74
     0
 49
-0.06
 74
     0
 49
0.24
 74
     0
 49
-0.0600000000000001
 74
     0
 49
0.01
 74
     0
 49
-0.0600000000000001
 74
     0
  0
LTYPE
  5
56
330
5
100
AcDbSymbolTableRecord
100
AcDbLinetypeTableRecord
  2
ISO-12 二点短鎖線
 70
     0
  3

 72
    65
 73
     6
 40
0.24
 49
0.24
 74
     0
 49
-0.06
 74
     0
 49
0.01
 74
     0
 49
-0.06
 74
     0
 49
0.01
 74
     0
 49
-0.06
 74
     0
  0
LTYPE
  5
57
330
5
100
AcDbSymbolTableRecord
100
AcDbLinetypeTableRecord
  2
ISO-13 二点二短鎖線
 70
     0
  3

 72
    65
 73
     8
 40
0.24
 49
0.24
 74
     0
 49
-0.06
 74
     0
 49
0.24
 74
     0
 49
-0.0600000000000001
 74
     0
 49
0.01
 74
     0
 49
-0.0600000000000001
 74
     0
 49
0.01
 74
     0
 49
-0.0600000000000001
 74
     0
  0
LTYPE
  5
58
330
5
100
AcDbSymbolTableRecord
100
AcDbLinetypeTableRecord
  2
ISO-14 三点短鎖線
 70
     0
  3

 72
    65
 73
     8
 40
0.24
 49
0.24
 74
     0
 49
-0.06
 74
     0
 49
0.01
 74
     0
 49
-0.06
 74
     0
 49
0.01
 74
     0
 49
-0.06
 74
     0
 49
0.01
 74
     0
 49
-0.06
 74
     0
  0
LTYPE
  5
59
330
5
100
AcDbSymbolTableRecord
100
AcDbLinetypeTableRecord
  2
ISO-15 三点二短鎖線
 70
     0
  3

 72
    65
 73
    10
 40
0.24
 49
0.24
 74
     0
 49
-0.06
 74
     0
 49
0.24
 74
     0
 49
-0.0600000000000001
 74
     0
 49
0.01
 74
     0
 49
-0.0600000000000001
 74
     0
 49
0.01
 74
     0
 49
-0.0600000000000001
 74
     0
 49
0.01
 74
     0
 49
-0.0600000000000001
 74
     0
  0
LTYPE
  5
5A
330
5
100
AcDbSymbolTableRecord
100
AcDbLinetypeTableRecord
  2
VW-01 短破線
 70
     0
  3

 72
    65
 73
     2
 40
0.083312
 49
0.083312
 74
     0
 49
-0.083312
 74
     0
  0
LTYPE
  5
5B
330
5
100
AcDbSymbolTableRecord
100
AcDbLinetypeTableRecord
  2
VW-02 中破線
 70
     0
  3

 72
    65
 73
     2
 40
0.194428
 49
0.194428
 74
     0
 49
-0.083312
 74
     0
  0
LTYPE
  5
5C
330
5
100
AcDbSymbolTableRecord
100
AcDbLinetypeTableRecord
  2
HIDDEN
 70
     0
  3

 72
    65
 73
     2
 40
2.0
 49
2.0
 74
     0
 49
-1.0
 74
     0
  0
LTYPE
  5
5D
330
5
100
AcDbSymbolTableRecord
100
AcDbLinetypeTableRecord
  2
CENTER
 70
     0
  3

 72
    65
 73
     2
 40
8.0
 49
8.0
 74
     0
 49
-0.0001999999999995
 74
     0
  0
ENDTAB
  0
TABLE
  2
LAYER
  5
2
330
0
100
AcDbSymbolTable
 70
    12
  0
LAYER
  5
10
330
2
100
AcDbSymbolTableRecord
100
AcDbLayerTableRecord
  2
0
 70
     0
 62
     7
  6
Continuous
370
    15
390
F
1001
AcCmTransparency
1071
 33554687
  0
LAYER
  5
5E
330
2
100
AcDbSymbolTableRecord
100
AcDbLayerTableRecord
  2
一般
 70
     0
 62
     7
  6
Continuous
370
     9
390
F
1001
AcCmTransparency
1071
 33554687
  0
LAYER
  5
60
330
2
100
AcDbSymbolTableRecord
100
AcDbLayerTableRecord
  2
寸法
 70
     0
 62
     7
  6
Continuous
370
     9
390
F
1001
AcCmTransparency
1071
 33554687
  0
LAYER
  5
61
330
2
100
AcDbSymbolTableRecord
100
AcDbLayerTableRecord
  2
Defpoints
 70
     0
 62
     7
  6
Continuous
290
     0
370
    15
390
F
1001
AcCmTransparency
1071
 33554687
  0
LAYER
  5
62
330
2
100
AcDbSymbolTableRecord
100
AcDbLayerTableRecord
  2
ﾀｲﾄﾙ枠
 70
     0
 62
     5
  6
Continuous
370
    15
390
F
1001
AcCmTransparency
1071
 33554687
  0
LAYER
  5
63
330
2
100
AcDbSymbolTableRecord
100
AcDbLayerTableRecord
  2
SUNPO
 70
     0
 62
     3
  6
Continuous
370
    15
390
F
1001
AcCmTransparency
1071
 33554687
  0
LAYER
  5
64
330
2
100
AcDbSymbolTableRecord
100
AcDbLayerTableRecord
  2
sen-c
 70
     0
 62
     8
  6
CENTER
370
    15
390
F
1001
AcCmTransparency
1071
 33554687
  0
LAYER
  5
65
330
2
100
AcDbSymbolTableRecord
100
AcDbLayerTableRecord
  2
sen-h
 70
     0
 62
     6
  6
HIDDEN
370
    15
390
F
1001
AcCmTransparency
1071
 33554687
  0
LAYER
  5
66
330
2
100
AcDbSymbolTableRecord
100
AcDbLayerTableRecord
  2
sen2
 70
     0
 62
     2
  6
Continuous
370
    15
390
F
1001
AcCmTransparency
1071
 33554687
  0
LAYER
  5
67
330
2
100
AcDbSymbolTableRecord
100
AcDbLayerTableRecord
  2
rev
 70
     0
 62
     2
  6
Continuous
370
    15
390
F
1001
AcCmTransparency
1071
 33554687
  0
LAYER
  5
68
330
2
100
AcDbSymbolTableRecord
100
AcDbLayerTableRecord
  2
revﾍﾟｰﾊﾟｰ
 70
     0
 62
     2
  6
Continuous
370
    15
390
F
1001
AcCmTransparency
1071
 33554687
  0
LAYER
  5
69
330
2
100
AcDbSymbolTableRecord
100
AcDbLayerTableRecord
  2
_Viewport_Crop
 70
     0
 62
    -7
  6
Continuous
370
    -3
390
F
  0
ENDTAB
  0
TABLE
  2
STYLE
  5
3
330
0
100
AcDbSymbolTable
 70
     3
  0
STYLE
  5
11
330
3
100
AcDbSymbolTableRecord
100
AcDbTextStyleTableRecord
  2
STANDARD
 70
     0
 40
0.0
 41
1.0
 50
0.0
 71
     0
 42
0.2
  3
txt
  4
BIGFONT.SHX
  0
STYLE
  5
4A
330
3
100
AcDbSymbolTableRecord
100
AcDbTextStyleTableRecord
  2
MS PMincho
 70
     0
 40
0.0
 41
1.0
 50
0.0
 71
     0
 42
0.0
  3
MS PMincho
  4

1001
ACAD
1000
MS PMincho
1071
        0
  0
STYLE
  5
4B
330
3
100
AcDbSymbolTableRecord
100
AcDbTextStyleTableRecord
  2
Osaka
 70
     0
 40
0.0
 41
1.0
 50
0.0
 71
     0
 42
0.0
  3

  4
Osaka
1001
ACAD
1000
Osaka
1071
        0
  0
ENDTAB
  0
TABLE
  2
VIEW
  5
6
330
0
100
AcDbSymbolTable
 70
     0
  0
ENDTAB
  0
TABLE
  2
UCS
  5
7
330
0
100
AcDbSymbolTable
 70
     0
  0
ENDTAB
  0
TABLE
  2
APPID
  5
9
330
0
100
AcDbSymbolTable
 70
     2
  0
APPID
  5
12
330
9
100
AcDbSymbolTableRecord
100
AcDbRegAppTableRecord
  2
ACAD
 70
     0
  0
APPID
  5
5F
330
9
100
AcDbSymbolTableRecord
100
AcDbRegAppTableRecord
  2
AcCmTransparency
 70
     0
  0
ENDTAB
  0
TABLE
  2
DIMSTYLE
  5
A
330
0
100
AcDbSymbolTable
 70
     3
100
AcDbDimStyleTable
  0
DIMSTYLE
105
27
330
A
100
AcDbSymbolTableRecord
100
AcDbDimStyleTableRecord
  2
Standard
 70
     0
178
     0
340
11
  0
DIMSTYLE
105
6A
102
{ACAD_REACTORS
330
15D
330
15E
330
15F
102
}
330
A
100
AcDbSymbolTableRecord
100
AcDbDimStyleTableRecord
  2
MSP明朝寸法4
 70
     0
  3
<>
  4
[]
 41
2.99981689453125
 42
0.0625
 43
0.5499999999999999
 44
0.0625
 73
     0
 74
     0
 77
     1
 78
     8
140
16.04134366925064
141
0.0
143
0.0393700787401575
147
0.0625
171
     3
172
     1
174
     1
178
     0
179
     2
271
     0
272
     0
273
     4
276
     2
284
     8
285
     8
286
     8
289
     0
340
4B
341
74
342
6B
343
6B
344
6B
  0
DIMSTYLE
105
7D
330
A
100
AcDbSymbolTableRecord
100
AcDbDimStyleTableRecord
  2
Arch
 70
     0
  3
<>
  4
[]
 41
2.24482421875
 42
1.5875
 43
10.16
 44
3.175
 46
1.5875
 73
     0
 74
     0
 77
     1
 78
     8
140
16.04134366925064
141
0.0
143
0.0393700787401575
147
1.5875
171
     3
172
     1
174
     1
178
     0
179
     2
271
     0
272
     0
273
     4
276
     2
284
     8
285
     8
286
     8
289
     0
340
4B
341
86
342
7E
343
7E
344
7E
  0
ENDTAB
  0
TABLE
  2
BLOCK_RECORD
  5
1
330
0
100
AcDbSymbolTable
 70
     8
  0
BLOCK_RECORD
  5
1F
330
1
100
AcDbSymbolTableRecord
100
AcDbBlockTableRecord
  2
*Model_Space
340
22
  0
BLOCK_RECORD
  5
1B
330
1
100
AcDbSymbolTableRecord
100
AcDbBlockTableRecord
  2
*Paper_Space
340
1E
  0
BLOCK_RECORD
  5
3F
330
1
100
AcDbSymbolTableRecord
100
AcDbBlockTableRecord
  2
*D1
340
0
  0
BLOCK_RECORD
  5
42
330
1
100
AcDbSymbolTableRecord
100
AcDbBlockTableRecord
  2
*D2
340
0
  0
BLOCK_RECORD
  5
45
330
1
100
AcDbSymbolTableRecord
100
AcDbBlockTableRecord
  2
*D3
340
0
  0
BLOCK_RECORD
  5
6B
330
1
100
AcDbSymbolTableRecord
100
AcDbBlockTableRecord
  2
VW_EMPTYARROW
340
0
102
{BLKREFS
331
97
331
92
331
A8
331
A3
331
B9
331
B4
102
}
  0
BLOCK_RECORD
  5
74
330
1
100
AcDbSymbolTableRecord
100
AcDbBlockTableRecord
  2
VW_EMPTYARROW-1
340
0
  0
BLOCK_RECORD
  5
7E
330
1
100
AcDbSymbolTableRecord
100
AcDbBlockTableRecord
  2
VW_SLASH
340
0
  0
BLOCK_RECORD
  5
86
330
1
100
AcDbSymbolTableRecord
100
AcDbBlockTableRecord
  2
VW_FILLEDARROW
340
0
  0
ENDTAB
  0
ENDSEC
  0
SECTION
  2
BLOCKS
  0
BLOCK
  5
20
330
1F
100
AcDbEntity
  8
0
100
AcDbBlockBegin
  2
*Model_Space
 70
     0
 10
0.0
 20
0.0
 30
0.0
  3
*Model_Space
  1

  0
ENDBLK
  5
21
330
1F
100
AcDbEntity
  8
0
100
AcDbBlockEnd
  0
BLOCK
  5
1C
330
1B
100
AcDbEntity
 67
     1
  8
0
100
AcDbBlockBegin
  2
*Paper_Space
 70
     0
 10
0.0
 20
0.0
 30
0.0
  3
*Paper_Space
  1

  0
ENDBLK
  5
1D
330
1B
100
AcDbEntity
 67
     1
  8
0
100
AcDbBlockEnd
  0
BLOCK
  5
40
330
3F
100
AcDbEntity
  8
0
100
AcDbBlockBegin
  2
*D1
 70
     1
 10
0.0
 20
0.0
 30
0.0
  3
*D1
  1

  0
LINE
  5
8F
330
3F
100
AcDbEntity
  8
寸法
  6
Continuous
 62
     0
370
    -2
100
AcDbLine
 10
6409.698871854486
 20
995.9432440616997
 30
0.0
 11
6409.698871854486
 21
1072.062499999999
 31
0.0
  0
LINE
  5
90
330
3F
100
AcDbEntity
  8
寸法
  6
Continuous
 62
     0
370
    -2
100
AcDbLine
 10
5659.698871854486
 20
995.9432440616988
 30
0.0
 11
5659.698871854486
 21
1072.062499999999
 31
0.0
  0
LINE
  5
91
330
3F
100
AcDbEntity
  8
寸法
  6
Continuous
 62
     0
370
    -2
100
AcDbLine
 10
6394.69978738183
 20
1071.999999999999
 30
0.0
 11
5674.697956327142
 21
1071.999999999999
 31
0.0
  0
INSERT
  5
92
330
3F
100
AcDbEntity
  8
寸法
 62
     0
370
    -2
100
AcDbBlockReference
  2
VW_EMPTYARROW
 10
6409.698871854486
 20
1071.999999999999
 30
0.0
 41
14.99908447265625
 42
14.99908447265625
 43
14.99908447265625
  0
INSERT
  5
97
330
3F
100
AcDbEntity
  8
寸法
 62
     0
370
    -2
100
AcDbBlockReference
  2
VW_EMPTYARROW
 10
5659.698871854486
 20
1071.999999999999
 30
0.0
 41
14.99908447265625
 42
14.99908447265625
 43
14.99908447265625
 50
180.0
  0
MTEXT
  5
9C
330
3F
100
AcDbEntity
  8
寸法
 62
     0
370
     9
100
AcDbMText
 10
6034.698871854486
 20
1080.333171834624
 30
0.0
 40
16.04134366925064
 41
0.0
 71
     5
 72
     1
  1
\A1;750
  7
Osaka
 73
     1
 44
1.0
  0
POINT
  5
9D
330
3F
100
AcDbEntity
  8
Defpoints
 62
     0
100
AcDbPoint
 10
6409.698871854486
 20
995.8807440616997
 30
0.0
  0
POINT
  5
9E
330
3F
100
AcDbEntity
  8
Defpoints
 62
     0
100
AcDbPoint
 10
5659.698871854486
 20
995.8807440616988
 30
0.0
  0
POINT
  5
9F
330
3F
100
AcDbEntity
  8
Defpoints
 62
     0
100
AcDbPoint
 10
5659.698871854486
 20
1071.999999999999
 30
0.0
  0
ENDBLK
  5
41
330
3F
100
AcDbEntity
  8
0
100
AcDbBlockEnd
  0
BLOCK
  5
43
330
42
100
AcDbEntity
  8
0
100
AcDbBlockBegin
  2
*D2
 70
     1
 10
0.0
 20
0.0
 30
0.0
  3
*D2
  1

  0
LINE
  5
A0
330
42
100
AcDbEntity
  8
寸法
  6
Continuous
 62
     0
370
    -2
100
AcDbLine
 10
6404.261371854486
 20
500.3807440616996
 30
0.0
 11
6496.0625
 21
500.3807440616995
 31
0.0
  0
LINE
  5
A1
330
42
100
AcDbEntity
  8
寸法
  6
Continuous
 62
     0
370
    -2
100
AcDbLine
 10
6405.261371854486
 20
1000.3807440617
 30
0.0
 11
6496.0625
 21
1000.3807440617
 31
0.0
  0
LINE
  5
A2
330
42
100
AcDbEntity
  8
寸法
  6
Continuous
 62
     0
370
    -2
100
AcDbLine
 10
6496.0
 20
515.3798285343557
 30
0.0
 11
6496.0
 21
985.3816595890435
 31
0.0
  0
INSERT
  5
A3
330
42
100
AcDbEntity
  8
寸法
 62
     0
370
    -2
100
AcDbBlockReference
  2
VW_EMPTYARROW
 10
6496.0
 20
500.3807440616995
 30
0.0
 41
14.99908447265625
 42
14.99908447265625
 43
14.99908447265625
 50
270.0
  0
INSERT
  5
A8
330
42
100
AcDbEntity
  8
寸法
 62
     0
370
    -2
100
AcDbBlockReference
  2
VW_EMPTYARROW
 10
6496.0
 20
1000.3807440617
 30
0.0
 41
14.99908447265625
 42
14.99908447265625
 43
14.99908447265625
 50
90.0
  0
MTEXT
  5
AD
330
42
100
AcDbEntity
  8
寸法
 62
     0
370
     9
100
AcDbMText
 10
6487.666828165375
 20
750.3807440616996
 30
0.0
 40
16.04134366925064
 41
0.0
 71
     5
 72
     1
  1
\A1;500
  7
Osaka
 11
0.0
 21
1.0
 31
0.0
 73
     1
 44
1.0
  0
POINT
  5
AE
330
42
100
AcDbEntity
  8
Defpoints
 62
     0
100
AcDbPoint
 10
6404.198871854486
 20
500.3807440616996
 30
0.0
  0
POINT
  5
AF
330
42
100
AcDbEntity
  8
Defpoints
 62
     0
100
AcDbPoint
 10
6405.198871854486
 20
1000.3807440617
 30
0.0
  0
POINT
  5
B0
330
42
100
AcDbEntity
  8
Defpoints
 62
     0
100
AcDbPoint
 10
6496.0
 20
1000.3807440617
 30
0.0
  0
ENDBLK
  5
44
330
42
100
AcDbEntity
  8
0
100
AcDbBlockEnd
  0
BLOCK
  5
46
330
45
100
AcDbEntity
  8
0
100
AcDbBlockBegin
  2
*D3
 70
     1
 10
0.0
 20
0.0
 30
0.0
  3
*D3
  1

  0
LINE
  5
B1
330
45
100
AcDbEntity
  8
寸法
  6
Continuous
 62
     0
370
    -2
100
AcDbLine
 10
6289.698871854486
 20
542.3182440616997
 30
0.0
 11
6289.698871854486
 21
435.9375
 31
0.0
  0
LINE
  5
B2
330
45
100
AcDbEntity
  8
寸法
  6
Continuous
 62
     0
370
    -2
100
AcDbLine
 10
5709.698871854486
 20
542.3182440616997
 30
0.0
 11
5709.698871854486
 21
435.9375
 31
0.0
  0
LINE
  5
B3
330
45
100
AcDbEntity
  8
寸法
  6
Continuous
 62
     0
370
    -2
100
AcDbLine
 10
6274.69978738183
 20
436.0
 30
0.0
 11
5724.697956327142
 21
436.0
 31
0.0
  0
INSERT
  5
B4
330
45
100
AcDbEntity
  8
寸法
 62
     0
370
    -2
100
AcDbBlockReference
  2
VW_EMPTYARROW
 10
6289.698871854486
 20
436.0
 30
0.0
 41
14.99908447265625
 42
14.99908447265625
 43
14.99908447265625
  0
INSERT
  5
B9
330
45
100
AcDbEntity
  8
寸法
 62
     0
370
    -2
100
AcDbBlockReference
  2
VW_EMPTYARROW
 10
5709.698871854486
 20
436.0
 30
0.0
 41
14.99908447265625
 42
14.99908447265625
 43
14.99908447265625
 50
180.0
  0
MTEXT
  5
BE
330
45
100
AcDbEntity
  8
寸法
 62
     0
370
     9
100
AcDbMText
 10
5999.698871854486
 20
444.3331718346253
 30
0.0
 40
16.04134366925064
 41
0.0
 71
     5
 72
     1
  1
\A1;580
  7
Osaka
 73
     1
 44
1.0
  0
POINT
  5
BF
330
45
100
AcDbEntity
  8
Defpoints
 62
     0
100
AcDbPoint
 10
6289.698871854486
 20
542.3807440616997
 30
0.0
  0
POINT
  5
C0
330
45
100
AcDbEntity
  8
Defpoints
 62
     0
100
AcDbPoint
 10
5709.698871854486
 20
542.3807440616997
 30
0.0
  0
POINT
  5
C1
330
45
100
AcDbEntity
  8
Defpoints
 62
     0
100
AcDbPoint
 10
5709.698871854486
 20
436.0
 30
0.0
  0
ENDBLK
  5
47
330
45
100
AcDbEntity
  8
0
100
AcDbBlockEnd
  0
BLOCK
  5
6C
330
6B
100
AcDbEntity
  8
0
100
AcDbBlockBegin
  2
VW_EMPTYARROW
 70
     0
 10
0.0
 20
0.0
 30
0.0
  3
VW_EMPTYARROW
  1

  0
LINE
  5
6E
330
6B
100
AcDbEntity
  8
0
  6
ByBlock
 62
     0
370
    -2
100
AcDbLine
 10
0.0
 20
0.0
 30
0.0
 11
-1.0
 21
0.0
 31
0.0
  0
POLYLINE
  5
6F
330
6B
100
AcDbEntity
  8
0
  6
Continuous
 62
     0
370
    20
100
AcDb2dPolyline
 66
     1
 10
0.0
 20
0.0
 30
0.0
 70
   128
  0
VERTEX
  5
70
330
6F
100
AcDbEntity
  8
0
  6
Continuous
 62
     0
370
    20
100
AcDbVertex
100
AcDb2dVertex
 10
-0.9999389648437499
 20
0.2679328381102956
 30
0.0
  0
VERTEX
  5
71
330
6F
100
AcDbEntity
  8
0
  6
Continuous
 62
     0
370
    20
100
AcDbVertex
100
AcDb2dVertex
 10
0.0
 20
0.0
 30
0.0
  0
VERTEX
  5
72
330
6F
100
AcDbEntity
  8
0
  6
Continuous
 62
     0
370
    20
100
AcDbVertex
100
AcDb2dVertex
 10
-0.9999389648437498
 20
-0.2679328381102958
 30
0.0
  0
SEQEND
  5
73
330
6F
100
AcDbEntity
  8
0
  6
Continuous
 62
     0
370
    20
  0
ENDBLK
  5
6D
330
6B
100
AcDbEntity
  8
0
100
AcDbBlockEnd
  0
BLOCK
  5
75
330
74
100
AcDbEntity
  8
0
100
AcDbBlockBegin
  2
VW_EMPTYARROW-1
 70
     0
 10
0.0
 20
0.0
 30
0.0
  3
VW_EMPTYARROW-1
  1

  0
LINE
  5
77
330
74
100
AcDbEntity
  8
0
  6
ByBlock
 62
     0
370
    -2
100
AcDbLine
 10
0.0
 20
0.0
 30
0.0
 11
-1.0
 21
0.0
 31
0.0
  0
POLYLINE
  5
78
330
74
100
AcDbEntity
  8
0
  6
Continuous
 62
     0
370
    20
100
AcDb2dPolyline
 66
     1
 10
0.0
 20
0.0
 30
0.0
 70
   128
  0
VERTEX
  5
79
330
78
100
AcDbEntity
  8
0
  6
Continuous
 62
     0
370
    20
100
AcDbVertex
100
AcDb2dVertex
 10
-0.30540771484375
 20
0.0818337505546174
 30
0.0
  0
VERTEX
  5
7A
330
78
100
AcDbEntity
  8
0
  6
Continuous
 62
     0
370
    20
100
AcDbVertex
100
AcDb2dVertex
 10
0.0
 20
0.0
 30
0.0
  0
VERTEX
  5
7B
330
78
100
AcDbEntity
  8
0
  6
Continuous
 62
     0
370
    20
100
AcDbVertex
100
AcDb2dVertex
 10
-0.3054077148437499
 20
-0.0818337505546175
 30
0.0
  0
SEQEND
  5
7C
330
78
100
AcDbEntity
  8
0
  6
Continuous
 62
     0
370
    20
  0
ENDBLK
  5
76
330
74
100
AcDbEntity
  8
0
100
AcDbBlockEnd
  0
BLOCK
  5
7F
330
7E
100
AcDbEntity
  8
0
100
AcDbBlockBegin
  2
VW_SLASH
 70
     0
 10
0.0
 20
0.0
 30
0.0
  3
VW_SLASH
  1

  0
LINE
  5
81
330
7E
100
AcDbEntity
  8
0
  6
ByBlock
 62
     0
370
    -2
100
AcDbLine
 10
0.0
 20
0.0
 30
0.0
 11
-1.0
 21
0.0
 31
0.0
  0
POLYLINE
  5
82
330
7E
100
AcDbEntity
  8
0
  6
Continuous
 62
     0
370
    20
100
AcDb2dPolyline
 66
     1
 10
0.0
 20
0.0
 30
0.0
 70
   128
  0
VERTEX
  5
83
330
82
100
AcDbEntity
  8
0
  6
Continuous
 62
     0
370
    20
100
AcDbVertex
100
AcDb2dVertex
 10
0.4998775379892009
 20
0.4998775379892009
 30
0.0
  0
VERTEX
  5
84
330
82
100
AcDbEntity
  8
0
  6
Continuous
 62
     0
370
    20
100
AcDbVertex
100
AcDb2dVertex
 10
-0.4998775379892009
 20
-0.4998775379892009
 30
0.0
  0
SEQEND
  5
85
330
82
100
AcDbEntity
  8
0
  6
Continuous
 62
     0
370
    20
  0
ENDBLK
  5
80
330
7E
100
AcDbEntity
  8
0
100
AcDbBlockEnd
  0
BLOCK
  5
87
330
86
100
AcDbEntity
  8
0
100
AcDbBlockBegin
  2
VW_FILLEDARROW
 70
     0
 10
0.0
 20
0.0
 30
0.0
  3
VW_FILLEDARROW
  1

  0
POLYLINE
  5
89
102
{ACAD_REACTORS
330
8E
102
}
330
86
100
AcDbEntity
  8
0
  6
Continuous
 62
     0
370
     5
100
AcDb2dPolyline
 66
     1
 10
0.0
 20
0.0
 30
0.0
 70
   129
  0
VERTEX
  5
8A
330
89
100
AcDbEntity
  8
0
  6
Continuous
 62
     0
370
     5
100
AcDbVertex
100
AcDb2dVertex
 10
-1.4138671875
 20
0.3788445710954878
 30
0.0
  0
VERTEX
  5
8B
330
89
100
AcDbEntity
  8
0
  6
Continuous
 62
     0
370
     5
100
AcDbVertex
100
AcDb2dVertex
 10
0.0
 20
0.0
 30
0.0
  0
VERTEX
  5
8C
330
89
100
AcDbEntity
  8
0
  6
Continuous
 62
     0
370
     5
100
AcDbVertex
100
AcDb2dVertex
 10
-1.4138671875
 20
-0.3788445710954881
 30
0.0
  0
SEQEND
  5
8D
330
89
100
AcDbEntity
  8
0
  6
Continuous
 62
     0
370
     5
  0
HATCH
  5
8E
330
86
100
AcDbEntity
  8
0
  6
Continuous
 62
     0
370
     0
100
AcDbHatch
 10
0.0
 20
0.0
 30
0.0
210
0.0
220
0.0
230
1.0
  2
SOLID
 70
     1
 71
     1
 91
        1
 92
        1
 93
        3
 72
     1
 10
-1.4138671875
 20
0.3788445710954878
 11
0.0
 21
0.0
 72
     1
 10
0.0
 20
0.0
 11
-1.4138671875
 21
-0.3788445710954881
 72
     1
 10
-1.4138671875
 20
-0.3788445710954881
 11
-1.4138671875
 21
0.3788445710954879
 97
        1
330
89
 75
     0
 76
     1
 98
        1
 10
0.0
 20
0.0
  0
ENDBLK
  5
88
330
86
100
AcDbEntity
  8
0
100
AcDbBlockEnd
  0
ENDSEC
  0
SECTION
  2
ENTITIES
  0
ARC
  5
C2
330
1F
100
AcDbEntity
  8
0
 62
     7
100
AcDbCircle
 10
-1368.298551108051
 20
1111.326948278406
 30
0.0
 40
8095.456384698541
100
AcDbArc
 50
356.290187147804
 51
357.445025457725
  0
ARC
  5
C3
330
1F
100
AcDbEntity
  8
0
 62
     7
100
AcDbCircle
 10
-1368.298551108051
 20
1111.326948278406
 30
0.0
 40
8089.156384698539
100
AcDbArc
 50
356.290187147804
 51
357.4334792835397
  0
LINE
  5
C4
330
1F
100
AcDbEntity
  8
sen-h
 62
     7
100
AcDbLine
 10
6653.060038534478
 20
877.1407440616995
 30
0.0
 11
6653.060038534478
 21
553.5607440616996
 31
0.0
  0
LINE
  5
C5
330
1F
100
AcDbEntity
  8
0
 62
     7
100
AcDbLine
 10
6573.060038534478
 20
507.0271769133515
 30
0.0
 11
6573.06003853448
 21
996.0376195817062
 31
0.0
  0
ARC
  5
C6
330
1F
100
AcDbEntity
  8
0
 62
     7
100
AcDbCircle
 10
6944.546821827796
 20
487.4933642188397
 30
0.0
 40
372.0000000000003
100
AcDbArc
 50
173.9989693890258
 51
176.9900000000019
  0
ARC
  5
C7
330
1F
100
AcDbEntity
  8
0
 62
     7
100
AcDbCircle
 10
6944.546821827796
 20
487.4933642188397
 30
0.0
 40
365.7
100
AcDbArc
 50
174.0759599374819
 51
176.4291962493343
  0
LINE
  5
C8
330
1F
100
AcDbEntity
  8
0
 62
     7
100
AcDbLine
 10
6653.060038534478
 20
500.3807440616997
 30
0.0
 11
6653.060038534481
 21
553.5616909845475
 31
0.0
  0
LINE
  5
C9
330
1F
100
AcDbEntity
  8
0
 62
     7
100
AcDbLine
 10
6580.520083599715
 20
509.2081946235967
 30
0.0
 11
6652.094807144294
 21
506.7181354711556
 31
0.0
  0
LINE
  5
CA
330
1F
100
AcDbEntity
  8
0
 62
     7
100
AcDbLine
 10
6576.920964095219
 20
503.0295953569166
 30
0.0
 11
6653.060038534478
 21
500.3807440616997
 31
0.0
  0
ARC
  5
CB
330
1F
100
AcDbEntity
  8
0
 62
     7
100
AcDbCircle
 10
6580.55485220953
 20
510.2075900127056
 30
0.0
 40
1.000000000000093
100
AcDbArc
 50
176.4291962493315
 51
268.0075038202551
  0
ARC
  5
CC
330
1F
100
AcDbEntity
  8
0
 62
     7
100
AcDbCircle
 10
6577.06003853448
 20
507.0271769133515
 30
0.0
 40
4.0
100
AcDbArc
 50
180.0
 51
268.007503820229
  0
ARC
  5
CD
330
1F
100
AcDbEntity
  8
0
 62
     7
100
AcDbCircle
 10
6652.060038534479
 20
505.7187400820466
 30
0.0
 40
1.0
100
AcDbArc
 50
0.0
 51
88.00750382025508
  0
LINE
  5
CE
330
1F
100
AcDbEntity
  8
0
 62
     7
100
AcDbLine
 10
6581.436094934646
 20
526.0675880398516
 30
0.0
 11
6697.851218644743
 21
570.7555685493797
 31
0.0
  0
LINE
  5
CF
330
1F
100
AcDbEntity
  8
0
 62
     7
100
AcDbLine
 10
6578.720346439253
 20
531.7733217449872
 30
0.0
 11
6695.59348288821
 21
576.6371184517164
 31
0.0
  0
ARC
  5
D0
330
1F
100
AcDbEntity
  8
0
 62
     7
100
AcDbCircle
 10
6581.049756346788
 20
525.7050559727359
 30
0.0
 40
6.500000000000079
100
AcDbArc
 50
111.0001721770289
 51
173.9989693890259
  0
ARC
  5
D1
330
1F
100
AcDbEntity
  8
0
 62
     7
100
AcDbCircle
 10
6581.794465689653
 20
525.1340086902746
 30
0.0
 40
1.00000000000002
100
AcDbArc
 50
111.0001721770244
 51
174.0759599374834
  0
ARC
  5
D2
330
1F
100
AcDbEntity
  8
0
 62
     7
100
AcDbCircle
 10
6690.934663073143
 20
588.7736499962202
 30
0.0
 40
19.29999999999986
100
AcDbArc
 50
291.0001721770253
 51
356.2901871478019
  0
ARC
  5
D3
330
1F
100
AcDbEntity
  8
0
 62
     7
100
AcDbCircle
 10
6690.934663073143
 20
588.7736499962202
 30
0.0
 40
12.99999999999983
100
AcDbArc
 50
291.0001721770251
 51
356.2901871478018
  0
LINE
  5
D4
330
1F
100
AcDbEntity
  8
0
  6
Continuous
 62
     7
100
AcDbLine
 10
6718.88406273328
 20
830.2980496396076
 30
0.0
 11
6717.465740153386
 21
856.5125635300951
 31
0.0
  0
LINE
  5
D5
330
1F
100
AcDbEntity
  8
0
  6
Continuous
 62
     7
100
AcDbLine
 10
6712.49149514533
 20
831.8386494611527
 30
0.0
 11
6711.174940935923
 21
856.1722031246727
 31
0.0
  0
ARC
  5
D6
330
1F
100
AcDbEntity
  8
0
  6
Continuous
 62
     7
100
AcDbCircle
 10
6666.204765411904
 20
795.8634732347372
 30
0.0
 40
61.82963599632748
100
AcDbArc
 50
324.3796560088716
 51
335.1508282620562
  0
LINE
  5
D7
330
1F
100
AcDbEntity
  8
0
  6
Continuous
 62
     7
100
AcDbLine
 10
6725.060038534478
 20
789.3759440616999
 30
0.0
 11
6725.060038534478
 21
755.3771477333357
 31
0.0
  0
LINE
  5
D8
330
1F
100
AcDbEntity
  8
sen-c
 62
     7
100
AcDbLine
 10
6553.45817812709
 20
750.3807440617
 30
0.0
 11
6741.582915219083
 21
750.3807440617
 31
0.0
  0
ARC
  5
D9
330
1F
100
AcDbEntity
  8
0
 62
     7
100
AcDbCircle
 10
6722.107234985319
 20
750.314439892043
 30
0.0
 40
3.000000000000024
100
AcDbArc
 50
93.28924267850132
 51
177.4450254577867
  0
LINE
  5
DA
330
1F
100
AcDbEntity
  8
0
  6
Continuous
 62
     7
100
AcDbLine
 10
6723.174791707664
 20
753.3807440617
 30
0.0
 11
6721.935105225542
 21
753.3094977121527
 31
0.0
  0
ARC
  5
DB
330
1F
100
AcDbEntity
  8
0
 62
     7
100
AcDbCircle
 10
6732.723586812795
 20
748.2049406647184
 30
0.0
 40
20.00000000000035
100
AcDbArc
 50
144.3796560088724
 51
177.4334792835422
  0
ARC
  5
DC
330
1F
100
AcDbEntity
  8
0
  6
Continuous
 62
     7
100
AcDbCircle
 10
6723.060038534478
 20
755.3774492751062
 30
0.0
 40
2.000000000000034
100
AcDbArc
 50
273.28924267851
 51
0.0
  0
LINE
  5
DD
330
1F
100
AcDbEntity
  8
0
  6
Continuous
 62
     7
100
AcDbLine
 10
6720.138854578107
 20
815.1307440617
 30
0.0
 11
6725.060038534478
 21
815.1307440617
 31
0.0
  0
LINE
  5
DE
330
1F
100
AcDbEntity
  8
0
  6
Continuous
 62
     7
100
AcDbLine
 10
6720.138854578109
 20
765.6307440617
 30
0.0
 11
6725.060038534478
 21
765.6307440617
 31
0.0
  0
LINE
  5
DF
330
1F
100
AcDbEntity
  8
sen-c
 62
     7
100
AcDbLine
 10
6710.147152135866
 20
790.3807440617002
 30
0.0
 11
6737.222924933094
 21
790.3807440617002
 31
0.0
  0
LINE
  5
E0
330
1F
100
AcDbEntity
  8
0
  6
Continuous
 62
     7
100
AcDbLine
 10
6723.174791707664
 20
827.3807440617002
 30
0.0
 11
6721.707551648485
 21
827.4650682030323
 31
0.0
  0
ARC
  5
E1
330
1F
100
AcDbEntity
  8
0
  6
Continuous
 62
     7
100
AcDbCircle
 10
6721.879681408264
 20
830.460126023142
 30
0.0
 40
3.00000000000041
100
AcDbArc
 50
183.0969386913679
 51
266.7107573214988
  0
ARC
  5
E2
330
1F
100
AcDbEntity
  8
0
  6
Continuous
 62
     7
100
AcDbCircle
 10
6666.204765411904
 20
784.8980148886639
 30
0.0
 40
61.82963599632584
100
AcDbArc
 50
24.84917173794384
 51
35.93329192815334
  0
LINE
  5
E3
330
1F
100
AcDbEntity
  8
0
  6
Continuous
 62
     7
100
AcDbLine
 10
6724.05523853448
 20
790.3807440617002
 30
0.0
 11
6725.060038534478
 21
791.3855440617003
 31
0.0
  0
LINE
  5
E4
330
1F
100
AcDbEntity
  8
0
  6
Continuous
 62
     7
100
AcDbLine
 10
6724.05523853448
 20
790.3807440617002
 30
0.0
 11
6725.060038534478
 21
789.3759440616999
 31
0.0
  0
LINE
  5
E5
330
1F
100
AcDbEntity
  8
0
  6
Continuous
 62
     7
100
AcDbLine
 10
6723.314838534482
 20
790.3807440617002
 30
0.0
 11
6722.31003853448
 21
791.3855440617003
 31
0.0
  0
LINE
  5
E6
330
1F
100
AcDbEntity
  8
0
  6
Continuous
 62
     7
100
AcDbLine
 10
6723.314838534482
 20
790.3807440617002
 30
0.0
 11
6722.31003853448
 21
789.3759440616999
 31
0.0
  0
LINE
  5
E7
330
1F
100
AcDbEntity
  8
0
  6
Continuous
 62
     7
100
AcDbLine
 10
6722.31003853448
 20
791.3855440617003
 30
0.0
 11
6722.31003853448
 21
810.8807440617
 31
0.0
  0
LINE
  5
E8
330
1F
100
AcDbEntity
  8
0
  6
Continuous
 62
     7
100
AcDbLine
 10
6725.060038534478
 20
791.3855440617003
 30
0.0
 11
6725.060038534478
 21
825.3843403900646
 31
0.0
  0
ARC
  5
E9
330
1F
100
AcDbEntity
  8
0
  6
Continuous
 62
     7
100
AcDbCircle
 10
6732.462286311876
 20
832.9191586847155
 30
0.0
 40
20.00000000000031
100
AcDbArc
 50
183.0969386913678
 51
215.9332919281534
  0
ARC
  5
EA
330
1F
100
AcDbEntity
  8
0
  6
Continuous
 62
     7
100
AcDbCircle
 10
6723.060038534478
 20
825.384038848294
 30
0.0
 40
2.0
100
AcDbArc
 50
0.0
 51
86.71075732149002
  0
LINE
  5
EB
330
1F
100
AcDbEntity
  8
0
  6
Continuous
 62
     7
100
AcDbLine
 10
6722.31003853448
 20
789.3759440616999
 30
0.0
 11
6722.31003853448
 21
769.8807440617
 31
0.0
  0
ARC
  5
EC
330
1F
100
AcDbEntity
  8
0
 62
     7
100
AcDbCircle
 10
13607.77030914748
 20
1059.884377776019
 30
0.0
 40
7028.7
100
AcDbArc
 50
180.5549872799666
 51
181.4108481971284
  0
ARC
  5
ED
330
1F
100
AcDbEntity
  8
0
 62
     7
100
AcDbCircle
 10
13607.77030914748
 20
1059.884377776019
 30
0.0
 40
7035.000000000001
100
AcDbArc
 50
180.5200000000035
 51
181.4270245726151
  0
LINE
  5
EE
330
1F
100
AcDbEntity
  8
0
 62
     7
100
AcDbLine
 10
6653.060038534481
 20
877.1377162371818
 30
0.0
 11
6653.060038534478
 21
1000.3807440617
 31
0.0
  0
LINE
  5
EF
330
1F
100
AcDbEntity
  8
0
 62
     7
100
AcDbLine
 10
6579.340835490005
 20
879.848674279624
 30
0.0
 11
6703.285716012292
 21
864.6187902133879
 31
0.0
  0
LINE
  5
F0
330
1F
100
AcDbEntity
  8
0
 62
     7
100
AcDbLine
 10
6582.078825832609
 20
885.8596225859965
 30
0.0
 11
6704.05405778321
 21
870.871761580911
 31
0.0
  0
LINE
  5
F1
330
1F
100
AcDbEntity
  8
sen-c
 62
     7
100
AcDbLine
 10
6560.948921785556
 20
930.3807440617
 30
0.0
 11
6593.274278821311
 21
930.3807440617
 31
0.0
  0
LINE
  5
F2
330
1F
100
AcDbEntity
  8
0
 62
     7
100
AcDbLine
 10
6574.337806278291
 20
911.3844532536218
 30
0.0
 11
6580.639211578804
 21
911.3844532536218
 31
0.0
  0
LINE
  5
F3
330
1F
100
AcDbEntity
  8
sen-h
 62
     7
100
AcDbLine
 10
6589.948955748228
 20
878.545188076623
 30
0.0
 11
6590.717297519148
 21
884.7981594441458
 31
0.0
  0
LINE
  5
F4
330
1F
100
AcDbEntity
  8
sen-h
 62
     7
100
AcDbLine
 10
6619.725009879291
 20
874.8864177389123
 30
0.0
 11
6620.49335165021
 21
881.1393891064353
 31
0.0
  0
ARC
  5
F5
330
1F
100
AcDbEntity
  8
0
 62
     7
100
AcDbCircle
 10
6579.950630546291
 20
884.8113499681344
 30
0.0
 40
5.000000000000196
100
AcDbArc
 50
181.427024572631
 51
262.9948237994116
  0
LINE
  5
F6
330
1F
100
AcDbEntity
  8
sen-c
 62
     7
100
AcDbLine
 10
6604.068641042839
 20
870.4628315402446
 30
0.0
 11
6606.373666355597
 21
889.2217456428125
 31
0.0
  0
ARC
  5
F7
330
1F
100
AcDbEntity
  8
0
 62
     7
100
AcDbCircle
 10
6582.200784843864
 20
886.8521577236988
 30
0.0
 40
0.999999999999758
100
AcDbArc
 50
181.4108481971419
 51
262.9948237994219
  0
ARC
  5
F8
330
1F
100
AcDbEntity
  8
0
 62
     7
100
AcDbCircle
 10
6702.188084910979
 20
855.6859739740694
 30
0.0
 40
9.000000000000322
100
AcDbArc
 50
3.096938691368178
 51
82.99482379941622
  0
ARC
  5
F9
330
1F
100
AcDbEntity
  8
0
 62
     7
100
AcDbCircle
 10
6702.188084910979
 20
855.6859739740694
 30
0.0
 40
15.29999999999973
100
AcDbArc
 50
3.096938691368258
 51
82.99482379941415
  0
LINE
  5
FA
330
1F
100
AcDbEntity
  8
0
 62
     7
100
AcDbLine
 10
6653.060038534478
 20
1000.3807440617
 30
0.0
 11
6576.00773472863
 21
999.0371635990349
 31
0.0
  0
LINE
  5
FB
330
1F
100
AcDbEntity
  8
0
 62
     7
100
AcDbLine
 10
6652.077473136431
 20
994.062653111766
 30
0.0
 11
6580.382560630018
 21
992.8124908329218
 31
0.0
  0
LINE
  5
FC
330
1F
100
AcDbEntity
  8
0
 62
     7
100
AcDbLine
 10
6573.962392460055
 20
949.3807440617002
 30
0.0
 11
6579.939019415502
 21
949.3807440617002
 31
0.0
  0
ARC
  5
FD
330
1F
100
AcDbEntity
  8
0
 62
     7
100
AcDbCircle
 10
6580.399995231967
 20
991.8126428271452
 30
0.0
 40
0.9999999999999483
100
AcDbArc
 50
90.99897972280476
 51
180.5549872798809
  0
ARC
  5
FE
330
1F
100
AcDbEntity
  8
0
 62
     7
100
AcDbCircle
 10
6576.06003853448
 20
996.0376195817062
 30
0.0
 40
2.999999999999943
100
AcDbArc
 50
90.99897972278738
 51
180.0
  0
ARC
  5
FF
330
1F
100
AcDbEntity
  8
0
 62
     7
100
AcDbCircle
 10
6652.060038534481
 20
995.062501117542
 30
0.0
 40
0.9999999999999483
100
AcDbArc
 50
270.9989797228047
 51
0.0
  0
LINE
  5
100
330
1F
100
AcDbEntity
  8
sen-c
 62
     7
100
AcDbLine
 10
6034.698871854486
 20
843.4585004501989
 30
0.0
 11
6034.698871854486
 21
730.0
 31
0.0
  0
LINE
  5
101
330
1F
100
AcDbEntity
  8
0
 62
     7
100
AcDbLine
 10
5659.698871854486
 20
505.8807440616996
 30
0.0
 11
5659.698871854486
 21
995.8807440616988
 31
0.0
  0
LINE
  5
102
330
1F
100
AcDbEntity
  8
0
 62
     7
100
AcDbLine
 10
5709.698871854486
 20
542.3807440616997
 30
0.0
 11
5709.698871854486
 21
869.3807440616996
 31
0.0
  0
LINE
  5
103
330
1F
100
AcDbEntity
  8
sen-h
  6
ISO-02 破線
 62
     7
370
     9
100
AcDbLine
 10
5665.998871854486
 20
507.2343399232554
 30
0.0
 11
5665.998871854486
 21
993.5608963665431
 31
0.0
  0
LINE
  5
104
330
1F
100
AcDbEntity
  8
0
 62
     7
100
AcDbLine
 10
6409.698871854486
 20
995.8807440616997
 30
0.0
 11
6409.698871854486
 21
505.8807440616996
 31
0.0
  0
LINE
  5
105
330
1F
100
AcDbEntity
  8
0
 62
     7
100
AcDbLine
 10
6289.698871854486
 20
869.3807440616996
 30
0.0
 11
6289.698871854486
 21
542.3807440616997
 31
0.0
  0
LINE
  5
106
330
1F
100
AcDbEntity
  8
sen-h
  6
ISO-02 破線
 62
     7
370
     9
100
AcDbLine
 10
6403.398871854488
 20
507.2343399232554
 30
0.0
 11
6403.398871854488
 21
993.5608963665431
 31
0.0
  0
ARC
  5
107
330
1F
100
AcDbEntity
  8
sen2
 62
     7
100
AcDbCircle
 10
6000.078871854487
 20
-237.779255938301
 30
0.0
 40
819.261232323048
100
AcDbArc
 50
70.40000000000605
 51
109.5599999999832
  0
LINE
  5
108
330
1F
100
AcDbEntity
  8
0
 62
     7
100
AcDbLine
 10
6404.198871854486
 20
500.3807440616997
 30
0.0
 11
5665.198871854486
 21
500.3807440616997
 31
0.0
  0
LINE
  5
109
330
1F
100
AcDbEntity
  8
0
 62
     7
100
AcDbLine
 10
6277.698871854486
 20
530.3807440616997
 30
0.0
 11
5721.698871854486
 21
530.3807440616997
 31
0.0
  0
LINE
  5
10A
330
1F
100
AcDbEntity
  8
sen-h
  6
ISO-02 破線
 62
     7
370
     9
100
AcDbLine
 10
6402.898871854486
 20
506.7343399232554
 30
0.0
 11
5666.498871854486
 21
506.7343399232554
 31
0.0
  0
ARC
  5
10B
330
1F
100
AcDbEntity
  8
0
 62
     7
100
AcDbCircle
 10
5721.698871854486
 20
542.3807440616997
 30
0.0
 40
12.0
100
AcDbArc
 50
180.0
 51
270.0
  0
ARC
  5
10C
330
1F
100
AcDbEntity
  8
0
 62
     7
100
AcDbCircle
 10
5665.198871854486
 20
505.8807440616996
 30
0.0
 40
5.5
100
AcDbArc
 50
180.0
 51
270.0
  0
ARC
  5
10D
330
1F
100
AcDbEntity
  8
sen-h
 62
     7
100
AcDbCircle
 10
5666.498871854486
 20
507.2343399232554
 30
0.0
 40
0.5
100
AcDbArc
 50
180.0
 51
270.0
  0
ARC
  5
10E
330
1F
100
AcDbEntity
  8
0
 62
     7
100
AcDbCircle
 10
6277.698871854486
 20
542.3807440616997
 30
0.0
 40
12.0
100
AcDbArc
 50
270.0
 51
0.0
  0
ARC
  5
10F
330
1F
100
AcDbEntity
  8
0
 62
     7
100
AcDbCircle
 10
6404.198871854486
 20
505.8807440616996
 30
0.0
 40
5.5
100
AcDbArc
 50
270.0
 51
0.0
  0
ARC
  5
110
330
1F
100
AcDbEntity
  8
sen-h
 62
     7
100
AcDbCircle
 10
6402.898871854486
 20
507.2343399232554
 30
0.0
 40
0.5
100
AcDbArc
 50
270.0
 51
0.0
  0
ARC
  5
111
330
1F
100
AcDbEntity
  8
sen2
 62
     7
100
AcDbCircle
 10
6000.058871854487
 20
3498.480744061699
 30
0.0
 40
2635.063277646711
100
AcDbArc
 50
264.0299999999478
 51
275.9799999999962
  0
LINE
  5
112
330
1F
100
AcDbEntity
  8
0
 62
     7
100
AcDbLine
 10
5664.198871854487
 20
1000.380744061698
 30
0.0
 11
6405.198871854486
 21
1000.380744061699
 31
0.0
  0
LINE
  5
113
330
1F
100
AcDbEntity
  8
0
 62
     7
100
AcDbLine
 10
5720.698871854486
 20
880.3807440616997
 30
0.0
 11
6278.698871854486
 21
880.3807440616997
 31
0.0
  0
LINE
  5
114
330
1F
100
AcDbEntity
  8
sen-h
  6
ISO-02 破線
 62
     7
370
     9
100
AcDbLine
 10
6402.898871854486
 20
994.0608963665431
 30
0.0
 11
5666.498871854486
 21
994.0608963665431
 31
0.0
  0
ARC
  5
115
330
1F
100
AcDbEntity
  8
0
 62
     7
100
AcDbCircle
 10
5720.698871854486
 20
869.3807440616996
 30
0.0
 40
11.0
100
AcDbArc
 50
90.0
 51
180.0
  0
ARC
  5
116
330
1F
100
AcDbEntity
  8
0
 62
     7
100
AcDbCircle
 10
5664.198871854487
 20
995.8807440616988
 30
0.0
 40
4.5
100
AcDbArc
 50
90.0
 51
180.0
  0
ARC
  5
117
330
1F
100
AcDbEntity
  8
sen-h
 62
     7
100
AcDbCircle
 10
5666.498871854486
 20
993.5608963665431
 30
0.0
 40
0.5
100
AcDbArc
 50
90.0
 51
180.0
  0
CIRCLE
  5
118
330
1F
100
AcDbEntity
  8
sen2
 62
     7
100
AcDbCircle
 10
6034.698871854486
 20
790.3807440616997
 30
0.0
 40
37.5
  0
LINE
  5
119
330
1F
100
AcDbEntity
  8
sen-c
 62
     7
100
AcDbLine
 10
5974.118756520439
 20
790.3807440616997
 30
0.0
 11
6095.278987188534
 21
790.3807440616997
 31
0.0
  0
CIRCLE
  5
11A
330
1F
100
AcDbEntity
  8
0
  6
Continuous
 62
     7
100
AcDbCircle
 10
6034.698871854486
 20
790.3807440617006
 30
0.0
 40
24.75
  0
ARC
  5
11B
330
1F
100
AcDbEntity
  8
0
 62
     7
100
AcDbCircle
 10
6278.698871854486
 20
869.3807440616996
 30
0.0
 40
11.0
100
AcDbArc
 50
0.0
 51
90.0
  0
ARC
  5
11C
330
1F
100
AcDbEntity
  8
0
 62
     7
100
AcDbCircle
 10
6405.198871854486
 20
995.8807440616997
 30
0.0
 40
4.5
100
AcDbArc
 50
0.0
 51
90.0
  0
ARC
  5
11D
330
1F
100
AcDbEntity
  8
sen-h
 62
     7
100
AcDbCircle
 10
6402.898871854486
 20
993.5608963665431
 30
0.0
 40
0.5
100
AcDbArc
 50
0.0
 51
90.0
  0
LINE
  5
11E
330
1F
100
AcDbEntity
  8
0
 62
     7
100
AcDbLine
 10
6403.003768180719
 20
318.2093925461691
 30
0.0
 11
5666.393975528255
 21
318.2093925461691
 31
0.0
  0
LINE
  5
11F
330
1F
100
AcDbEntity
  8
0
 62
     7
100
AcDbLine
 10
6220.633799508214
 20
238.2095581155414
 30
0.0
 11
6409.698871854485
 21
238.2095581155414
 31
0.0
  0
ARC
  5
120
330
1F
100
AcDbEntity
  8
0
 62
     7
100
AcDbCircle
 10
5755.148499662391
 20
768.8166620825601
 30
0.0
 40
706.3000000000002
100
AcDbArc
 50
313.958928627795
 51
319.355272571142
  0
ARC
  5
121
330
1F
100
AcDbEntity
  8
0
 62
     7
100
AcDbCircle
 10
5755.148499662391
 20
768.8166620825601
 30
0.0
 40
699.9999999999998
100
AcDbArc
 50
313.956114689246
 51
319.355272571142
  0
ARC
  5
122
330
1F
100
AcDbEntity
  8
0
 62
     7
100
AcDbCircle
 10
6010.917034902439
 20
544.6634168024253
 30
0.0
 40
376.3
100
AcDbArc
 50
241.9765506200811
 51
267.2348373349684
  0
ARC
  5
123
330
1F
100
AcDbEntity
  8
0
 62
     7
100
AcDbCircle
 10
6010.917034902439
 20
544.6634168024253
 30
0.0
 40
369.9999999999998
100
AcDbArc
 50
241.9722158932219
 51
267.2065959363276
  0
LINE
  5
124
330
1F
100
AcDbEntity
  8
sen-h
 62
     7
100
AcDbLine
 10
5790.649331453002
 20
238.2095581155414
 30
0.0
 11
6220.633799508214
 21
238.2095581155414
 31
0.0
  0
ARC
  5
125
330
1F
100
AcDbEntity
  8
0
 62
     7
100
AcDbCircle
 10
6049.53246455868
 20
626.0435604843211
 30
0.0
 40
466.2999999999998
100
AcDbArc
 50
222.8203781715549
 51
242.4861235605252
  0
ARC
  5
126
330
1F
100
AcDbEntity
  8
0
 62
     7
100
AcDbCircle
 10
6049.53246455868
 20
626.0435604843211
 30
0.0
 40
459.9999999999998
100
AcDbArc
 50
222.8203781715548
 51
242.4896159131592
  0
LINE
  5
127
330
1F
100
AcDbEntity
  8
0
 62
     7
100
AcDbLine
 10
5659.698871854486
 20
238.2095581155414
 30
0.0
 11
5790.649331453002
 21
238.2095581155414
 31
0.0
  0
ARC
  5
128
330
1F
100
AcDbEntity
  8
0
 62
     7
100
AcDbCircle
 10
5704.793027572509
 20
306.583515116427
 30
0.0
 40
9.999999999999917
100
AcDbArc
 50
42.82037817155553
 51
86.58553723467861
  0
LINE
  5
129
330
1F
100
AcDbEntity
  8
0
 62
     7
100
AcDbLine
 10
5668.543592517576
 20
310.8588584835712
 30
0.0
 11
5666.03647577099
 21
239.1746050447551
 31
0.0
  0
LINE
  5
12A
330
1F
100
AcDbEntity
  8
0
 62
     7
100
AcDbLine
 10
5662.361819284353
 20
314.3493703986901
 30
0.0
 11
5659.698871854486
 21
238.2095581155414
 31
0.0
  0
ARC
  5
12B
330
1F
100
AcDbEntity
  8
0
 62
     7
100
AcDbCircle
 10
5638.921492195761
 20
-797.4531422582781
 30
0.0
 40
1109.7
100
AcDbArc
 50
86.5855372346786
 51
88.41733089670088
  0
ARC
  5
12C
330
1F
100
AcDbEntity
  8
0
 62
     7
100
AcDbCircle
 10
5638.921492195761
 20
-797.4531422582781
 30
0.0
 40
1116.0
100
AcDbArc
 50
86.58553723467863
 51
88.59128090350637
  0
ARC
  5
12D
330
1F
100
AcDbEntity
  8
0
 62
     7
100
AcDbCircle
 10
5669.542981472308
 20
310.8239054127849
 30
0.0
 40
1.000000000000012
100
AcDbArc
 50
88.41733089670085
 51
177.9969285571412
  0
ARC
  5
12E
330
1F
100
AcDbEntity
  8
0
 62
     7
100
AcDbCircle
 10
5666.35758146878
 20
314.2095581155414
 30
0.0
 40
3.999999999999982
100
AcDbArc
 50
89.47868630534882
 51
177.9969285571412
  0
ARC
  5
12F
330
1F
100
AcDbEntity
  8
0
 62
     7
100
AcDbCircle
 10
5704.793027572509
 20
306.583515116427
 30
0.0
 40
3.699999999999859
100
AcDbArc
 50
42.82037817155636
 51
86.58553723467438
  0
ARC
  5
130
330
1F
100
AcDbEntity
  8
0
 62
     7
100
AcDbCircle
 10
5994.288020675634
 20
570.5354571460435
 30
0.0
 40
406.3
100
AcDbArc
 50
282.7188114656678
 51
295.9334971282375
  0
ARC
  5
131
330
1F
100
AcDbEntity
  8
0
 62
     7
100
AcDbCircle
 10
5994.288020675634
 20
570.5354571460435
 30
0.0
 40
399.9999999999999
100
AcDbArc
 50
282.3290645332999
 51
295.9334971282375
  0
ARC
  5
132
330
1F
100
AcDbEntity
  8
0
 62
     7
100
AcDbCircle
 10
6016.171256727361
 20
534.2058120800617
 30
0.0
 40
359.920407029372
100
AcDbArc
 50
272.9510315229695
 51
280.9006108259837
  0
ARC
  5
133
330
1F
100
AcDbEntity
  8
0
 62
     7
100
AcDbCircle
 10
6028.508156020635
 20
221.1298246558914
 30
0.0
 40
63.08478725245207
100
AcDbArc
 50
295.03000000003
 51
314.1541240909694
  0
ARC
  5
134
330
1F
100
AcDbEntity
  8
0
 62
     7
100
AcDbCircle
 10
6076.734264836919
 20
163.5622831205643
 30
0.0
 40
4.99999999999998
100
AcDbArc
 50
126.9361099964138
 51
176.7107573214666
  0
ARC
  5
135
330
1F
100
AcDbEntity
  8
0
 62
     7
100
AcDbCircle
 10
6069.702785404849
 20
163.2150803252913
 30
0.0
 40
1.999999993379902
100
AcDbArc
 50
270.0
 51
356.9999999999919
  0
ARC
  5
136
330
1F
100
AcDbEntity
  8
0
 62
     7
100
AcDbCircle
 10
6069.702785404849
 20
163.2150803252913
 30
0.0
 40
1.999999993379902
100
AcDbArc
 50
270.0
 51
356.9999999999919
  0
LINE
  5
137
330
1F
100
AcDbEntity
  8
0
 62
     7
100
AcDbLine
 10
5995.484487261879
 20
167.835379151437
 30
0.0
 11
5996.375120340959
 21
167.1803825526373
 31
0.0
  0
ARC
  5
138
330
1F
100
AcDbEntity
  8
0
 62
     7
100
AcDbCircle
 10
5992.522184711699
 20
163.8073816835636
 30
0.0
 40
5.000000000000081
100
AcDbArc
 50
53.66819143715155
 51
87.23483733496846
  0
LINE
  5
139
330
1F
100
AcDbEntity
  8
0
 62
     7
100
AcDbLine
 10
6069.702785404849
 20
161.2150803319115
 30
0.0
 11
6035.698871854485
 21
161.2095581155414
 31
0.0
  0
LINE
  5
13A
330
1F
100
AcDbEntity
  8
0
 62
     7
100
AcDbLine
 10
5997.698595992417
 20
163.0948049423569
 30
0.0
 11
5997.592796630961
 21
164.9357138316914
 31
0.0
  0
ARC
  5
13B
330
1F
100
AcDbEntity
  8
0
 62
     7
100
AcDbCircle
 10
5994.597738810852
 20
164.7635840719145
 30
0.0
 40
3.000000000000079
100
AcDbArc
 50
3.289242678481685
 51
53.66819143715128
  0
ARC
  5
13C
330
1F
100
AcDbEntity
  8
0
 62
     7
100
AcDbCircle
 10
5992.154142252381
 20
160.1208913785109
 30
0.0
 40
15.00000000000009
100
AcDbArc
 50
51.38125809099304
 51
87.20659593632757
  0
LINE
  5
13D
330
1F
100
AcDbEntity
  8
0
 62
     7
100
AcDbLine
 10
6035.698871854485
 20
163.9695581155416
 30
0.0
 11
6055.198871854486
 21
163.9695581155416
 31
0.0
  0
LINE
  5
13E
330
1F
100
AcDbEntity
  8
0
 62
     7
100
AcDbLine
 10
6014.198871854485
 20
163.9695581155416
 30
0.0
 11
6033.698871854485
 21
163.9695581155416
 31
0.0
  0
LINE
  5
13F
330
1F
100
AcDbEntity
  8
0
 62
     7
100
AcDbLine
 10
6033.698871854485
 20
163.9695581155416
 30
0.0
 11
6034.698871854486
 21
162.9695581155416
 31
0.0
  0
LINE
  5
140
330
1F
100
AcDbEntity
  8
0
 62
     7
100
AcDbLine
 10
6035.698871854485
 20
163.9695581155416
 30
0.0
 11
6034.698871854486
 21
162.9695581155416
 31
0.0
  0
LINE
  5
141
330
1F
100
AcDbEntity
  8
0
 62
     7
100
AcDbLine
 10
6033.698871854485
 20
161.2095581155414
 30
0.0
 11
5999.695301205824
 21
161.2095581155414
 31
0.0
  0
LINE
  5
142
330
1F
100
AcDbEntity
  8
0
 62
     7
100
AcDbLine
 10
6034.698871854486
 20
162.2095581155414
 30
0.0
 11
6033.698871854485
 21
161.2095581155414
 31
0.0
  0
LINE
  5
143
330
1F
100
AcDbEntity
  8
0
 62
     7
100
AcDbLine
 10
6034.698871854486
 20
162.2095581155414
 30
0.0
 11
6035.698871854485
 21
161.2095581155414
 31
0.0
  0
ARC
  5
144
330
1F
100
AcDbEntity
  8
0
 62
     7
100
AcDbCircle
 10
6040.889547158528
 20
221.1297378581162
 30
0.0
 40
63.08469145830204
100
AcDbArc
 50
231.3812580909937
 51
244.9699999999698
  0
ARC
  5
145
330
1F
100
AcDbEntity
  8
0
 62
     7
100
AcDbCircle
 10
6016.498871854484
 20
530.3895581155416
 30
0.0
 40
356.0923713623922
100
AcDbArc
 50
266.099999999948
 51
272.9299999999806
  0
LINE
  5
146
330
1F
100
AcDbEntity
  8
0
 62
     7
100
AcDbLine
 10
6009.948871854486
 20
161.2095581155414
 30
0.0
 11
6009.948871854486
 21
166.1538075966005
 31
0.0
  0
LINE
  5
147
330
1F
100
AcDbEntity
  8
0
 62
     7
100
AcDbLine
 10
6059.448871854487
 20
161.2095581155414
 30
0.0
 11
6059.448871854487
 21
166.1538075966005
 31
0.0
  0
ARC
  5
148
330
1F
100
AcDbEntity
  8
0
 62
     7
100
AcDbCircle
 10
5999.695301205824
 20
163.2095581155414
 30
0.0
 40
1.999999999999754
100
AcDbArc
 50
183.2892426784844
 51
270.0
  0
ARC
  5
149
330
1F
100
AcDbEntity
  8
0
 62
     7
100
AcDbCircle
 10
6082.901305078681
 20
165.1064426104482
 30
0.0
 40
15.0
100
AcDbArc
 50
102.3290645332999
 51
134.1541240909683
  0
LINE
  5
14A
330
1F
100
AcDbEntity
  8
0
 62
     7
100
AcDbLine
 10
6071.700044467751
 20
163.1104084131517
 30
0.0
 11
6071.742501803405
 21
163.8491660535279
 31
0.0
  0
LINE
  5
14B
330
1F
100
AcDbEntity
  8
0
 62
     7
100
AcDbLine
 10
6071.898871854486
 20
164.8295581155422
 30
0.0
 11
6071.898871915205
 21
164.8295581171905
 31
0.0
  0
LINE
  5
14C
330
1F
100
AcDbEntity
  8
0
 62
     7
100
AcDbLine
 10
6073.729644347054
 20
167.5588135798367
 30
0.0
 11
6080.695601369207
 21
172.7958704254075
 31
0.0
  0
ARC
  5
14D
330
1F
100
AcDbEntity
  8
0
 62
     7
100
AcDbCircle
 10
6085.50299415299
 20
166.4014216905712
 30
0.0
 40
8.000000000000034
100
AcDbArc
 50
102.7188114656678
 51
126.9361099964135
  0
CIRCLE
  5
14E
330
1F
100
AcDbEntity
  8
0
  6
Continuous
 62
     7
100
AcDbCircle
 10
5974.698871854485
 20
288.2095581155414
 30
0.0
 40
15.0
  0
LINE
  5
14F
330
1F
100
AcDbEntity
  8
sen-c
 62
     7
100
AcDbLine
 10
5974.698871854485
 20
312.7735610452297
 30
0.0
 11
5974.698871854485
 21
263.6455551858531
 31
0.0
  0
LINE
  5
150
330
1F
100
AcDbEntity
  8
sen-c
 62
     7
100
AcDbLine
 10
5950.134868924797
 20
288.2095581155414
 30
0.0
 11
5999.262874784173
 21
288.2095581155414
 31
0.0
  0
ARC
  5
151
330
1F
100
AcDbEntity
  8
0
 62
     7
100
AcDbCircle
 10
6002.3399138559
 20
507.0430930155131
 30
0.0
 40
346.2999999999999
100
AcDbArc
 50
299.3945612090557
 51
314.5827759489367
  0
ARC
  5
152
330
1F
100
AcDbEntity
  8
0
 62
     7
100
AcDbCircle
 10
6002.3399138559
 20
507.0430930155131
 30
0.0
 40
339.9999999999999
100
AcDbArc
 50
299.3945612090557
 51
314.5885421865115
  0
LINE
  5
153
330
1F
100
AcDbEntity
  8
0
 62
     7
100
AcDbLine
 10
6171.974235448766
 20
205.1489507181301
 30
0.0
 11
6172.311244024528
 21
205.3256143691693
 31
0.0
  0
LINE
  5
154
330
1F
100
AcDbEntity
  8
0
 62
     7
100
AcDbLine
 10
6400.852200996721
 20
310.9146190497991
 30
0.0
 11
6403.36126793798
 21
239.1746050447551
 31
0.0
  0
LINE
  5
155
330
1F
100
AcDbEntity
  8
0
 62
     7
100
AcDbLine
 10
6407.035924424619
 20
314.3493703986901
 30
0.0
 11
6409.698871854485
 21
238.2095581155414
 31
0.0
  0
ARC
  5
156
330
1F
100
AcDbEntity
  8
0
 62
     7
100
AcDbCircle
 10
6465.518871854484
 20
-6552.419157734771
 30
0.0
 40
6864.612953467169
100
AcDbArc
 50
90.54817273487016
 51
91.43359445420091
  0
ARC
  5
157
330
1F
100
AcDbEntity
  8
0
 62
     7
100
AcDbCircle
 10
6465.518871854484
 20
-6552.419157734771
 30
0.0
 40
6870.912953467168
100
AcDbArc
 50
90.52131369465117
 51
91.43359445420094
  0
ARC
  5
158
330
1F
100
AcDbEntity
  8
0
 62
     7
100
AcDbCircle
 10
6293.870268759548
 20
306.3462787056047
 30
0.0
 40
3.700000000000023
100
AcDbArc
 50
91.4335944541995
 51
139.355272571138
  0
ARC
  5
159
330
1F
100
AcDbEntity
  8
0
 62
     7
100
AcDbCircle
 10
6293.870268759548
 20
306.3462787056047
 30
0.0
 40
9.999999999999988
100
AcDbArc
 50
91.43359445420091
 51
139.3552725711418
  0
ARC
  5
15A
330
1F
100
AcDbEntity
  8
0
 62
     7
100
AcDbCircle
 10
6399.852812041987
 20
310.8796659790119
 30
0.0
 40
1.000000000000036
100
AcDbArc
 50
2.003071442858826
 51
90.54817273487014
  0
ARC
  5
15B
330
1F
100
AcDbEntity
  8
0
 62
     7
100
AcDbCircle
 10
6403.040162240194
 20
314.2095581155414
 30
0.0
 40
4.000000000000142
100
AcDbArc
 50
2.003071442858826
 51
90.52131369465118
  0
LINE
  5
15C
330
1F
100
AcDbEntity
  8
sen-c
 62
     7
100
AcDbLine
 10
6034.698871854486
 20
349.5503886255015
 30
0.0
 11
6034.698871854486
 21
151.1760119370024
 31
0.0
  0
DIMENSION
  5
15D
330
1F
100
AcDbEntity
  8
寸法
  6
Continuous
 62
     7
370
     9
100
AcDbDimension
  2
*D1
 10
5659.698871854486
 20
1071.999999999999
 30
0.0
 11
6034.698871854486
 21
1080.333171834624
 31
0.0
 70
    32
 71
     5
 42
750.0
  3
MSP明朝寸法4
100
AcDbAlignedDimension
 13
6409.698871854486
 23
995.8807440616997
 33
0.0
 14
5659.698871854486
 24
995.8807440616988
 34
0.0
100
AcDbRotatedDimension
1001
ACAD
1000
DSTYLE
1002
{
1070
    41
1040
14.99908447265625
1070
   147
1040
0.3125
1070
   340
1005
4B
1070
   279
1070
     2
1002
}
  0
DIMENSION
  5
15E
330
1F
100
AcDbEntity
  8
寸法
  6
Continuous
 62
     7
370
     9
100
AcDbDimension
  2
*D2
 10
6496.0
 20
1000.3807440617
 30
0.0
 11
6487.666828165375
 21
750.3807440616996
 31
0.0
 70
    32
 71
     5
 42
500.0000000000001
  3
MSP明朝寸法4
100
AcDbAlignedDimension
 13
6404.198871854486
 23
500.3807440616996
 33
0.0
 14
6405.198871854486
 24
1000.3807440617
 34
0.0
 50
-90.0
100
AcDbRotatedDimension
1001
ACAD
1000
DSTYLE
1002
{
1070
    41
1040
14.99908447265625
1070
   147
1040
0.3125
1070
   340
1005
4B
1070
   279
1070
     2
1002
}
  0
DIMENSION
  5
15F
330
1F
100
AcDbEntity
  8
寸法
  6
Continuous
 62
     7
370
     9
100
AcDbDimension
  2
*D3
 10
5709.698871854486
 20
436.0
 30
0.0
 11
5999.698871854486
 21
444.3331718346253
 31
0.0
 70
    32
 71
     5
 42
580.0
  3
MSP明朝寸法4
100
AcDbAlignedDimension
 13
6289.698871854486
 23
542.3807440616997
 33
0.0
 14
5709.698871854486
 24
542.3807440616997
 34
0.0
100
AcDbRotatedDimension
1001
ACAD
1000
DSTYLE
1002
{
1070
    41
1040
14.99908447265625
1070
   147
1040
0.3125
1070
   340
1005
4B
1070
   279
1070
     2
1002
}
  0
VIEWPORT
  5
48
330
1B
100
AcDbEntity
 67
     1
  8
0
100
AcDbViewport
 10
0.0
 20
0.0
 30
0.0
 40
466.7538834594727
 41
329.9726597625731
 68
     1
 69
     1
 12
0.0
 22
0.0
 13
0.0
 23
0.0
 14
10.0
 24
10.0
 15
10.0
 25
10.0
 16
0.0
 26
0.0
 36
1.0
 17
0.0
 27
0.0
 37
0.0
 42
50.0
 43
0.0
 44
0.0
 45
326.7350128173828
 50
0.0
 51
0.0
 72
  2000
 90
   557152
  1

281
     0
 71
     1
 74
     0
110
0.0
120
0.0
130
0.0
111
1.0
121
0.0
131
0.0
112
0.0
122
1.0
132
0.0
 79
     0
146
0.0
  0
VIEWPORT
  5
160
330
1B
100
AcDbEntity
 67
     1
  8
一般
100
AcDbViewport
 10
10.59944466113311
 20
0.1456628710369046
 30
0.0
 40
364.6506466352054
 41
266.4950080793903
 68
     2
 69
     2
 12
6240.652579845351
 22
564.3214851067446
 13
0.0
 23
0.0
 14
10.0
 24
10.0
 15
10.0
 25
10.0
 16
0.0
 26
0.0
 36
1.0
 17
0.0
 27
0.0
 37
0.0
 42
50.0
 43
0.0
 44
0.0
 45
1065.980035172272
 50
0.0
 51
0.0
 72
   100
 90
   639072
340
161
  1

281
     0
 71
     1
 74
     0
110
0.0
120
0.0
130
0.0
111
1.0
121
0.0
131
0.0
112
0.0
122
1.0
132
0.0
 79
     0
146
0.0
  0
POLYLINE
  5
161
102
{ACAD_REACTORS
330
160
102
}
330
1B
100
AcDbEntity
 67
     1
  8
_Viewport_Crop
100
AcDb2dPolyline
 66
     1
 10
0.0
 20
0.0
 30
0.0
 70
   129
  0
VERTEX
  5
162
330
161
100
AcDbEntity
 67
     1
  8
_Viewport_Crop
100
AcDbVertex
100
AcDb2dVertex
 10
-171.7258786564696
 20
133.393166910732
 30
0.0
  0
VERTEX
  5
163
330
161
100
AcDbEntity
 67
     1
  8
_Viewport_Crop
100
AcDbVertex
100
AcDb2dVertex
 10
192.9247679787358
 20
133.393166910732
 30
0.0
  0
VERTEX
  5
164
330
161
100
AcDbEntity
 67
     1
  8
_Viewport_Crop
100
AcDbVertex
100
AcDb2dVertex
 10
192.9247679787358
 20
-133.1018411686582
 30
0.0
  0
VERTEX
  5
165
330
161
100
AcDbEntity
 67
     1
  8
_Viewport_Crop
100
AcDbVertex
100
AcDb2dVertex
 10
-171.7258786564696
 20
-133.1018411686582
 30
0.0
  0
SEQEND
  5
166
330
161
100
AcDbEntity
 67
     1
  8
_Viewport_Crop
  0
LINE
  5
167
330
1B
100
AcDbEntity
 67
     1
  8
ﾀｲﾄﾙ枠
  6
Continuous
100
AcDbLine
 10
-185.1884014027016
 20
140.1066160978667
 30
0.0
 11
200.8115985972983
 21
140.1066160978667
 31
0.0
  0
LINE
  5
168
330
1B
100
AcDbEntity
 67
     1
  8
ﾀｲﾄﾙ枠
  6
Continuous
100
AcDbLine
 10
200.8115985972983
 20
-139.8933839021333
 30
0.0
 11
-185.1884014027016
 21
-139.8933839021333
 31
0.0
  0
LINE
  5
169
330
1B
100
AcDbEntity
 67
     1
  8
ﾀｲﾄﾙ枠
100
AcDbLine
 10
-185.1884014027016
 20
140.1066160978667
 30
0.0
 11
-185.1884014027016
 21
-139.8933839021333
 31
0.0
  0
LINE
  5
16A
330
1B
100
AcDbEntity
 67
     1
  8
ﾀｲﾄﾙ枠
  6
Continuous
100
AcDbLine
 10
200.8115985972983
 20
140.1066160978667
 30
0.0
 11
200.8115985972983
 21
-139.8933839021333
 31
0.0
  0
LINE
  5
16B
330
1B
100
AcDbEntity
 67
     1
  8
ﾀｲﾄﾙ枠
100
AcDbLine
 10
163.5879617888234
 20
-134.8537362351886
 30
0.0
 11
164.4447116717824
 21
-134.8537362351886
 31
0.0
  0
LINE
  5
16C
330
1B
100
AcDbEntity
 67
     1
  8
ﾀｲﾄﾙ枠
100
AcDbLine
 10
164.7579617888233
 20
-132.5237362351887
 30
0.0
 11
161.4879617888232
 21
-132.5237362351887
 31
0.0
  0
LINE
  5
16D
330
1B
100
AcDbEntity
 67
     1
  8
ﾀｲﾄﾙ枠
100
AcDbLine
 10
161.4879617888232
 20
-133.6937362351886
 30
0.0
 11
164.6279617888233
 21
-133.6937362351886
 31
0.0
  0
MTEXT
  5
16E
330
1B
100
AcDbEntity
 67
     1
  8
0
100
AcDbMText
 10
144.3115985972983
 20
-120.8933839021333
 30
0.0
 40
3.0
 41
0.0
 71
     2
 72
     1
  1
{\fMS PMincho|b0|i0|c128|p0;SQR750-80-H洗面ボウル}
 73
     1
 44
0.8811854561101549
  0
LINE
  5
16F
330
1B
100
AcDbEntity
 67
     1
  8
ﾀｲﾄﾙ枠
100
AcDbLine
 10
115.8115985972983
 20
-115.8933839021333
 30
0.0
 11
200.8115985972983
 21
-115.8933839021333
 31
0.0
  0
LINE
  5
170
330
1B
100
AcDbEntity
 67
     1
  8
ﾀｲﾄﾙ枠
100
AcDbLine
 10
115.8115985972983
 20
-127.8933839021333
 30
0.0
 11
200.8115985972983
 21
-127.8933839021333
 31
0.0
  0
LINE
  5
171
330
1B
100
AcDbEntity
 67
     1
  8
ﾀｲﾄﾙ枠
100
AcDbLine
 10
115.8115985972983
 20
-139.8933839021333
 30
0.0
 11
115.8115985972983
 21
-115.8933839021333
 31
0.0
  0
LINE
  5
172
330
1B
100
AcDbEntity
 67
     1
  8
ﾀｲﾄﾙ枠
100
AcDbLine
 10
134.6279617888235
 20
-133.5737362351886
 30
0.0
 11
129.6679617888234
 21
-133.5737362351886
 31
0.0
  0
LINE
  5
173
330
1B
100
AcDbEntity
 67
     1
  8
ﾀｲﾄﾙ枠
100
AcDbLine
 10
133.6979617888233
 20
-134.6137362351886
 30
0.0
 11
130.5979617888235
 21
-134.6137362351886
 31
0.0
  0
LINE
  5
174
330
1B
100
AcDbEntity
 67
     1
  8
ﾀｲﾄﾙ枠
100
AcDbLine
 10
129.6679617888234
 20
-134.4637362351886
 30
0.0
 11
134.6279617888235
 21
-134.4637362351886
 31
0.0
  0
LINE
  5
175
330
1B
100
AcDbEntity
 67
     1
  8
ﾀｲﾄﾙ枠
100
AcDbLine
 10
129.6679617888234
 20
-133.4237362351886
 30
0.0
 11
131.6829617888233
 21
-133.4237362351886
 31
0.0
  0
LINE
  5
176
330
1B
100
AcDbEntity
 67
     1
  8
ﾀｲﾄﾙ枠
100
AcDbLine
 10
129.1479617888234
 20
-132.2537362351886
 30
0.0
 11
131.6829617888233
 21
-132.2537362351886
 31
0.0
  0
LINE
  5
177
330
1B
100
AcDbEntity
 67
     1
  8
ﾀｲﾄﾙ枠
100
AcDbLine
 10
131.6829617888233
 20
-132.4037362351887
 30
0.0
 11
129.1479617888234
 21
-132.4037362351887
 31
0.0
  0
MTEXT
  5
178
330
1B
100
AcDbEntity
 67
     1
  8
ﾀｲﾄﾙ枠
100
AcDbMText
 10
117.3115985972983
 20
-117.3933839021333
 30
0.0
 40
2.5
 41
0.0
 71
     1
 72
     1
  1
{\fMS PMincho|b0|i0|c128|p0;製品名}
 73
     1
 44
0.8811854561101549
  0
LINE
  5
179
330
1B
100
AcDbEntity
 67
     1
  8
ﾀｲﾄﾙ枠
100
AcDbLine
 10
130.5979617888235
 20
-136.2837362351887
 30
0.0
 11
133.6979617888233
 21
-136.2837362351887
 31
0.0
  0
LINE
  5
17A
330
1B
100
AcDbEntity
 67
     1
  8
ﾀｲﾄﾙ枠
100
AcDbLine
 10
134.6279617888235
 20
-136.4337362351886
 30
0.0
 11
129.6679617888234
 21
-136.4337362351886
 31
0.0
  0
LINE
  5
17B
330
1B
100
AcDbEntity
 67
     1
  8
ﾀｲﾄﾙ枠
100
AcDbLine
 10
129.6679617888234
 20
-133.5737362351886
 30
0.0
 11
129.6679617888234
 21
-133.4237362351886
 31
0.0
  0
LINE
  5
17C
330
1B
100
AcDbEntity
 67
     1
  8
ﾀｲﾄﾙ枠
100
AcDbLine
 10
129.1479617888234
 20
-132.4037362351887
 30
0.0
 11
129.1479617888234
 21
-132.2537362351886
 31
0.0
  0
LINE
  5
17D
330
1B
100
AcDbEntity
 67
     1
  8
ﾀｲﾄﾙ枠
100
AcDbLine
 10
129.6679617888234
 20
-136.4337362351886
 30
0.0
 11
129.6679617888234
 21
-134.4637362351886
 31
0.0
  0
LINE
  5
17E
330
1B
100
AcDbEntity
 67
     1
  8
ﾀｲﾄﾙ枠
100
AcDbLine
 10
129.9329617888233
 20
-134.6137362351886
 30
0.0
 11
129.9329617888233
 21
-136.2837362351887
 31
0.0
  0
LINE
  5
17F
330
1B
100
AcDbEntity
 67
     1
  8
ﾀｲﾄﾙ枠
100
AcDbLine
 10
130.3329617888234
 20
-134.6137362351886
 30
0.0
 11
130.3329617888234
 21
-136.2837362351887
 31
0.0
  0
LINE
  5
180
330
1B
100
AcDbEntity
 67
     1
  8
ﾀｲﾄﾙ枠
100
AcDbLine
 10
130.1329617888235
 20
-134.6137362351886
 30
0.0
 11
130.1329617888235
 21
-136.2837362351887
 31
0.0
  0
LINE
  5
181
330
1B
100
AcDbEntity
 67
     1
  8
ﾀｲﾄﾙ枠
100
AcDbLine
 10
130.5979617888235
 20
-134.6137362351886
 30
0.0
 11
130.5979617888235
 21
-136.2837362351887
 31
0.0
  0
LINE
  5
182
330
1B
100
AcDbEntity
 67
     1
  8
ﾀｲﾄﾙ枠
100
AcDbLine
 10
149.1124702860108
 20
-132.0137362351886
 30
0.0
 11
145.9634532916359
 21
-132.0137362351886
 31
0.0
  0
LINE
  5
183
330
1B
100
AcDbEntity
 67
     1
  8
ﾀｲﾄﾙ枠
100
AcDbLine
 10
147.9379617888233
 20
-131.3437362351886
 30
0.0
 11
147.1379617888234
 21
-131.3437362351886
 31
0.0
  0
LINE
  5
184
330
1B
100
AcDbEntity
 67
     1
  8
ﾀｲﾄﾙ枠
100
AcDbLine
 10
146.538453291636
 20
-133.1637362351887
 30
0.0
 11
148.5374702860107
 21
-133.1637362351887
 31
0.0
  0
LINE
  5
185
330
1B
100
AcDbEntity
 67
     1
  8
ﾀｲﾄﾙ枠
100
AcDbLine
 10
146.0979617888235
 20
-134.3537362351886
 30
0.0
 11
147.5279617888234
 21
-134.3537362351886
 31
0.0
  0
LINE
  5
186
330
1B
100
AcDbEntity
 67
     1
  8
ﾀｲﾄﾙ枠
100
AcDbLine
 10
147.5279617888234
 20
-134.3337362351886
 30
0.0
 11
146.3779617888233
 21
-134.3337362351886
 31
0.0
  0
LINE
  5
187
330
1B
100
AcDbEntity
 67
     1
  8
ﾀｲﾄﾙ枠
100
AcDbLine
 10
146.0979617888235
 20
-135.3937362351887
 30
0.0
 11
147.5279617888234
 21
-135.3937362351887
 31
0.0
  0
LINE
  5
188
330
1B
100
AcDbEntity
 67
     1
  8
ﾀｲﾄﾙ枠
100
AcDbLine
 10
147.5279617888234
 20
-135.3737362351886
 30
0.0
 11
146.0979617888235
 21
-135.3737362351886
 31
0.0
  0
LINE
  5
189
330
1B
100
AcDbEntity
 67
     1
  8
ﾀｲﾄﾙ枠
100
AcDbLine
 10
145.1948446886364
 20
-133.1837362351886
 30
0.0
 11
150.1479617888234
 21
-133.1837362351886
 31
0.0
  0
LINE
  5
18A
330
1B
100
AcDbEntity
 67
     1
  8
ﾀｲﾄﾙ枠
100
AcDbLine
 10
145.7079617888234
 20
-136.4337362351886
 30
0.0
 11
150.1479617888234
 21
-136.4337362351886
 31
0.0
  0
LINE
  5
18B
330
1B
100
AcDbEntity
 67
     1
  8
ﾀｲﾄﾙ枠
100
AcDbLine
 10
147.5279617888234
 20
-136.4137362351887
 30
0.0
 11
145.7079617888234
 21
-136.4137362351887
 31
0.0
  0
LINE
  5
18C
330
1B
100
AcDbEntity
 67
     1
  8
ﾀｲﾄﾙ枠
100
AcDbLine
 10
136.6479617888234
 20
-132.5337362351887
 30
0.0
 11
139.1829617888233
 21
-132.5337362351887
 31
0.0
  0
LINE
  5
18D
330
1B
100
AcDbEntity
 67
     1
  8
ﾀｲﾄﾙ枠
100
AcDbLine
 10
139.1829617888233
 20
-132.3837362351886
 30
0.0
 11
136.6479617888234
 21
-132.3837362351886
 31
0.0
  0
LINE
  5
18E
330
1B
100
AcDbEntity
 67
     1
  8
ﾀｲﾄﾙ枠
100
AcDbLine
 10
139.1829617888233
 20
-133.4052947639013
 30
0.0
 11
136.8979617888234
 21
-135.514525533132
 31
0.0
  0
LINE
  5
18F
330
1B
100
AcDbEntity
 67
     1
  8
ﾀｲﾄﾙ枠
100
AcDbLine
 10
139.1829617888233
 20
-133.0378495620936
 30
0.0
 11
136.6479617888234
 21
-135.3778495620936
 31
0.0
  0
LINE
  5
190
330
1B
100
AcDbEntity
 67
     1
  8
ﾀｲﾄﾙ枠
100
AcDbLine
 10
139.1829617888233
 20
-135.6337362351886
 30
0.0
 11
138.2079617888234
 21
-135.6337362351886
 31
0.0
  0
LINE
  5
191
330
1B
100
AcDbEntity
 67
     1
  8
ﾀｲﾄﾙ枠
100
AcDbLine
 10
138.2079617888234
 20
-135.7837362351887
 30
0.0
 11
139.1829617888233
 21
-135.7837362351887
 31
0.0
  0
LINE
  5
192
330
1B
100
AcDbEntity
 67
     1
  8
ﾀｲﾄﾙ枠
100
AcDbLine
 10
136.6479617888234
 20
-136.1127399657086
 30
0.0
 11
139.1829617888233
 21
-133.7727399657086
 31
0.0
  0
LINE
  5
193
330
1B
100
AcDbEntity
 67
     1
  8
ﾀｲﾄﾙ枠
100
AcDbLine
 10
135.1479617888234
 20
-132.4037362351887
 30
0.0
 11
132.6129617888234
 21
-132.4037362351887
 31
0.0
  0
LINE
  5
194
330
1B
100
AcDbEntity
 67
     1
  8
ﾀｲﾄﾙ枠
100
AcDbLine
 10
132.6129617888234
 20
-132.2537362351886
 30
0.0
 11
135.1479617888234
 21
-132.2537362351886
 31
0.0
  0
LINE
  5
195
330
1B
100
AcDbEntity
 67
     1
  8
ﾀｲﾄﾙ枠
100
AcDbLine
 10
132.6129617888234
 20
-133.4237362351886
 30
0.0
 11
134.6279617888235
 21
-133.4237362351886
 31
0.0
  0
LINE
  5
196
330
1B
100
AcDbEntity
 67
     1
  8
ﾀｲﾄﾙ枠
100
AcDbLine
 10
131.6829617888233
 20
-131.3437362351886
 30
0.0
 11
132.6129617888234
 21
-131.3437362351886
 31
0.0
  0
LINE
  5
197
330
1B
100
AcDbEntity
 67
     1
  8
ﾀｲﾄﾙ枠
100
AcDbLine
 10
131.6829617888233
 20
-132.2537362351886
 30
0.0
 11
131.6829617888233
 21
-131.3437362351886
 31
0.0
  0
LINE
  5
198
330
1B
100
AcDbEntity
 67
     1
  8
ﾀｲﾄﾙ枠
100
AcDbLine
 10
132.6129617888234
 20
-131.3437362351886
 30
0.0
 11
132.6129617888234
 21
-132.2537362351886
 31
0.0
  0
LINE
  5
199
330
1B
100
AcDbEntity
 67
     1
  8
ﾀｲﾄﾙ枠
100
AcDbLine
 10
131.9479617888233
 20
-133.3237362351886
 30
0.0
 11
131.9479617888233
 21
-131.5937362351886
 31
0.0
  0
LINE
  5
19A
330
1B
100
AcDbEntity
 67
     1
  8
ﾀｲﾄﾙ枠
100
AcDbLine
 10
131.6829617888233
 20
-133.4237362351886
 30
0.0
 11
131.6829617888233
 21
-132.4037362351887
 31
0.0
  0
LINE
  5
19B
330
1B
100
AcDbEntity
 67
     1
  8
ﾀｲﾄﾙ枠
100
AcDbLine
 10
132.3479617888235
 20
-133.3237362351886
 30
0.0
 11
132.3479617888235
 21
-131.5937362351886
 31
0.0
  0
LINE
  5
19C
330
1B
100
AcDbEntity
 67
     1
  8
ﾀｲﾄﾙ枠
100
AcDbLine
 10
132.1479617888234
 20
-133.3237362351886
 30
0.0
 11
132.1479617888234
 21
-131.5937362351886
 31
0.0
  0
LINE
  5
19D
330
1B
100
AcDbEntity
 67
     1
  8
ﾀｲﾄﾙ枠
100
AcDbLine
 10
132.6129617888234
 20
-132.4037362351887
 30
0.0
 11
132.6129617888234
 21
-133.4237362351886
 31
0.0
  0
LINE
  5
19E
330
1B
100
AcDbEntity
 67
     1
  8
ﾀｲﾄﾙ枠
100
AcDbLine
 10
136.6479617888234
 20
-132.3837362351886
 30
0.0
 11
136.6479617888234
 21
-132.5337362351887
 31
0.0
  0
LINE
  5
19F
330
1B
100
AcDbEntity
 67
     1
  8
ﾀｲﾄﾙ枠
100
AcDbLine
 10
135.1479617888234
 20
-132.2537362351886
 30
0.0
 11
135.1479617888234
 21
-132.4037362351887
 31
0.0
  0
LINE
  5
1A0
330
1B
100
AcDbEntity
 67
     1
  8
ﾀｲﾄﾙ枠
100
AcDbLine
 10
134.6279617888235
 20
-133.4237362351886
 30
0.0
 11
134.6279617888235
 21
-133.5737362351886
 31
0.0
  0
LINE
  5
1A1
330
1B
100
AcDbEntity
 67
     1
  8
ﾀｲﾄﾙ枠
100
AcDbLine
 10
138.2079617888234
 20
-135.6337362351886
 30
0.0
 11
138.2079617888234
 21
-135.7837362351887
 31
0.0
  0
LINE
  5
1A2
330
1B
100
AcDbEntity
 67
     1
  8
ﾀｲﾄﾙ枠
100
AcDbLine
 10
136.6479617888234
 20
-135.3778495620936
 30
0.0
 11
136.6479617888234
 21
-136.1127399657086
 31
0.0
  0
LINE
  5
1A3
330
1B
100
AcDbEntity
 67
     1
  8
ﾀｲﾄﾙ枠
100
AcDbLine
 10
134.3629617888234
 20
-136.2837362351887
 30
0.0
 11
134.3629617888234
 21
-134.6137362351886
 31
0.0
  0
LINE
  5
1A4
330
1B
100
AcDbEntity
 67
     1
  8
ﾀｲﾄﾙ枠
100
AcDbLine
 10
134.6279617888235
 20
-134.4637362351886
 30
0.0
 11
134.6279617888235
 21
-136.4337362351886
 31
0.0
  0
LINE
  5
1A5
330
1B
100
AcDbEntity
 67
     1
  8
ﾀｲﾄﾙ枠
100
AcDbLine
 10
133.9629617888234
 20
-136.2837362351887
 30
0.0
 11
133.9629617888234
 21
-134.6137362351886
 31
0.0
  0
LINE
  5
1A6
330
1B
100
AcDbEntity
 67
     1
  8
ﾀｲﾄﾙ枠
100
AcDbLine
 10
133.6979617888233
 20
-136.2837362351887
 30
0.0
 11
133.6979617888233
 21
-134.6137362351886
 31
0.0
  0
LINE
  5
1A7
330
1B
100
AcDbEntity
 67
     1
  8
ﾀｲﾄﾙ枠
100
AcDbLine
 10
134.1629617888234
 20
-136.2837362351887
 30
0.0
 11
134.1629617888234
 21
-134.6137362351886
 31
0.0
  0
LINE
  5
1A8
330
1B
100
AcDbEntity
 67
     1
  8
ﾀｲﾄﾙ枠
100
AcDbLine
 10
145.7129813376007
 20
-132.2437362351886
 30
0.0
 11
146.0924813376007
 21
-132.9337362351886
 31
0.0
  0
LINE
  5
1A9
330
1B
100
AcDbEntity
 67
     1
  8
ﾀｲﾄﾙ枠
100
AcDbLine
 10
147.3379617888234
 20
-131.7637362351886
 30
0.0
 11
147.3379617888234
 21
-131.5937362351886
 31
0.0
  0
LINE
  5
1AA
330
1B
100
AcDbEntity
 67
     1
  8
ﾀｲﾄﾙ枠
100
AcDbLine
 10
147.1379617888234
 20
-131.3437362351886
 30
0.0
 11
147.1379617888234
 21
-131.9937362351886
 31
0.0
  0
LINE
  5
1AB
330
1B
100
AcDbEntity
 67
     1
  8
ﾀｲﾄﾙ枠
100
AcDbLine
 10
146.3779617888233
 20
-133.9437362351886
 30
0.0
 11
146.0979617888235
 21
-133.9437362351886
 31
0.0
  0
LINE
  5
1AC
330
1B
100
AcDbEntity
 67
     1
  8
ﾀｲﾄﾙ枠
100
AcDbLine
 10
146.0979617888235
 20
-133.9437362351886
 30
0.0
 11
146.0979617888235
 21
-134.3537362351886
 31
0.0
  0
LINE
  5
1AD
330
1B
100
AcDbEntity
 67
     1
  8
ﾀｲﾄﾙ枠
100
AcDbLine
 10
146.3779617888233
 20
-134.3337362351886
 30
0.0
 11
146.3779617888233
 21
-133.9437362351886
 31
0.0
  0
LINE
  5
1AE
330
1B
100
AcDbEntity
 67
     1
  8
ﾀｲﾄﾙ枠
100
AcDbLine
 10
146.0979617888235
 20
-135.3737362351886
 30
0.0
 11
146.0979617888235
 21
-135.3937362351887
 31
0.0
  0
LINE
  5
1AF
330
1B
100
AcDbEntity
 67
     1
  8
ﾀｲﾄﾙ枠
100
AcDbLine
 10
145.9634532916359
 20
-132.0137362351886
 30
0.0
 11
146.538453291636
 21
-133.1637362351887
 31
0.0
  0
LINE
  5
1B0
330
1B
100
AcDbEntity
 67
     1
  8
ﾀｲﾄﾙ枠
100
AcDbLine
 10
144.6679617888234
 20
-132.0137362351886
 30
0.0
 11
145.2095093835657
 21
-132.0137362351886
 31
0.0
  0
LINE
  5
1B1
330
1B
100
AcDbEntity
 67
     1
  8
ﾀｲﾄﾙ枠
100
AcDbLine
 10
144.6679617888234
 20
-131.9937362351886
 30
0.0
 11
144.6679617888234
 21
-132.0137362351886
 31
0.0
  0
LINE
  5
1B2
330
1B
100
AcDbEntity
 67
     1
  8
ﾀｲﾄﾙ枠
100
AcDbLine
 10
142.6479617888234
 20
-132.5337362351887
 30
0.0
 11
142.6479617888234
 21
-132.3837362351886
 31
0.0
  0
LINE
  5
1B3
330
1B
100
AcDbEntity
 67
     1
  8
ﾀｲﾄﾙ枠
100
AcDbLine
 10
145.1948446886364
 20
-133.1837362351886
 30
0.0
 11
145.1021177686418
 21
-134.9455477150846
 31
0.0
  0
LINE
  5
1B4
330
1B
100
AcDbEntity
 67
     1
  8
ﾀｲﾄﾙ枠
100
AcDbLine
 10
144.8324909547221
 20
-134.9313568301416
 30
0.0
 11
144.9123657228774
 21
-133.4137362351887
 31
0.0
  0
LINE
  5
1B5
330
1B
100
AcDbEntity
 67
     1
  8
ﾀｲﾄﾙ枠
100
AcDbLine
 10
144.6551499150134
 20
-133.1637362351887
 30
0.0
 11
144.5628641408024
 21
-134.9171659451983
 31
0.0
  0
LINE
  5
1B6
330
1B
100
AcDbEntity
 67
     1
  8
ﾀｲﾄﾙ枠
100
AcDbLine
 10
147.1379617888234
 20
-131.9937362351886
 30
0.0
 11
144.6679617888234
 21
-131.9937362351886
 31
0.0
  0
LINE
  5
1B7
330
1B
100
AcDbEntity
 67
     1
  8
ﾀｲﾄﾙ枠
100
AcDbLine
 10
145.8995093835657
 20
-133.1637362351887
 30
0.0
 11
144.6551499150134
 21
-133.1637362351887
 31
0.0
  0
LINE
  5
1B8
330
1B
100
AcDbEntity
 67
     1
  8
ﾀｲﾄﾙ枠
100
AcDbLine
 10
145.2095093835657
 20
-132.0137362351886
 30
0.0
 11
145.8995093835657
 21
-133.1637362351887
 31
0.0
  0
LINE
  5
1B9
330
1B
100
AcDbEntity
 67
     1
  8
ﾀｲﾄﾙ枠
100
AcDbLine
 10
140.1129617888232
 20
-131.3437362351886
 30
0.0
 11
139.1829617888233
 21
-131.3437362351886
 31
0.0
  0
LINE
  5
1BA
330
1B
100
AcDbEntity
 67
     1
  8
ﾀｲﾄﾙ枠
100
AcDbLine
 10
139.1829617888233
 20
-131.3437362351886
 30
0.0
 11
139.1829617888233
 21
-132.3837362351886
 31
0.0
  0
LINE
  5
1BB
330
1B
100
AcDbEntity
 67
     1
  8
ﾀｲﾄﾙ枠
100
AcDbLine
 10
139.1829617888233
 20
-132.5337362351887
 30
0.0
 11
139.1829617888233
 21
-133.0378495620936
 31
0.0
  0
LINE
  5
1BC
330
1B
100
AcDbEntity
 67
     1
  8
ﾀｲﾄﾙ枠
100
AcDbLine
 10
140.1129617888232
 20
-132.3837362351886
 30
0.0
 11
140.1129617888232
 21
-131.3437362351886
 31
0.0
  0
LINE
  5
1BD
330
1B
100
AcDbEntity
 67
     1
  8
ﾀｲﾄﾙ枠
100
AcDbLine
 10
140.1129617888232
 20
-133.0378495620936
 30
0.0
 11
140.1129617888232
 21
-132.5337362351887
 31
0.0
  0
LINE
  5
1BE
330
1B
100
AcDbEntity
 67
     1
  8
ﾀｲﾄﾙ枠
100
AcDbLine
 10
142.6479617888234
 20
-132.3837362351886
 30
0.0
 11
140.1129617888232
 21
-132.3837362351886
 31
0.0
  0
LINE
  5
1BF
330
1B
100
AcDbEntity
 67
     1
  8
ﾀｲﾄﾙ枠
100
AcDbLine
 10
140.1129617888232
 20
-132.5337362351887
 30
0.0
 11
142.6479617888234
 21
-132.5337362351887
 31
0.0
  0
LINE
  5
1C0
330
1B
100
AcDbEntity
 67
     1
  8
ﾀｲﾄﾙ枠
100
AcDbLine
 10
142.3979617888234
 20
-135.514525533132
 30
0.0
 11
140.1129617888232
 21
-133.4052947639013
 31
0.0
  0
LINE
  5
1C1
330
1B
100
AcDbEntity
 67
     1
  8
ﾀｲﾄﾙ枠
100
AcDbLine
 10
142.6479617888234
 20
-135.3778495620936
 30
0.0
 11
140.1129617888232
 21
-133.0378495620936
 31
0.0
  0
LINE
  5
1C2
330
1B
100
AcDbEntity
 67
     1
  8
ﾀｲﾄﾙ枠
100
AcDbLine
 10
145.7079617888234
 20
-136.4137362351887
 30
0.0
 11
145.7079617888234
 21
-136.4337362351886
 31
0.0
  0
LINE
  5
1C3
330
1B
100
AcDbEntity
 67
     1
  8
ﾀｲﾄﾙ枠
100
AcDbLine
 10
144.8325973835947
 20
-136.4337362351886
 30
0.0
 11
144.2635121314565
 21
-136.4337362351886
 31
0.0
  0
LINE
  5
1C4
330
1B
100
AcDbEntity
 67
     1
  8
ﾀｲﾄﾙ枠
100
AcDbLine
 10
141.0879617888234
 20
-135.7837362351887
 30
0.0
 11
141.0879617888234
 21
-135.6337362351886
 31
0.0
  0
LINE
  5
1C5
330
1B
100
AcDbEntity
 67
     1
  8
ﾀｲﾄﾙ枠
100
AcDbLine
 10
139.1829617888233
 20
-136.4337362351886
 30
0.0
 11
140.1129617888232
 21
-136.4337362351886
 31
0.0
  0
LINE
  5
1C6
330
1B
100
AcDbEntity
 67
     1
  8
ﾀｲﾄﾙ枠
100
AcDbLine
 10
139.1829617888233
 20
-135.7837362351887
 30
0.0
 11
139.1829617888233
 21
-136.4337362351886
 31
0.0
  0
LINE
  5
1C7
330
1B
100
AcDbEntity
 67
     1
  8
ﾀｲﾄﾙ枠
100
AcDbLine
 10
140.1129617888232
 20
-136.4337362351886
 30
0.0
 11
140.1129617888232
 21
-135.7837362351887
 31
0.0
  0
LINE
  5
1C8
330
1B
100
AcDbEntity
 67
     1
  8
ﾀｲﾄﾙ枠
100
AcDbLine
 10
141.0879617888234
 20
-135.6337362351886
 30
0.0
 11
140.1129617888232
 21
-135.6337362351886
 31
0.0
  0
LINE
  5
1C9
330
1B
100
AcDbEntity
 67
     1
  8
ﾀｲﾄﾙ枠
100
AcDbLine
 10
140.1129617888232
 20
-135.7837362351887
 30
0.0
 11
141.0879617888234
 21
-135.7837362351887
 31
0.0
  0
LINE
  5
1CA
330
1B
100
AcDbEntity
 67
     1
  8
ﾀｲﾄﾙ枠
100
AcDbLine
 10
139.1829617888233
 20
-133.7727399657086
 30
0.0
 11
139.1829617888233
 21
-135.6337362351886
 31
0.0
  0
LINE
  5
1CB
330
1B
100
AcDbEntity
 67
     1
  8
ﾀｲﾄﾙ枠
100
AcDbLine
 10
140.1129617888232
 20
-133.7727399657086
 30
0.0
 11
142.6479617888234
 21
-136.1127399657086
 31
0.0
  0
LINE
  5
1CC
330
1B
100
AcDbEntity
 67
     1
  8
ﾀｲﾄﾙ枠
100
AcDbLine
 10
140.1129617888232
 20
-135.6337362351886
 30
0.0
 11
140.1129617888232
 21
-133.7727399657086
 31
0.0
  0
LINE
  5
1CD
330
1B
100
AcDbEntity
 67
     1
  8
ﾀｲﾄﾙ枠
100
AcDbLine
 10
139.4479617888233
 20
-136.1837362351886
 30
0.0
 11
139.4479617888233
 21
-131.5937362351886
 31
0.0
  0
LINE
  5
1CE
330
1B
100
AcDbEntity
 67
     1
  8
ﾀｲﾄﾙ枠
100
AcDbLine
 10
139.8479617888235
 20
-136.1837362351886
 30
0.0
 11
139.8479617888235
 21
-131.5937362351886
 31
0.0
  0
LINE
  5
1CF
330
1B
100
AcDbEntity
 67
     1
  8
ﾀｲﾄﾙ枠
100
AcDbLine
 10
139.6479617888234
 20
-136.1837362351886
 30
0.0
 11
139.6479617888234
 21
-131.5937362351886
 31
0.0
  0
ARC
  5
1D0
330
1B
100
AcDbEntity
 67
     1
  8
ﾀｲﾄﾙ枠
100
AcDbCircle
 10
139.12039697094
 20
-134.6307203046793
 30
0.0
 40
5.450000000000004
100
AcDbArc
 50
340.6809234802242
 51
356.9872124958147
  0
ARC
  5
1D1
330
1B
100
AcDbEntity
 67
     1
  8
ﾀｲﾄﾙ枠
100
AcDbCircle
 10
139.12039697094
 20
-134.6307203046793
 30
0.0
 40
5.990000000000015
100
AcDbArc
 50
342.482064570996
 51
356.9872124958146
  0
ARC
  5
1D2
330
1B
100
AcDbEntity
 67
     1
  8
ﾀｲﾄﾙ枠
100
AcDbCircle
 10
139.12039697094
 20
-134.6307203046793
 30
0.0
 40
5.720000000000007
100
AcDbArc
 50
344.2460809455043
 51
356.9872124958146
  0
LINE
  5
1D3
330
1B
100
AcDbEntity
 67
     1
  8
ﾀｲﾄﾙ枠
100
AcDbLine
 10
142.6479617888234
 20
-136.1127399657086
 30
0.0
 11
142.6479617888234
 21
-135.3778495620936
 31
0.0
  0
LINE
  5
1D4
330
1B
100
AcDbEntity
 67
     1
  8
ﾀｲﾄﾙ枠
100
AcDbLine
 10
157.3879617888234
 20
-134.9287362351886
 30
0.0
 11
155.1129617888234
 21
-134.9287362351886
 31
0.0
  0
LINE
  5
1D5
330
1B
100
AcDbEntity
 67
     1
  8
ﾀｲﾄﾙ枠
100
AcDbLine
 10
155.1129617888234
 20
-134.1487362351887
 30
0.0
 11
156.7379617888234
 21
-134.1487362351887
 31
0.0
  0
LINE
  5
1D6
330
1B
100
AcDbEntity
 67
     1
  8
ﾀｲﾄﾙ枠
100
AcDbLine
 10
155.404018963964
 20
-133.3687362351886
 30
0.0
 11
156.7329252139641
 21
-131.3437362351886
 31
0.0
  0
LINE
  5
1D7
330
1B
100
AcDbEntity
 67
     1
  8
ﾀｲﾄﾙ枠
100
AcDbLine
 10
157.1279617888235
 20
-133.3687362351886
 30
0.0
 11
152.1679617888234
 21
-133.3687362351886
 31
0.0
  0
LINE
  5
1D8
330
1B
100
AcDbEntity
 67
     1
  8
ﾀｲﾄﾙ枠
100
AcDbLine
 10
155.5679617888233
 20
-131.3437362351886
 30
0.0
 11
155.0929617888234
 21
-131.3437362351886
 31
0.0
  0
LINE
  5
1D9
330
1B
100
AcDbEntity
 67
     1
  8
ﾀｲﾄﾙ枠
100
AcDbLine
 10
155.1129617888234
 20
-134.9529413156067
 30
0.0
 11
157.3879617888234
 21
-136.2529413156066
 31
0.0
  0
LINE
  5
1DA
330
1B
100
AcDbEntity
 67
     1
  8
ﾀｲﾄﾙ枠
100
AcDbLine
 10
155.0929617888234
 20
-132.3287362351886
 30
0.0
 11
154.2029617888234
 21
-132.3287362351886
 31
0.0
  0
LINE
  5
1DB
330
1B
100
AcDbEntity
 67
     1
  8
ﾀｲﾄﾙ枠
100
AcDbLine
 10
153.7279617888234
 20
-131.3437362351886
 30
0.0
 11
153.7279617888234
 21
-132.3287362351886
 31
0.0
  0
LINE
  5
1DC
330
1B
100
AcDbEntity
 67
     1
  8
ﾀｲﾄﾙ枠
100
AcDbLine
 10
154.2029617888234
 20
-131.3437362351886
 30
0.0
 11
153.7279617888234
 21
-131.3437362351886
 31
0.0
  0
LINE
  5
1DD
330
1B
100
AcDbEntity
 67
     1
  8
ﾀｲﾄﾙ枠
100
AcDbLine
 10
154.2029617888234
 20
-132.3287362351886
 30
0.0
 11
154.2029617888234
 21
-131.3437362351886
 31
0.0
  0
LINE
  5
1DE
330
1B
100
AcDbEntity
 67
     1
  8
ﾀｲﾄﾙ枠
100
AcDbLine
 10
155.0929617888234
 20
-131.3437362351886
 30
0.0
 11
155.0929617888234
 21
-132.3287362351886
 31
0.0
  0
LINE
  5
1DF
330
1B
100
AcDbEntity
 67
     1
  8
ﾀｲﾄﾙ枠
100
AcDbLine
 10
151.8732194113071
 20
-131.3437362351886
 30
0.0
 11
152.5629983636827
 21
-131.3437362351886
 31
0.0
  0
LINE
  5
1E0
330
1B
100
AcDbEntity
 67
     1
  8
ﾀｲﾄﾙ枠
100
AcDbLine
 10
152.5504069113071
 20
-132.3287362351886
 30
0.0
 11
151.6479617888234
 21
-132.3287362351886
 31
0.0
  0
LINE
  5
1E1
330
1B
100
AcDbEntity
 67
     1
  8
ﾀｲﾄﾙ枠
100
AcDbLine
 10
152.386077637495
 20
-131.5937362351886
 30
0.0
 11
153.4106870124947
 21
-133.1187362351886
 31
0.0
  0
LINE
  5
1E2
330
1B
100
AcDbEntity
 67
     1
  8
ﾀｲﾄﾙ枠
100
AcDbLine
 10
153.2654069113071
 20
-133.3687362351886
 30
0.0
 11
151.8732194113071
 21
-131.3437362351886
 31
0.0
  0
LINE
  5
1E3
330
1B
100
AcDbEntity
 67
     1
  8
ﾀｲﾄﾙ枠
100
AcDbLine
 10
153.7279617888234
 20
-132.3287362351886
 30
0.0
 11
153.2094046136828
 21
-132.3287362351886
 31
0.0
  0
LINE
  5
1E4
330
1B
100
AcDbEntity
 67
     1
  8
ﾀｲﾄﾙ枠
100
AcDbLine
 10
152.5579617888233
 20
-134.1487362351887
 30
0.0
 11
154.1829617888233
 21
-134.1487362351887
 31
0.0
  0
LINE
  5
1E5
330
1B
100
AcDbEntity
 67
     1
  8
ﾀｲﾄﾙ枠
100
AcDbLine
 10
154.1829617888233
 20
-134.9287362351886
 30
0.0
 11
151.9079617888234
 21
-134.9287362351886
 31
0.0
  0
LINE
  5
1E6
330
1B
100
AcDbEntity
 67
     1
  8
ﾀｲﾄﾙ枠
100
AcDbLine
 10
152.5629983636827
 20
-131.3437362351886
 30
0.0
 11
153.8919046136827
 21
-133.3687362351886
 31
0.0
  0
LINE
  5
1E7
330
1B
100
AcDbEntity
 67
     1
  8
ﾀｲﾄﾙ枠
100
AcDbLine
 10
150.1479617888234
 20
-131.9937362351886
 30
0.0
 11
147.9379617888233
 21
-131.9937362351886
 31
0.0
  0
LINE
  5
1E8
330
1B
100
AcDbEntity
 67
     1
  8
ﾀｲﾄﾙ枠
100
AcDbLine
 10
148.9834422400461
 20
-132.9337362351886
 30
0.0
 11
149.3629422400461
 21
-132.2437362351886
 31
0.0
  0
LINE
  5
1E9
330
1B
100
AcDbEntity
 67
     1
  8
ﾀｲﾄﾙ枠
100
AcDbLine
 10
148.3279617888234
 20
-134.3537362351886
 30
0.0
 11
150.1479617888234
 21
-134.3537362351886
 31
0.0
  0
LINE
  5
1EA
330
1B
100
AcDbEntity
 67
     1
  8
ﾀｲﾄﾙ枠
100
AcDbLine
 10
150.1479617888234
 20
-134.3337362351886
 30
0.0
 11
148.3279617888234
 21
-134.3337362351886
 31
0.0
  0
LINE
  5
1EB
330
1B
100
AcDbEntity
 67
     1
  8
ﾀｲﾄﾙ枠
100
AcDbLine
 10
150.1479617888234
 20
-133.1637362351887
 30
0.0
 11
149.176414194081
 21
-133.1637362351887
 31
0.0
  0
LINE
  5
1EC
330
1B
100
AcDbEntity
 67
     1
  8
ﾀｲﾄﾙ枠
100
AcDbLine
 10
149.8879617888234
 20
-135.3737362351886
 30
0.0
 11
148.3279617888234
 21
-135.3737362351886
 31
0.0
  0
LINE
  5
1ED
330
1B
100
AcDbEntity
 67
     1
  8
ﾀｲﾄﾙ枠
100
AcDbLine
 10
148.3279617888234
 20
-135.3937362351887
 30
0.0
 11
149.8879617888234
 21
-135.3937362351887
 31
0.0
  0
LINE
  5
1EE
330
1B
100
AcDbEntity
 67
     1
  8
ﾀｲﾄﾙ枠
100
AcDbLine
 10
149.176414194081
 20
-133.1637362351887
 30
0.0
 11
149.8664141940812
 21
-132.0137362351886
 31
0.0
  0
LINE
  5
1EF
330
1B
100
AcDbEntity
 67
     1
  8
ﾀｲﾄﾙ枠
100
AcDbLine
 10
147.5379617888234
 20
-131.7637362351886
 30
0.0
 11
147.5379617888234
 21
-131.5937362351886
 31
0.0
  0
LINE
  5
1F0
330
1B
100
AcDbEntity
 67
     1
  8
ﾀｲﾄﾙ枠
100
AcDbLine
 10
147.9379617888233
 20
-131.9937362351886
 30
0.0
 11
147.9379617888233
 21
-131.3437362351886
 31
0.0
  0
LINE
  5
1F1
330
1B
100
AcDbEntity
 67
     1
  8
ﾀｲﾄﾙ枠
100
AcDbLine
 10
147.7379617888234
 20
-131.7637362351886
 30
0.0
 11
147.7379617888234
 21
-131.5937362351886
 31
0.0
  0
LINE
  5
1F2
330
1B
100
AcDbEntity
 67
     1
  8
ﾀｲﾄﾙ枠
100
AcDbLine
 10
148.3279617888234
 20
-134.3337362351886
 30
0.0
 11
148.3279617888234
 21
-133.9437362351886
 31
0.0
  0
LINE
  5
1F3
330
1B
100
AcDbEntity
 67
     1
  8
ﾀｲﾄﾙ枠
100
AcDbLine
 10
147.5279617888234
 20
-133.9437362351886
 30
0.0
 11
147.5279617888234
 21
-134.3337362351886
 31
0.0
  0
LINE
  5
1F4
330
1B
100
AcDbEntity
 67
     1
  8
ﾀｲﾄﾙ枠
100
AcDbLine
 10
148.3279617888234
 20
-133.9437362351886
 30
0.0
 11
147.5279617888234
 21
-133.9437362351886
 31
0.0
  0
LINE
  5
1F5
330
1B
100
AcDbEntity
 67
     1
  8
ﾀｲﾄﾙ枠
100
AcDbLine
 10
148.3279617888234
 20
-135.3737362351886
 30
0.0
 11
148.3279617888234
 21
-134.3537362351886
 31
0.0
  0
LINE
  5
1F6
330
1B
100
AcDbEntity
 67
     1
  8
ﾀｲﾄﾙ枠
100
AcDbLine
 10
147.5279617888234
 20
-134.3537362351886
 30
0.0
 11
147.5279617888234
 21
-135.3737362351886
 31
0.0
  0
LINE
  5
1F7
330
1B
100
AcDbEntity
 67
     1
  8
ﾀｲﾄﾙ枠
100
AcDbLine
 10
148.5374702860107
 20
-133.1637362351887
 30
0.0
 11
149.1124702860108
 21
-132.0137362351886
 31
0.0
  0
LINE
  5
1F8
330
1B
100
AcDbEntity
 67
     1
  8
ﾀｲﾄﾙ枠
100
AcDbLine
 10
150.1479617888234
 20
-132.0137362351886
 30
0.0
 11
150.1479617888234
 21
-131.9937362351886
 31
0.0
  0
LINE
  5
1F9
330
1B
100
AcDbEntity
 67
     1
  8
ﾀｲﾄﾙ枠
100
AcDbLine
 10
149.8664141940812
 20
-132.0137362351886
 30
0.0
 11
150.1479617888234
 21
-132.0137362351886
 31
0.0
  0
LINE
  5
1FA
330
1B
100
AcDbEntity
 67
     1
  8
ﾀｲﾄﾙ枠
100
AcDbLine
 10
150.1479617888234
 20
-134.3537362351886
 30
0.0
 11
150.1479617888234
 21
-134.3337362351886
 31
0.0
  0
LINE
  5
1FB
330
1B
100
AcDbEntity
 67
     1
  8
ﾀｲﾄﾙ枠
100
AcDbLine
 10
150.1479617888234
 20
-133.1837362351886
 30
0.0
 11
150.1479617888234
 21
-133.1637362351887
 31
0.0
  0
LINE
  5
1FC
330
1B
100
AcDbEntity
 67
     1
  8
ﾀｲﾄﾙ枠
100
AcDbLine
 10
149.8879617888234
 20
-135.3937362351887
 30
0.0
 11
149.8879617888234
 21
-135.3737362351886
 31
0.0
  0
LINE
  5
1FD
330
1B
100
AcDbEntity
 67
     1
  8
ﾀｲﾄﾙ枠
100
AcDbLine
 10
154.1829617888233
 20
-136.4337362351886
 30
0.0
 11
155.1129617888234
 21
-136.4337362351886
 31
0.0
  0
LINE
  5
1FE
330
1B
100
AcDbEntity
 67
     1
  8
ﾀｲﾄﾙ枠
100
AcDbLine
 10
151.9079617888234
 20
-136.2529413156066
 30
0.0
 11
151.9079617888234
 21
-135.7888168690563
 31
0.0
  0
LINE
  5
1FF
330
1B
100
AcDbEntity
 67
     1
  8
ﾀｲﾄﾙ枠
100
AcDbLine
 10
150.1479617888234
 20
-136.4137362351887
 30
0.0
 11
148.3279617888234
 21
-136.4137362351887
 31
0.0
  0
LINE
  5
200
330
1B
100
AcDbEntity
 67
     1
  8
ﾀｲﾄﾙ枠
100
AcDbLine
 10
150.1479617888234
 20
-136.4337362351886
 30
0.0
 11
150.1479617888234
 21
-136.4137362351887
 31
0.0
  0
LINE
  5
201
330
1B
100
AcDbEntity
 67
     1
  8
ﾀｲﾄﾙ枠
100
AcDbLine
 10
155.1129617888234
 20
-136.4337362351886
 30
0.0
 11
155.1129617888234
 21
-133.3687362351886
 31
0.0
  0
LINE
  5
202
330
1B
100
AcDbEntity
 67
     1
  8
ﾀｲﾄﾙ枠
100
AcDbLine
 10
154.1829617888233
 20
-133.3687362351886
 30
0.0
 11
154.1829617888233
 21
-136.4337362351886
 31
0.0
  0
LINE
  5
203
330
1B
100
AcDbEntity
 67
     1
  8
ﾀｲﾄﾙ枠
100
AcDbLine
 10
154.4479617888233
 20
-133.6187362351886
 30
0.0
 11
154.4479617888233
 21
-136.1837362351886
 31
0.0
  0
LINE
  5
204
330
1B
100
AcDbEntity
 67
     1
  8
ﾀｲﾄﾙ枠
100
AcDbLine
 10
154.8479617888235
 20
-133.6187362351886
 30
0.0
 11
154.8479617888235
 21
-136.1837362351886
 31
0.0
  0
LINE
  5
205
330
1B
100
AcDbEntity
 67
     1
  8
ﾀｲﾄﾙ枠
100
AcDbLine
 10
154.6479617888234
 20
-133.6187362351886
 30
0.0
 11
154.6479617888234
 21
-136.1837362351886
 31
0.0
  0
LINE
  5
206
330
1B
100
AcDbEntity
 67
     1
  8
ﾀｲﾄﾙ枠
100
AcDbLine
 10
147.5279617888234
 20
-135.3937362351887
 30
0.0
 11
147.5279617888234
 21
-136.4137362351887
 31
0.0
  0
LINE
  5
207
330
1B
100
AcDbEntity
 67
     1
  8
ﾀｲﾄﾙ枠
100
AcDbLine
 10
148.3279617888234
 20
-136.4137362351887
 30
0.0
 11
148.3279617888234
 21
-135.3937362351887
 31
0.0
  0
LINE
  5
208
330
1B
100
AcDbEntity
 67
     1
  8
ﾀｲﾄﾙ枠
100
AcDbLine
 10
147.7279617888233
 20
-134.1937362351886
 30
0.0
 11
147.7279617888233
 21
-136.1837362351886
 31
0.0
  0
LINE
  5
209
330
1B
100
AcDbEntity
 67
     1
  8
ﾀｲﾄﾙ枠
100
AcDbLine
 10
148.1279617888233
 20
-134.1937362351886
 30
0.0
 11
148.1279617888233
 21
-136.1837362351886
 31
0.0
  0
LINE
  5
20A
330
1B
100
AcDbEntity
 67
     1
  8
ﾀｲﾄﾙ枠
100
AcDbLine
 10
147.9279617888234
 20
-134.1937362351886
 30
0.0
 11
147.9279617888234
 21
-136.1837362351886
 31
0.0
  0
LINE
  5
20B
330
1B
100
AcDbEntity
 67
     1
  8
ﾀｲﾄﾙ枠
100
AcDbLine
 10
151.9079617888234
 20
-135.7888168690563
 30
0.0
 11
153.413102898092
 21
-134.9287362351886
 31
0.0
  0
LINE
  5
20C
330
1B
100
AcDbEntity
 67
     1
  8
ﾀｲﾄﾙ枠
100
AcDbLine
 10
154.1829617888233
 20
-134.9529413156067
 30
0.0
 11
151.9079617888234
 21
-136.2529413156066
 31
0.0
  0
LINE
  5
20D
330
1B
100
AcDbEntity
 67
     1
  8
ﾀｲﾄﾙ枠
100
AcDbLine
 10
162.9179617888234
 20
-131.3437362351886
 30
0.0
 11
163.5879617888234
 21
-131.3437362351886
 31
0.0
  0
LINE
  5
20E
330
1B
100
AcDbEntity
 67
     1
  8
ﾀｲﾄﾙ枠
100
AcDbLine
 10
161.8979617888234
 20
-131.3437362351886
 30
0.0
 11
161.8979617888234
 21
-132.5237362351887
 31
0.0
  0
LINE
  5
20F
330
1B
100
AcDbEntity
 67
     1
  8
ﾀｲﾄﾙ枠
100
AcDbLine
 10
162.9179617888234
 20
-134.8537362351886
 30
0.0
 11
162.0424702860111
 21
-134.8537362351886
 31
0.0
  0
LINE
  5
210
330
1B
100
AcDbEntity
 67
     1
  8
ﾀｲﾄﾙ枠
100
AcDbLine
 10
156.086518963964
 20
-132.3287362351886
 30
0.0
 11
155.5679617888233
 21
-132.3287362351886
 31
0.0
  0
LINE
  5
211
330
1B
100
AcDbEntity
 67
     1
  8
ﾀｲﾄﾙ枠
100
AcDbLine
 10
155.5679617888233
 20
-132.3287362351886
 30
0.0
 11
155.5679617888233
 21
-131.3437362351886
 31
0.0
  0
LINE
  5
212
330
1B
100
AcDbEntity
 67
     1
  8
ﾀｲﾄﾙ枠
100
AcDbLine
 10
156.7329252139641
 20
-131.3437362351886
 30
0.0
 11
157.4227041663397
 21
-131.3437362351886
 31
0.0
  0
LINE
  5
213
330
1B
100
AcDbEntity
 67
     1
  8
ﾀｲﾄﾙ枠
100
AcDbLine
 10
157.6479617888234
 20
-132.3287362351886
 30
0.0
 11
156.7455166663401
 21
-132.3287362351886
 31
0.0
  0
LINE
  5
214
330
1B
100
AcDbEntity
 67
     1
  8
ﾀｲﾄﾙ枠
100
AcDbLine
 10
157.4227041663397
 20
-131.3437362351886
 30
0.0
 11
156.0305166663398
 21
-133.3687362351886
 31
0.0
  0
LINE
  5
215
330
1B
100
AcDbEntity
 67
     1
  8
ﾀｲﾄﾙ枠
100
AcDbLine
 10
155.885236565152
 20
-133.1187362351886
 30
0.0
 11
156.9098459401521
 21
-131.5937362351886
 31
0.0
  0
LINE
  5
216
330
1B
100
AcDbEntity
 67
     1
  8
ﾀｲﾄﾙ枠
100
AcDbLine
 10
161.4879617888232
 20
-132.5237362351887
 30
0.0
 11
161.4879617888232
 21
-131.3437362351886
 31
0.0
  0
LINE
  5
217
330
1B
100
AcDbEntity
 67
     1
  8
ﾀｲﾄﾙ枠
100
AcDbLine
 10
160.2079617888234
 20
-131.3437362351886
 30
0.0
 11
160.2079617888234
 21
-132.5237362351887
 31
0.0
  0
LINE
  5
218
330
1B
100
AcDbEntity
 67
     1
  8
ﾀｲﾄﾙ枠
100
AcDbLine
 10
159.6679617888234
 20
-132.5237362351887
 30
0.0
 11
159.6679617888234
 21
-131.3437362351886
 31
0.0
  0
LINE
  5
219
330
1B
100
AcDbEntity
 67
     1
  8
ﾀｲﾄﾙ枠
100
AcDbLine
 10
159.6679617888234
 20
-131.3437362351886
 30
0.0
 11
160.2079617888234
 21
-131.3437362351886
 31
0.0
  0
LINE
  5
21A
330
1B
100
AcDbEntity
 67
     1
  8
ﾀｲﾄﾙ枠
100
AcDbLine
 10
160.5979617888235
 20
-132.5237362351887
 30
0.0
 11
159.1479617888234
 21
-132.5237362351887
 31
0.0
  0
LINE
  5
21B
330
1B
100
AcDbEntity
 67
     1
  8
ﾀｲﾄﾙ枠
100
AcDbLine
 10
160.5979617888235
 20
-133.387069568522
 30
0.0
 11
160.5979617888235
 21
-133.8537362351886
 31
0.0
  0
LINE
  5
21C
330
1B
100
AcDbEntity
 67
     1
  8
ﾀｲﾄﾙ枠
100
AcDbLine
 10
160.5979617888235
 20
-133.8537362351886
 30
0.0
 11
160.2079617888234
 21
-133.3337362351886
 31
0.0
  0
LINE
  5
21D
330
1B
100
AcDbEntity
 67
     1
  8
ﾀｲﾄﾙ枠
100
AcDbLine
 10
159.6679617888234
 20
-134.4423451259203
 30
0.0
 11
159.1479617888234
 21
-135.35234512592
 31
0.0
  0
LINE
  5
21E
330
1B
100
AcDbEntity
 67
     1
  8
ﾀｲﾄﾙ枠
100
AcDbLine
 10
159.3979617888234
 20
-134.4009297795806
 30
0.0
 11
159.7295909090018
 21
-133.6830406805543
 31
0.0
  0
LINE
  5
21F
330
1B
100
AcDbEntity
 67
     1
  8
ﾀｲﾄﾙ枠
100
AcDbLine
 10
159.1479617888234
 20
-135.35234512592
 30
0.0
 11
159.1479617888234
 21
-134.1318818360803
 31
0.0
  0
LINE
  5
220
330
1B
100
AcDbEntity
 67
     1
  8
ﾀｲﾄﾙ枠
100
AcDbLine
 10
159.1479617888234
 20
-134.1318818360803
 30
0.0
 11
159.79122002918
 21
-132.5237362351887
 31
0.0
  0
LINE
  5
221
330
1B
100
AcDbEntity
 67
     1
  8
ﾀｲﾄﾙ枠
100
AcDbLine
 10
159.9504617888234
 20
-132.5237362351887
 30
0.0
 11
160.5979617888235
 21
-133.387069568522
 31
0.0
  0
LINE
  5
222
330
1B
100
AcDbEntity
 67
     1
  8
ﾀｲﾄﾙ枠
100
AcDbLine
 10
161.4879617888232
 20
-131.3437362351886
 30
0.0
 11
161.8979617888234
 21
-131.3437362351886
 31
0.0
  0
LINE
  5
223
330
1B
100
AcDbEntity
 67
     1
  8
ﾀｲﾄﾙ枠
100
AcDbLine
 10
163.5879617888234
 20
-136.4337362351886
 30
0.0
 11
162.9179617888234
 21
-136.4337362351886
 31
0.0
  0
LINE
  5
224
330
1B
100
AcDbEntity
 67
     1
  8
ﾀｲﾄﾙ枠
100
AcDbLine
 10
157.3879617888234
 20
-136.2529413156066
 30
0.0
 11
157.3879617888234
 21
-135.7888168690563
 31
0.0
  0
LINE
  5
225
330
1B
100
AcDbEntity
 67
     1
  8
ﾀｲﾄﾙ枠
100
AcDbLine
 10
160.2079617888234
 20
-136.4337362351886
 30
0.0
 11
159.6679617888234
 21
-136.4337362351886
 31
0.0
  0
LINE
  5
226
330
1B
100
AcDbEntity
 67
     1
  8
ﾀｲﾄﾙ枠
100
AcDbLine
 10
161.2524702860108
 20
-136.4337362351886
 30
0.0
 11
161.7108642213983
 21
-136.4337362351886
 31
0.0
  0
LINE
  5
227
330
1B
100
AcDbEntity
 67
     1
  8
ﾀｲﾄﾙ枠
100
AcDbLine
 10
161.7108642213983
 20
-136.4337362351886
 30
0.0
 11
162.5008642213984
 21
-134.8537362351886
 31
0.0
  0
LINE
  5
228
330
1B
100
AcDbEntity
 67
     1
  8
ﾀｲﾄﾙ枠
100
AcDbLine
 10
162.9179617888234
 20
-136.4337362351886
 30
0.0
 11
162.9179617888234
 21
-131.3437362351886
 31
0.0
  0
LINE
  5
229
330
1B
100
AcDbEntity
 67
     1
  8
ﾀｲﾄﾙ枠
100
AcDbLine
 10
163.5879617888234
 20
-131.3437362351886
 30
0.0
 11
163.5879617888234
 21
-136.4337362351886
 31
0.0
  0
LINE
  5
22A
330
1B
100
AcDbEntity
 67
     1
  8
ﾀｲﾄﾙ枠
100
AcDbLine
 10
163.2529617888233
 20
-136.1837362351886
 30
0.0
 11
163.2529617888233
 21
-131.5937362351886
 31
0.0
  0
LINE
  5
22B
330
1B
100
AcDbEntity
 67
     1
  8
ﾀｲﾄﾙ枠
100
AcDbLine
 10
157.3879617888234
 20
-135.7888168690563
 30
0.0
 11
155.8828206795548
 21
-134.9287362351886
 31
0.0
  0
LINE
  5
22C
330
1B
100
AcDbEntity
 67
     1
  8
ﾀｲﾄﾙ枠
100
AcDbLine
 10
159.6679617888234
 20
-136.4337362351886
 30
0.0
 11
159.6679617888234
 21
-134.4423451259203
 31
0.0
  0
LINE
  5
22D
330
1B
100
AcDbEntity
 67
     1
  8
ﾀｲﾄﾙ枠
100
AcDbLine
 10
160.2079617888234
 20
-133.3337362351886
 30
0.0
 11
160.2079617888234
 21
-136.4337362351886
 31
0.0
  0
LINE
  5
22E
330
1B
100
AcDbEntity
 67
     1
  8
ﾀｲﾄﾙ枠
100
AcDbLine
 10
159.9379617888233
 20
-131.5937362351886
 30
0.0
 11
159.9379617888233
 21
-136.1837362351886
 31
0.0
  0
LINE
  5
22F
330
1B
100
AcDbEntity
 67
     1
  8
ﾀｲﾄﾙ枠
100
AcDbLine
 10
162.0424702860111
 20
-134.8537362351886
 30
0.0
 11
161.2524702860108
 21
-136.4337362351886
 31
0.0
  0
MTEXT
  5
230
330
1B
100
AcDbEntity
 67
     1
  8
0
100
AcDbMText
 10
189.3115985972983
 20
-118.3933839021333
 30
0.0
 40
3.5
 41
0.0
 71
     2
 72
     1
  1
{\fMS PMincho|b0|i0|c128|p0;1/4}
 73
     1
 44
0.8811854561101549
  0
MTEXT
  5
231
330
1B
100
AcDbEntity
 67
     1
  8
ﾀｲﾄﾙ枠
100
AcDbMText
 10
175.3115985972983
 20
-116.6433839021333
 30
0.0
 40
2.5
 41
0.0
 71
     2
 72
     1
  1
{\fMS PMincho|b0|i0|c128|p0;縮}
 73
     1
 44
0.8811854561101549
  0
MTEXT
  5
232
330
1B
100
AcDbEntity
 67
     1
  8
ﾀｲﾄﾙ枠
100
AcDbMText
 10
175.3115985972983
 20
-122.1433839021333
 30
0.0
 40
2.5
 41
0.0
 71
     2
 72
     1
  1
{\fMS PMincho|b0|i0|c128|p0;尺}
 73
     1
 44
0.8811854561101549
  0
LINE
  5
233
330
1B
100
AcDbEntity
 67
     1
  8
ﾀｲﾄﾙ枠
100
AcDbLine
 10
172.8115985972983
 20
-127.8933839021333
 30
0.0
 11
172.8115985972983
 21
-115.8933839021333
 31
0.0
  0
LINE
  5
234
330
1B
100
AcDbEntity
 67
     1
  8
ﾀｲﾄﾙ枠
100
AcDbLine
 10
171.7179617888233
 20
-131.6037362351886
 30
0.0
 11
172.2579617888235
 21
-131.6037362351886
 31
0.0
  0
LINE
  5
235
330
1B
100
AcDbEntity
 67
     1
  8
ﾀｲﾄﾙ枠
100
AcDbLine
 10
172.2579617888235
 20
-131.7537362351886
 30
0.0
 11
171.7179617888233
 21
-131.7537362351886
 31
0.0
  0
LINE
  5
236
330
1B
100
AcDbEntity
 67
     1
  8
ﾀｲﾄﾙ枠
100
AcDbLine
 10
166.9079617888234
 20
-132.5237362351887
 30
0.0
 11
172.2579617888235
 21
-132.5237362351887
 31
0.0
  0
LINE
  5
237
330
1B
100
AcDbEntity
 67
     1
  8
ﾀｲﾄﾙ枠
100
AcDbLine
 10
172.301205074344
 20
-136.4337362351886
 30
0.0
 11
171.393555712605
 21
-136.4337362351886
 31
0.0
  0
LINE
  5
238
330
1B
100
AcDbEntity
 67
     1
  8
ﾀｲﾄﾙ枠
100
AcDbLine
 10
171.1221353069024
 20
-132.5337362351887
 30
0.0
 11
172.301205074344
 21
-136.4337362351886
 31
0.0
  0
LINE
  5
239
330
1B
100
AcDbEntity
 67
     1
  8
ﾀｲﾄﾙ枠
100
AcDbLine
 10
170.6060956552755
 20
-131.5646319577605
 30
0.0
 11
172.0113680090693
 21
-136.2128405126167
 31
0.0
  0
LINE
  5
23A
330
1B
100
AcDbEntity
 67
     1
  8
ﾀｲﾄﾙ枠
100
AcDbLine
 10
170.7623678650417
 20
-131.3437362351886
 30
0.0
 11
171.1160887952744
 21
-132.5137362351886
 31
0.0
  0
LINE
  5
23B
330
1B
100
AcDbEntity
 67
     1
  8
ﾀｲﾄﾙ枠
100
AcDbLine
 10
171.7179617888233
 20
-131.7537362351886
 30
0.0
 11
171.7179617888233
 21
-131.6037362351886
 31
0.0
  0
LINE
  5
23C
330
1B
100
AcDbEntity
 67
     1
  8
ﾀｲﾄﾙ枠
100
AcDbLine
 10
168.4879617888234
 20
-135.025929801429
 30
0.0
 11
168.4879617888234
 21
-133.4337362351886
 31
0.0
  0
LINE
  5
23D
330
1B
100
AcDbEntity
 67
     1
  8
ﾀｲﾄﾙ枠
100
AcDbLine
 10
167.6879617888233
 20
-135.121929801429
 30
0.0
 11
167.6879617888233
 21
-133.4337362351886
 31
0.0
  0
LINE
  5
23E
330
1B
100
AcDbEntity
 67
     1
  8
ﾀｲﾄﾙ枠
100
AcDbLine
 10
168.0879617888234
 20
-133.6837362351886
 30
0.0
 11
168.0879617888234
 21
-135.073929801429
 31
0.0
  0
LINE
  5
23F
330
1B
100
AcDbEntity
 67
     1
  8
ﾀｲﾄﾙ枠
100
AcDbLine
 10
166.9079617888234
 20
-135.215529801429
 30
0.0
 11
169.6579617888234
 21
-134.885529801429
 31
0.0
  0
LINE
  5
240
330
1B
100
AcDbEntity
 67
     1
  8
ﾀｲﾄﾙ枠
100
AcDbLine
 10
169.6579617888234
 20
-133.4337362351886
 30
0.0
 11
166.9079617888234
 21
-133.4337362351886
 31
0.0
  0
LINE
  5
241
330
1B
100
AcDbEntity
 67
     1
  8
ﾀｲﾄﾙ枠
100
AcDbLine
 10
169.8547185033027
 20
-131.3437362351886
 30
0.0
 11
170.7623678650417
 21
-131.3437362351886
 31
0.0
  0
LINE
  5
242
330
1B
100
AcDbEntity
 67
     1
  8
ﾀｲﾄﾙ枠
100
AcDbLine
 10
170.2084394335355
 20
-132.5137362351886
 30
0.0
 11
169.8547185033027
 21
-131.3437362351886
 31
0.0
  0
LINE
  5
243
330
1B
100
AcDbEntity
 67
     1
  8
ﾀｲﾄﾙ枠
100
AcDbLine
 10
165.0372116717823
 20
-136.4337362351886
 30
0.0
 11
164.5993314798348
 21
-136.4337362351886
 31
0.0
  0
LINE
  5
244
330
1B
100
AcDbEntity
 67
     1
  8
ﾀｲﾄﾙ枠
100
AcDbLine
 10
169.4428612147248
 20
-135.6152789423531
 30
0.0
 11
167.1928612147248
 21
-135.9752789423531
 31
0.0
  0
LINE
  5
245
330
1B
100
AcDbEntity
 67
     1
  8
ﾀｲﾄﾙ枠
100
AcDbLine
 10
169.6579617888234
 20
-135.8287852595089
 30
0.0
 11
166.9079617888234
 21
-136.378785259509
 31
0.0
  0
LINE
  5
246
330
1B
100
AcDbEntity
 67
     1
  8
ﾀｲﾄﾙ枠
100
AcDbLine
 10
170.1445555685774
 20
-131.5646319577605
 30
0.0
 11
171.5498279223712
 21
-136.2128405126167
 31
0.0
  0
LINE
  5
247
330
1B
100
AcDbEntity
 67
     1
  8
ﾀｲﾄﾙ枠
100
AcDbLine
 10
170.3753256119265
 20
-131.5646319577605
 30
0.0
 11
171.7805979657201
 21
-136.2128405126167
 31
0.0
  0
LINE
  5
248
330
1B
100
AcDbEntity
 67
     1
  8
ﾀｲﾄﾙ枠
100
AcDbLine
 10
171.393555712605
 20
-136.4337362351886
 30
0.0
 11
170.2144859451631
 21
-132.5337362351887
 31
0.0
  0
LINE
  5
249
330
1B
100
AcDbEntity
 67
     1
  8
ﾀｲﾄﾙ枠
100
AcDbLine
 10
164.4447116717824
 20
-134.8537362351886
 30
0.0
 11
165.0372116717823
 21
-136.4337362351886
 31
0.0
  0
LINE
  5
24A
330
1B
100
AcDbEntity
 67
     1
  8
ﾀｲﾄﾙ枠
100
AcDbLine
 10
164.5993314798348
 20
-136.4337362351886
 30
0.0
 11
164.0068314798347
 21
-134.8537362351886
 31
0.0
  0
LINE
  5
24B
330
1B
100
AcDbEntity
 67
     1
  8
ﾀｲﾄﾙ枠
100
AcDbLine
 10
169.6579617888234
 20
-134.885529801429
 30
0.0
 11
169.6579617888234
 21
-135.8287852595089
 31
0.0
  0
LINE
  5
24C
330
1B
100
AcDbEntity
 67
     1
  8
ﾀｲﾄﾙ枠
100
AcDbLine
 10
166.9079617888234
 20
-136.378785259509
 30
0.0
 11
166.9079617888234
 21
-135.215529801429
 31
0.0
  0
LINE
  5
24D
330
1B
100
AcDbEntity
 67
     1
  8
ﾀｲﾄﾙ枠
100
AcDbLine
 10
169.4079617888234
 20
-135.397157530469
 30
0.0
 11
167.1579617888234
 21
-135.757157530469
 31
0.0
  0
LINE
  5
24E
330
1B
100
AcDbEntity
 67
     1
  8
ﾀｲﾄﾙ枠
100
AcDbLine
 10
169.373062362922
 20
-135.1790361185849
 30
0.0
 11
167.123062362922
 21
-135.5390361185849
 31
0.0
  0
LINE
  5
24F
330
1B
100
AcDbEntity
 67
     1
  8
ﾀｲﾄﾙ枠
100
AcDbLine
 10
178.8479617888235
 20
-133.4887362351886
 30
0.0
 11
178.8479617888235
 21
-133.3787362351886
 31
0.0
  0
LINE
  5
250
330
1B
100
AcDbEntity
 67
     1
  8
ﾀｲﾄﾙ枠
100
AcDbLine
 10
179.8879617888234
 20
-132.4754177365733
 30
0.0
 11
179.8879617888234
 21
-133.2242277380013
 31
0.0
  0
LINE
  5
251
330
1B
100
AcDbEntity
 67
     1
  8
ﾀｲﾄﾙ枠
100
AcDbLine
 10
176.9201347930204
 20
-131.5937362351886
 30
0.0
 11
177.3757887846265
 21
-131.5937362351886
 31
0.0
  0
LINE
  5
252
330
1B
100
AcDbEntity
 67
     1
  8
ﾀｲﾄﾙ枠
100
AcDbLine
 10
174.4079617888234
 20
-132.4754177365733
 30
0.0
 11
176.4330760544591
 21
-131.3437362351886
 31
0.0
  0
LINE
  5
253
330
1B
100
AcDbEntity
 67
     1
  8
ﾀｲﾄﾙ枠
100
AcDbLine
 10
176.4330760544591
 20
-131.3437362351886
 30
0.0
 11
177.8628475231878
 21
-131.3437362351886
 31
0.0
  0
LINE
  5
254
330
1B
100
AcDbEntity
 67
     1
  8
ﾀｲﾄﾙ枠
100
AcDbLine
 10
174.6579617888234
 20
-132.7248227372873
 30
0.0
 11
176.9201347930204
 21
-131.5937362351886
 31
0.0
  0
LINE
  5
255
330
1B
100
AcDbEntity
 67
     1
  8
ﾀｲﾄﾙ枠
100
AcDbLine
 10
175.4479617888233
 20
-133.3787362351886
 30
0.0
 11
175.4479617888233
 21
-133.4887362351886
 31
0.0
  0
LINE
  5
256
330
1B
100
AcDbEntity
 67
     1
  8
ﾀｲﾄﾙ枠
100
AcDbLine
 10
174.4079617888234
 20
-133.2242277380013
 30
0.0
 11
174.4079617888234
 21
-132.4754177365733
 31
0.0
  0
LINE
  5
257
330
1B
100
AcDbEntity
 67
     1
  8
ﾀｲﾄﾙ枠
100
AcDbLine
 10
177.1479617888234
 20
-131.8542277380013
 30
0.0
 11
174.4079617888234
 21
-133.2242277380013
 31
0.0
  0
LINE
  5
258
330
1B
100
AcDbEntity
 67
     1
  8
ﾀｲﾄﾙ枠
100
AcDbLine
 10
177.3757887846265
 20
-131.5937362351886
 30
0.0
 11
179.6379617888234
 21
-132.7248227372873
 31
0.0
  0
LINE
  5
259
330
1B
100
AcDbEntity
 67
     1
  8
ﾀｲﾄﾙ枠
100
AcDbLine
 10
177.8628475231878
 20
-131.3437362351886
 30
0.0
 11
179.8879617888234
 21
-132.4754177365733
 31
0.0
  0
LINE
  5
25A
330
1B
100
AcDbEntity
 67
     1
  8
ﾀｲﾄﾙ枠
100
AcDbLine
 10
175.4479617888233
 20
-133.4887362351886
 30
0.0
 11
178.8479617888235
 21
-133.4887362351886
 31
0.0
  0
LINE
  5
25B
330
1B
100
AcDbEntity
 67
     1
  8
ﾀｲﾄﾙ枠
100
AcDbLine
 10
178.8479617888235
 20
-133.3787362351886
 30
0.0
 11
175.4479617888233
 21
-133.3787362351886
 31
0.0
  0
LINE
  5
25C
330
1B
100
AcDbEntity
 67
     1
  8
ﾀｲﾄﾙ枠
100
AcDbLine
 10
179.8879617888234
 20
-134.3437362351886
 30
0.0
 11
174.4079617888234
 21
-134.3437362351886
 31
0.0
  0
LINE
  5
25D
330
1B
100
AcDbEntity
 67
     1
  8
ﾀｲﾄﾙ枠
100
AcDbLine
 10
179.8879617888234
 20
-133.2242277380013
 30
0.0
 11
177.1479617888234
 21
-131.8542277380013
 31
0.0
  0
LINE
  5
25E
330
1B
100
AcDbEntity
 67
     1
  8
ﾀｲﾄﾙ枠
100
AcDbLine
 10
172.2579617888235
 20
-131.6037362351886
 30
0.0
 11
172.2579617888235
 21
-131.7537362351886
 31
0.0
  0
LINE
  5
25F
330
1B
100
AcDbEntity
 67
     1
  8
ﾀｲﾄﾙ枠
100
AcDbLine
 10
179.6132695416354
 20
-136.4237362351886
 30
0.0
 11
174.6826540360111
 21
-136.4237362351886
 31
0.0
  0
LINE
  5
260
330
1B
100
AcDbEntity
 67
     1
  8
ﾀｲﾄﾙ枠
100
AcDbLine
 10
176.5382847890741
 20
-134.5254334980299
 30
0.0
 11
175.2412951221567
 21
-136.1637362351887
 31
0.0
  0
LINE
  5
261
330
1B
100
AcDbEntity
 67
     1
  8
ﾀｲﾄﾙ枠
100
AcDbLine
 10
175.3882695416358
 20
-136.4237362351886
 30
0.0
 11
177.0349362083024
 21
-134.3437362351886
 31
0.0
  0
LINE
  5
262
330
1B
100
AcDbEntity
 67
     1
  8
ﾀｲﾄﾙ枠
100
AcDbLine
 10
174.6826540360111
 20
-136.4237362351886
 30
0.0
 11
176.3214040360114
 21
-134.3537362351886
 31
0.0
  0
LINE
  5
263
330
1B
100
AcDbEntity
 67
     1
  8
ﾀｲﾄﾙ枠
100
AcDbLine
 10
179.0546284554901
 20
-136.1637362351887
 30
0.0
 11
177.7576387885727
 21
-134.5254334980299
 31
0.0
  0
LINE
  5
264
330
1B
100
AcDbEntity
 67
     1
  8
ﾀｲﾄﾙ枠
100
AcDbLine
 10
177.9745195416354
 20
-134.3537362351886
 30
0.0
 11
179.6132695416354
 21
-136.4237362351886
 31
0.0
  0
LINE
  5
265
330
1B
100
AcDbEntity
 67
     1
  8
ﾀｲﾄﾙ枠
100
AcDbLine
 10
177.2609873693445
 20
-134.3437362351886
 30
0.0
 11
178.9076540360113
 21
-136.4237362351886
 31
0.0
  0
LINE
  5
266
330
1B
100
AcDbEntity
 67
     1
  8
ﾀｲﾄﾙ枠
100
AcDbLine
 10
177.8115985972983
 20
-127.8933839021333
 30
0.0
 11
177.8115985972983
 21
-115.8933839021333
 31
0.0
  0
LINE
  5
267
330
1B
100
AcDbEntity
 67
     1
  8
ﾀｲﾄﾙ枠
100
AcDbLine
 10
184.1958922105524
 20
-134.2037362351886
 30
0.0
 11
183.7479617888233
 21
-134.2037362351886
 31
0.0
  0
LINE
  5
268
330
1B
100
AcDbEntity
 67
     1
  8
ﾀｲﾄﾙ枠
100
AcDbLine
 10
185.6779617888234
 20
-131.3437362351886
 30
0.0
 11
186.6079617888235
 21
-131.3437362351886
 31
0.0
  0
LINE
  5
269
330
1B
100
AcDbEntity
 67
     1
  8
ﾀｲﾄﾙ枠
100
AcDbLine
 10
185.1579617888234
 20
-133.0437362351886
 30
0.0
 11
187.5179617888234
 21
-133.0437362351886
 31
0.0
  0
LINE
  5
26A
330
1B
100
AcDbEntity
 67
     1
  8
ﾀｲﾄﾙ枠
100
AcDbLine
 10
182.9479617888233
 20
-134.2037362351886
 30
0.0
 11
182.4881515938374
 21
-134.2037362351886
 31
0.0
  0
LINE
  5
26B
330
1B
100
AcDbEntity
 67
     1
  8
ﾀｲﾄﾙ枠
100
AcDbLine
 10
182.4279617888234
 20
-131.3537362351886
 30
0.0
 11
184.1379617888234
 21
-131.3537362351886
 31
0.0
  0
LINE
  5
26C
330
1B
100
AcDbEntity
 67
     1
  8
ﾀｲﾄﾙ枠
100
AcDbLine
 10
184.2679617888234
 20
-133.0437362351886
 30
0.0
 11
182.1679617888234
 21
-133.0437362351886
 31
0.0
  0
LINE
  5
26D
330
1B
100
AcDbEntity
 67
     1
  8
ﾀｲﾄﾙ枠
100
AcDbLine
 10
184.582558877219
 20
-135.6537362351887
 30
0.0
 11
184.4273171302567
 21
-135.6537362351887
 31
0.0
  0
LINE
  5
26E
330
1B
100
AcDbEntity
 67
     1
  8
ﾀｲﾄﾙ枠
100
AcDbLine
 10
187.6479617888234
 20
-136.4887362351886
 30
0.0
 11
185.0279617888234
 21
-136.4887362351886
 31
0.0
  0
LINE
  5
26F
330
1B
100
AcDbEntity
 67
     1
  8
ﾀｲﾄﾙ枠
100
AcDbLine
 10
182.004818260504
 20
-135.6537362351887
 30
0.0
 11
182.1629321435123
 21
-135.6537362351887
 31
0.0
  0
LINE
  5
270
330
1B
100
AcDbEntity
 67
     1
  8
ﾀｲﾄﾙ枠
100
AcDbLine
 10
182.9479617888233
 20
-136.4337362351886
 30
0.0
 11
183.7479617888233
 21
-136.4337362351886
 31
0.0
  0
LINE
  5
271
330
1B
100
AcDbEntity
 67
     1
  8
ﾀｲﾄﾙ枠
100
AcDbLine
 10
186.3429617888234
 20
-136.2387362351886
 30
0.0
 11
186.3429617888234
 21
-131.5937362351886
 31
0.0
  0
LINE
  5
272
330
1B
100
AcDbEntity
 67
     1
  8
ﾀｲﾄﾙ枠
100
AcDbLine
 10
186.6079617888235
 20
-131.3437362351886
 30
0.0
 11
186.6079617888235
 21
-136.4887362351886
 31
0.0
  0
LINE
  5
273
330
1B
100
AcDbEntity
 67
     1
  8
ﾀｲﾄﾙ枠
100
AcDbLine
 10
184.1958922105524
 20
-134.2037362351886
 30
0.0
 11
184.582558877219
 21
-135.6537362351887
 31
0.0
  0
LINE
  5
274
330
1B
100
AcDbEntity
 67
     1
  8
ﾀｲﾄﾙ枠
100
AcDbLine
 10
184.4273171302567
 20
-135.6537362351887
 30
0.0
 11
184.0406504635897
 21
-134.2037362351886
 31
0.0
  0
LINE
  5
275
330
1B
100
AcDbEntity
 67
     1
  8
ﾀｲﾄﾙ枠
100
AcDbLine
 10
182.1629321435123
 20
-135.6537362351887
 30
0.0
 11
182.6462654768457
 21
-134.2037362351886
 31
0.0
  0
LINE
  5
276
330
1B
100
AcDbEntity
 67
     1
  8
ﾀｲﾄﾙ枠
100
AcDbLine
 10
182.4881515938374
 20
-134.2037362351886
 30
0.0
 11
182.004818260504
 21
-135.6537362351887
 31
0.0
  0
LINE
  5
277
330
1B
100
AcDbEntity
 67
     1
  8
ﾀｲﾄﾙ枠
100
AcDbLine
 10
183.5479617888234
 20
-133.2937362351886
 30
0.0
 11
183.5479617888234
 21
-136.1837362351886
 31
0.0
  0
LINE
  5
278
330
1B
100
AcDbEntity
 67
     1
  8
ﾀｲﾄﾙ枠
100
AcDbLine
 10
183.7479617888233
 20
-136.4337362351886
 30
0.0
 11
183.7479617888233
 21
-133.0437362351886
 31
0.0
  0
LINE
  5
279
330
1B
100
AcDbEntity
 67
     1
  8
ﾀｲﾄﾙ枠
100
AcDbLine
 10
183.1479617888234
 20
-133.2937362351886
 30
0.0
 11
183.1479617888234
 21
-136.1837362351886
 31
0.0
  0
LINE
  5
27A
330
1B
100
AcDbEntity
 67
     1
  8
ﾀｲﾄﾙ枠
100
AcDbLine
 10
183.3479617888235
 20
-133.2937362351886
 30
0.0
 11
183.3479617888235
 21
-136.1837362351886
 31
0.0
  0
LINE
  5
27B
330
1B
100
AcDbEntity
 67
     1
  8
ﾀｲﾄﾙ枠
100
AcDbLine
 10
182.9479617888233
 20
-133.0437362351886
 30
0.0
 11
182.9479617888233
 21
-136.4337362351886
 31
0.0
  0
LINE
  5
27C
330
1B
100
AcDbEntity
 67
     1
  8
ﾀｲﾄﾙ枠
100
AcDbLine
 10
185.9429617888233
 20
-136.2387362351886
 30
0.0
 11
185.9429617888233
 21
-131.5937362351886
 31
0.0
  0
LINE
  5
27D
330
1B
100
AcDbEntity
 67
     1
  8
ﾀｲﾄﾙ枠
100
AcDbLine
 10
186.1429617888234
 20
-136.2387362351886
 30
0.0
 11
186.1429617888234
 21
-131.5937362351886
 31
0.0
  0
LINE
  5
27E
330
1B
100
AcDbEntity
 67
     1
  8
ﾀｲﾄﾙ枠
100
AcDbLine
 10
185.6779617888234
 20
-136.4887362351886
 30
0.0
 11
185.6779617888234
 21
-131.3437362351886
 31
0.0
  0
ENDSEC
  0
SECTION
  2
OBJECTS
  0
DICTIONARY
  5
C
330
0
100
AcDbDictionary
281
     1
  3
ACAD_GROUP
350
D
  3
ACAD_LAYOUT
350
1A
  3
ACAD_MATERIAL
350
3B
  3
ACAD_MLEADERSTYLE
350
281
  3
ACAD_MLINESTYLE
350
17
  3
ACAD_PLOTSETTINGS
350
19
  3
ACAD_PLOTSTYLENAME
350
E
  3
ACAD_SCALELIST
350
285
  3
ACAD_VISUALSTYLE
350
2A
  3
ACAD_WIPEOUT_VARS
350
49
  3
AcDbVariableDictionary
350
27F
  0
DICTIONARY
  5
D
102
{ACAD_REACTORS
330
C
102
}
330
C
100
AcDbDictionary
281
     1
  0
DICTIONARY
  5
1A
102
{ACAD_REACTORS
330
C
102
}
330
C
100
AcDbDictionary
281
     1
  3
Model
350
22
  3
SQR750-80-H一般用
350
1E
  0
DICTIONARY
  5
3B
102
{ACAD_REACTORS
330
C
102
}
330
C
100
AcDbDictionary
281
     1
  3
ByBlock
350
3D
  3
ByLayer
350
3C
  3
Global
350
3E
  0
DICTIONARY
  5
281
102
{ACAD_REACTORS
330
C
102
}
330
C
100
AcDbDictionary
281
     1
  0
DICTIONARY
  5
17
102
{ACAD_REACTORS
330
C
102
}
330
C
100
AcDbDictionary
281
     1
  3
Standard
350
18
  0
DICTIONARY
  5
19
102
{ACAD_REACTORS
330
C
102
}
330
C
100
AcDbDictionary
281
     1
  0
ACDBDICTIONARYWDFLT
  5
E
102
{ACAD_REACTORS
330
C
102
}
330
C
100
AcDbDictionary
281
     1
  3
Normal
350
F
100
AcDbDictionaryWithDefault
340
F
  0
DICTIONARY
  5
285
102
{ACAD_REACTORS
330
C
102
}
330
C
100
AcDbDictionary
281
     1
  3
A0
350
286
  3
A1
350
287
  3
A2
350
288
  3
A3
350
289
  3
A4
350
28A
  3
A5
350
28B
  3
A6
350
28C
  3
A7
350
28D
  3
A8
350
28E
  3
A9
350
28F
  3
B0
350
290
  3
B1
350
291
  3
B2
350
292
  3
B3
350
293
  3
B4
350
294
  3
B5
350
295
  3
B6
350
296
  3
B7
350
297
  3
B8
350
298
  3
B9
350
299
  3
C0
350
29A
  3
C1
350
29B
  3
C2
350
29C
  3
C3
350
29D
  3
C4
350
29E
  3
C5
350
29F
  3
C6
350
2A0
  3
C7
350
2A1
  3
C8
350
2A2
  3
C9
350
2A3
  3
D0
350
2A4
  3
D1
350
2A5
  3
D2
350
2A6
  0
DICTIONARY
  5
2A
102
{ACAD_REACTORS
330
C
102
}
330
C
100
AcDbDictionary
281
     1
  3
2dWireframe
350
2F
  3
3D Hidden
350
31
  3
3dWireframe
350
30
  3
Basic
350
32
  3
Brighten
350
36
  3
ColorChange
350
3A
  3
Conceptual
350
34
  3
Dim
350
35
  3
Facepattern
350
39
  3
Flat
350
2B
  3
FlatWithEdges
350
2C
  3
Gouraud
350
2D
  3
GouraudWithEdges
350
2E
  3
Linepattern
350
38
  3
Realistic
350
33
  3
Thicken
350
37
  0
WIPEOUTVARIABLES
  5
49
102
{ACAD_REACTORS
330
C
102
}
330
C
100
AcDbWipeoutVariables
 70
     0
  0
DICTIONARY
  5
27F
102
{ACAD_REACTORS
330
C
102
}
330
C
100
AcDbDictionary
281
     1
  3
CANNOSCALE
350
2A7
  3
DIMASSOC
350
283
  3
HIDETEXT
350
284
  3
XCLIPFRAME
350
282
  0
LAYOUT
  5
22
102
{ACAD_REACTORS
330
1A
102
}
330
1A
100
AcDbPlotSettings
  1

  2
none_device
  4

  6

 40
0.0
 41
0.0
 42
0.0
 43
0.0
 44
0.0
 45
0.0
 46
0.0
 47
0.0
 48
0.0
 49
0.0
140
0.0
141
0.0
142
1.0
143
1.0
 70
  1712
 72
     0
 73
     0
 74
     0
  7

 75
     0
147
1.0
148
0.0
149
0.0
100
AcDbLayout
  1
Model
 70
     1
 71
     0
 10
0.0
 20
0.0
 11
12.0
 21
9.0
 12
0.0
 22
0.0
 32
0.0
 14
6005.231778651874
 24
450.3227020337636
 34
0.0
 15
6425.390103847187
 25
747.3545318677479
 35
0.0
146
0.0
 13
0.0
 23
0.0
 33
0.0
 16
1.0
 26
0.0
 36
0.0
 17
0.0
 27
1.0
 37
0.0
 76
     0
330
1F
331
29
  0
LAYOUT
  5
1E
102
{ACAD_REACTORS
330
1A
102
}
330
1A
100
AcDbPlotSettings
  1

  2
none_device
  4
ISO_A3_(420.00_x_297.00_MM)
  6

 40
7.5
 41
20.0
 42
7.5
 43
20.0
 44
420.0
 45
297.0
 46
0.0
 47
0.0
 48
0.0
 49
0.0
140
0.0
141
0.0
142
1.0
143
1.0
 70
   640
 72
     1
 73
     0
 74
     5
  7

 75
    16
147
1.0
148
202.5791625976562
149
128.5159149169921
100
AcDbLayout
  1
SQR750-80-H一般用
 70
     1
 71
     1
 10
-220.583120727539
 20
-155.9417106628417
 11
220.583120727539
 21
155.9417106628417
 12
0.0
 22
0.0
 32
0.0
 14
-185.1884014027016
 24
-139.8933839021333
 34
0.0
 15
200.8115985972983
 25
140.1066160978667
 35
0.0
146
0.0
 13
0.0
 23
0.0
 33
0.0
 16
1.0
 26
0.0
 36
0.0
 17
0.0
 27
1.0
 37
0.0
 76
     0
330
1B
331
48
  0
MATERIAL
  5
3D
102
{ACAD_REACTORS
330
3B
102
}
102
{ACAD_XDICTIONARY
360
2CA
102
}
330
3B
100
AcDbMaterial
  1
ByBlock
  0
MATERIAL
  5
3C
102
{ACAD_REACTORS
330
3B
102
}
102
{ACAD_XDICTIONARY
360
2C8
102
}
330
3B
100
AcDbMaterial
  1
ByLayer
  0
MATERIAL
  5
3E
102
{ACAD_REACTORS
330
3B
102
}
102
{ACAD_XDICTIONARY
360
2CC
102
}
330
3B
100
AcDbMaterial
  1
Global
  0
MLINESTYLE
  5
18
102
{ACAD_REACTORS
330
17
102
}
330
17
100
AcDbMlineStyle
  2
Standard
 70
     0
  3

 62
   256
 51
90.0
 52
90.0
 71
     2
 49
0.5
 62
   256
  6
BYLAYER
 49
-0.5
 62
   256
  6
BYLAYER
  0
ACDBPLACEHOLDER
  5
F
102
{ACAD_REACTORS
330
E
102
}
330
E
  0
SCALE
  5
286
102
{ACAD_REACTORS
330
285
102
}
330
285
100
AcDbScale
 70
     0
300
1:1
140
1.0
141
1.0
290
     1
  0
SCALE
  5
287
102
{ACAD_REACTORS
330
285
102
}
330
285
100
AcDbScale
 70
     0
300
1:2
140
1.0
141
2.0
290
     0
  0
SCALE
  5
288
102
{ACAD_REACTORS
330
285
102
}
330
285
100
AcDbScale
 70
     0
300
1:4
140
1.0
141
4.0
290
     0
  0
SCALE
  5
289
102
{ACAD_REACTORS
330
285
102
}
330
285
100
AcDbScale
 70
     0
300
1:5
140
1.0
141
5.0
290
     0
  0
SCALE
  5
28A
102
{ACAD_REACTORS
330
285
102
}
330
285
100
AcDbScale
 70
     0
300
1:8
140
1.0
141
8.0
290
     0
  0
SCALE
  5
28B
102
{ACAD_REACTORS
330
285
102
}
330
285
100
AcDbScale
 70
     0
300
1:10
140
1.0
141
10.0
290
     0
  0
SCALE
  5
28C
102
{ACAD_REACTORS
330
285
102
}
330
285
100
AcDbScale
 70
     0
300
1:16
140
1.0
141
16.0
290
     0
  0
SCALE
  5
28D
102
{ACAD_REACTORS
330
285
102
}
330
285
100
AcDbScale
 70
     0
300
1:20
140
1.0
141
20.0
290
     0
  0
SCALE
  5
28E
102
{ACAD_REACTORS
330
285
102
}
330
285
100
AcDbScale
 70
     0
300
1:30
140
1.0
141
30.0
290
     0
  0
SCALE
  5
28F
102
{ACAD_REACTORS
330
285
102
}
330
285
100
AcDbScale
 70
     0
300
1:40
140
1.0
141
40.0
290
     0
  0
SCALE
  5
290
102
{ACAD_REACTORS
330
285
102
}
330
285
100
AcDbScale
 70
     0
300
1:50
140
1.0
141
50.0
290
     0
  0
SCALE
  5
291
102
{ACAD_REACTORS
330
285
102
}
330
285
100
AcDbScale
 70
     0
300
1:100
140
1.0
141
100.0
290
     0
  0
SCALE
  5
292
102
{ACAD_REACTORS
330
285
102
}
330
285
100
AcDbScale
 70
     0
300
2:1
140
2.0
141
1.0
290
     0
  0
SCALE
  5
293
102
{ACAD_REACTORS
330
285
102
}
330
285
100
AcDbScale
 70
     0
300
4:1
140
4.0
141
1.0
290
     0
  0
SCALE
  5
294
102
{ACAD_REACTORS
330
285
102
}
330
285
100
AcDbScale
 70
     0
300
8:1
140
8.0
141
1.0
290
     0
  0
SCALE
  5
295
102
{ACAD_REACTORS
330
285
102
}
330
285
100
AcDbScale
 70
     0
300
10:1
140
10.0
141
1.0
290
     0
  0
SCALE
  5
296
102
{ACAD_REACTORS
330
285
102
}
330
285
100
AcDbScale
 70
     0
300
100:1
140
100.0
141
1.0
290
     0
  0
SCALE
  5
297
102
{ACAD_REACTORS
330
285
102
}
330
285
100
AcDbScale
 70
     0
300
1/128" = 1'-0"
140
0.0078125
141
12.0
290
     0
  0
SCALE
  5
298
102
{ACAD_REACTORS
330
285
102
}
330
285
100
AcDbScale
 70
     0
300
1/64" = 1'-0"
140
0.015625
141
12.0
290
     0
  0
SCALE
  5
299
102
{ACAD_REACTORS
330
285
102
}
330
285
100
AcDbScale
 70
     0
300
1/32" = 1'-0"
140
0.03125
141
12.0
290
     0
  0
SCALE
  5
29A
102
{ACAD_REACTORS
330
285
102
}
330
285
100
AcDbScale
 70
     0
300
1/16" = 1'-0"
140
0.0625
141
12.0
290
     0
  0
SCALE
  5
29B
102
{ACAD_REACTORS
330
285
102
}
330
285
100
AcDbScale
 70
     0
300
3/32" = 1'-0"
140
0.09375
141
12.0
290
     0
  0
SCALE
  5
29C
102
{ACAD_REACTORS
330
285
102
}
330
285
100
AcDbScale
 70
     0
300
1/8" = 1'-0"
140
0.125
141
12.0
290
     0
  0
SCALE
  5
29D
102
{ACAD_REACTORS
330
285
102
}
330
285
100
AcDbScale
 70
     0
300
3/16" = 1'-0"
140
0.1875
141
12.0
290
     0
  0
SCALE
  5
29E
102
{ACAD_REACTORS
330
285
102
}
330
285
100
AcDbScale
 70
     0
300
1/4" = 1'-0"
140
0.25
141
12.0
290
     0
  0
SCALE
  5
29F
102
{ACAD_REACTORS
330
285
102
}
330
285
100
AcDbScale
 70
     0
300
3/8" = 1'-0"
140
0.375
141
12.0
290
     0
  0
SCALE
  5
2A0
102
{ACAD_REACTORS
330
285
102
}
330
285
100
AcDbScale
 70
     0
300
1/2" = 1'-0"
140
0.5
141
12.0
290
     0
  0
SCALE
  5
2A1
102
{ACAD_REACTORS
330
285
102
}
330
285
100
AcDbScale
 70
     0
300
3/4" = 1'-0"
140
0.75
141
12.0
290
     0
  0
SCALE
  5
2A2
102
{ACAD_REACTORS
330
285
102
}
330
285
100
AcDbScale
 70
     0
300
1" = 1'-0"
140
1.0
141
12.0
290
     0
  0
SCALE
  5
2A3
102
{ACAD_REACTORS
330
285
102
}
330
285
100
AcDbScale
 70
     0
300
1-1/2" = 1'-0"
140
1.5
141
12.0
290
     0
  0
SCALE
  5
2A4
102
{ACAD_REACTORS
330
285
102
}
330
285
100
AcDbScale
 70
     0
300
3" = 1'-0"
140
3.0
141
12.0
290
     0
  0
SCALE
  5
2A5
102
{ACAD_REACTORS
330
285
102
}
330
285
100
AcDbScale
 70
     0
300
6" = 1'-0"
140
6.0
141
12.0
290
     0
  0
SCALE
  5
2A6
102
{ACAD_REACTORS
330
285
102
}
330
285
100
AcDbScale
 70
     0
300
1'-0" = 1'-0"
140
12.0
141
12.0
290
     0
  0
VISUALSTYLE
  5
2F
102
{ACAD_REACTORS
330
2A
102
}
102
{ACAD_XDICTIONARY
360
2B0
102
}
330
2A
100
AcDbVisualStyle
  2
2dWireframe
 70
     4
 71
     0
 72
     2
 73
     0
 90
        0
 40
-0.6
 41
-30.0
 62
     5
 63
     7
 74
     1
 91
        4
 64
     7
 65
   257
 75
     1
175
     1
 42
1.0
 92
        0
 66
   257
 43
1.0
 76
     1
 77
     6
 78
     2
 67
     7
 79
     5
170
     0
171
     0
290
     0
174
     0
 93
        1
 44
0.0
173
     0
291
     0
 45
0.0
1001
ACAD
1000
AcDbSavedByObjectVersion
1070
     0
  0
VISUALSTYLE
  5
31
102
{ACAD_REACTORS
330
2A
102
}
102
{ACAD_XDICTIONARY
360
2B4
102
}
330
2A
100
AcDbVisualStyle
  2
3D Hidden
 70
     6
 71
     1
 72
     2
 73
     2
 90
        0
 40
-0.6
 41
-30.0
 62
     5
 63
     7
 74
     2
 91
        2
 64
     7
 65
   257
 75
     2
175
     1
 42
40.0
 92
        0
 66
   257
 43
1.0
 76
     1
 77
     6
 78
     2
 67
     7
 79
     3
170
     0
171
     0
290
     0
174
     0
 93
        1
 44
0.0
173
     0
291
     0
 45
0.0
1001
ACAD
1000
AcDbSavedByObjectVersion
1070
     0
  0
VISUALSTYLE
  5
30
102
{ACAD_REACTORS
330
2A
102
}
102
{ACAD_XDICTIONARY
360
2B2
102
}
330
2A
100
AcDbVisualStyle
  2
3dWireframe
 70
     5
 71
     0
 72
     2
 73
     0
 90
        0
 40
-0.6
 41
-30.0
 62
     5
 63
     7
 74
     1
 91
        4
 64
     7
 65
   257
 75
     1
175
     1
 42
1.0
 92
        0
 66
   257
 43
1.0
 76
     1
 77
     6
 78
     2
 67
     7
 79
     5
170
     0
171
     0
290
     0
174
     0
 93
        1
 44
0.0
173
     0
291
     0
 45
0.0
1001
ACAD
1000
AcDbSavedByObjectVersion
1070
     0
  0
VISUALSTYLE
  5
32
102
{ACAD_REACTORS
330
2A
102
}
102
{ACAD_XDICTIONARY
360
2B6
102
}
330
2A
100
AcDbVisualStyle
  2
Basic
 70
     7
 71
     1
 72
     0
 73
     1
 90
        0
 40
-0.6
 41
-30.0
 62
     5
 63
     7
 74
     0
 91
        4
 64
     7
 65
   257
 75
     1
175
     1
 42
1.0
 92
        8
 66
     7
 43
1.0
 76
     1
 77
     6
 78
     2
 67
     7
 79
     5
170
     0
171
     0
290
     0
174
     0
 93
        1
 44
0.0
173
     0
291
     1
 45
0.0
1001
ACAD
1000
AcDbSavedByObjectVersion
1070
     0
  0
VISUALSTYLE
  5
36
102
{ACAD_REACTORS
330
2A
102
}
102
{ACAD_XDICTIONARY
360
2BE
102
}
330
2A
100
AcDbVisualStyle
  2
Brighten
 70
    12
 71
     2
 72
     2
 73
     0
 90
        0
 40
-0.6
 41
-30.0
 62
     5
 63
     7
 74
     1
 91
        4
 64
     7
 65
   257
 75
     1
175
     1
 42
1.0
 92
        8
 66
     7
 43
1.0
 76
     1
 77
     6
 78
     2
 67
     7
 79
     5
170
     0
171
     0
290
     0
174
     0
 93
        1
 44
50.0
173
     0
291
     1
 45
0.0
1001
ACAD
1000
AcDbSavedByObjectVersion
1070
     0
  0
VISUALSTYLE
  5
3A
102
{ACAD_REACTORS
330
2A
102
}
102
{ACAD_XDICTIONARY
360
2C6
102
}
330
2A
100
AcDbVisualStyle
  2
ColorChange
 70
    16
 71
     2
 72
     2
 73
     3
 90
        0
 40
-0.6
 41
-30.0
 62
     5
 63
     8
 74
     1
 91
        4
 64
     7
 65
   257
 75
     1
175
     1
 42
1.0
 92
        8
 66
     8
 43
1.0
 76
     1
 77
     6
 78
     2
 67
     7
 79
     5
170
     0
171
     0
290
     0
174
     0
 93
        1
 44
0.0
173
     0
291
     1
 45
0.0
1001
ACAD
1000
AcDbSavedByObjectVersion
1070
     0
  0
VISUALSTYLE
  5
34
102
{ACAD_REACTORS
330
2A
102
}
102
{ACAD_XDICTIONARY
360
2BA
102
}
330
2A
100
AcDbVisualStyle
  2
Conceptual
 70
     9
 71
     3
 72
     2
 73
     0
 90
        0
 40
-0.6
 41
-30.0
 62
     5
 63
     7
 74
     2
 91
        2
 64
     7
 65
   257
 75
     1
175
     1
 42
40.0
 92
        8
 66
     7
 43
1.0
 76
     1
 77
     6
 78
     2
 67
     7
 79
     3
170
     0
171
     0
290
     0
174
     0
 93
        1
 44
0.0
173
     0
291
     0
 45
0.0
1001
ACAD
1000
AcDbSavedByObjectVersion
1070
     0
  0
VISUALSTYLE
  5
35
102
{ACAD_REACTORS
330
2A
102
}
102
{ACAD_XDICTIONARY
360
2BC
102
}
330
2A
100
AcDbVisualStyle
  2
Dim
 70
    11
 71
     2
 72
     2
 73
     0
 90
        0
 40
-0.6
 41
-30.0
 62
     5
 63
     7
 74
     1
 91
        4
 64
     7
 65
   257
 75
     1
175
     1
 42
1.0
 92
        8
 66
     7
 43
1.0
 76
     1
 77
     6
 78
     2
 67
     7
 79
     5
170
     0
171
     0
290
     0
174
     0
 93
        1
 44
-50.0
173
     0
291
     1
 45
0.0
1001
ACAD
1000
AcDbSavedByObjectVersion
1070
     0
  0
VISUALSTYLE
  5
39
102
{ACAD_REACTORS
330
2A
102
}
102
{ACAD_XDICTIONARY
360
2C4
102
}
330
2A
100
AcDbVisualStyle
  2
Facepattern
 70
    15
 71
     2
 72
     2
 73
     0
 90
        0
 40
-0.6
 41
-30.0
 62
     5
 63
     7
 74
     1
 91
        4
 64
     7
 65
   257
 75
     1
175
     1
 42
1.0
 92
        8
 66
     7
 43
1.0
 76
     1
 77
     6
 78
     2
 67
     7
 79
     5
170
     0
171
     0
290
     0
174
     0
 93
        1
 44
0.0
173
     0
291
     1
 45
0.0
1001
ACAD
1000
AcDbSavedByObjectVersion
1070
     0
  0
VISUALSTYLE
  5
2B
102
{ACAD_REACTORS
330
2A
102
}
102
{ACAD_XDICTIONARY
360
2A8
102
}
330
2A
100
AcDbVisualStyle
  2
Flat
 70
     0
 71
     2
 72
     1
 73
     1
 90
        2
 40
-0.6
 41
30.0
 62
     5
 63
     7
 74
     0
 91
        4
 64
     7
 65
   257
 75
     1
175
     1
 42
1.0
 92
        8
 66
     7
 43
1.0
 76
     1
 77
     6
 78
     2
 67
     7
 79
     5
170
     0
171
     0
290
     0
174
     0
 93
       13
 44
0.0
173
     0
291
     1
 45
0.0
1001
ACAD
1000
AcDbSavedByObjectVersion
1070
     0
  0
VISUALSTYLE
  5
2C
102
{ACAD_REACTORS
330
2A
102
}
102
{ACAD_XDICTIONARY
360
2AA
102
}
330
2A
100
AcDbVisualStyle
  2
FlatWithEdges
 70
     1
 71
     2
 72
     1
 73
     1
 90
        2
 40
-0.6
 41
30.0
 62
     5
 63
     7
 74
     1
 91
        4
 64
     7
 65
   257
 75
     1
175
     1
 42
1.0
 92
        0
 66
   257
 43
1.0
 76
     1
 77
     6
 78
     2
 67
     7
 79
     5
170
     0
171
     0
290
     0
174
     0
 93
       13
 44
0.0
173
     0
291
     1
 45
0.0
1001
ACAD
1000
AcDbSavedByObjectVersion
1070
     0
  0
VISUALSTYLE
  5
2D
102
{ACAD_REACTORS
330
2A
102
}
102
{ACAD_XDICTIONARY
360
2AC
102
}
330
2A
100
AcDbVisualStyle
  2
Gouraud
 70
     2
 71
     2
 72
     2
 73
     1
 90
        2
 40
-0.6
 41
30.0
 62
     5
 63
     7
 74
     0
 91
        4
 64
     7
 65
   257
 75
     1
175
     1
 42
1.0
 92
        0
 66
     7
 43
1.0
 76
     1
 77
     6
 78
     2
 67
     7
 79
     5
170
     0
171
     0
290
     0
174
     0
 93
       13
 44
0.0
173
     0
291
     1
 45
0.0
1001
ACAD
1000
AcDbSavedByObjectVersion
1070
     0
  0
VISUALSTYLE
  5
2E
102
{ACAD_REACTORS
330
2A
102
}
102
{ACAD_XDICTIONARY
360
2AE
102
}
330
2A
100
AcDbVisualStyle
  2
GouraudWithEdges
 70
     3
 71
     2
 72
     2
 73
     1
 90
        2
 40
-0.6
 41
30.0
 62
     5
 63
     7
 74
     1
 91
        4
 64
     7
 65
   257
 75
     1
175
     1
 42
1.0
 92
        0
 66
   257
 43
1.0
 76
     1
 77
     6
 78
     2
 67
     7
 79
     5
170
     0
171
     0
290
     0
174
     0
 93
       13
 44
0.0
173
     0
291
     1
 45
0.0
1001
ACAD
1000
AcDbSavedByObjectVersion
1070
     0
  0
VISUALSTYLE
  5
38
102
{ACAD_REACTORS
330
2A
102
}
102
{ACAD_XDICTIONARY
360
2C2
102
}
330
2A
100
AcDbVisualStyle
  2
Linepattern
 70
    14
 71
     2
 72
     2
 73
     0
 90
        0
 40
-0.6
 41
-30.0
 62
     5
 63
     7
 74
     1
 91
        4
 64
     7
 65
   257
 75
     7
175
     7
 42
1.0
 92
        8
 66
     7
 43
1.0
 76
     1
 77
     6
 78
     2
 67
     7
 79
     5
170
     0
171
     0
290
     0
174
     0
 93
        1
 44
0.0
173
     0
291
     1
 45
0.0
1001
ACAD
1000
AcDbSavedByObjectVersion
1070
     0
  0
VISUALSTYLE
  5
33
102
{ACAD_REACTORS
330
2A
102
}
102
{ACAD_XDICTIONARY
360
2B8
102
}
330
2A
100
AcDbVisualStyle
  2
Realistic
 70
     8
 71
     2
 72
     2
 73
     0
 90
        0
 40
-0.6
 41
-30.0
 62
     5
 63
     7
 74
     1
 91
        0
 64
     7
 65
   257
 75
     1
175
     1
 42
1.0
 92
        8
 66
     8
 43
1.0
 76
     1
 77
     6
 78
     2
 67
     7
 79
     5
170
     0
171
     0
290
     0
174
     0
 93
       13
 44
0.0
173
     0
291
     0
 45
0.0
1001
ACAD
1000
AcDbSavedByObjectVersion
1070
     0
  0
VISUALSTYLE
  5
37
102
{ACAD_REACTORS
330
2A
102
}
102
{ACAD_XDICTIONARY
360
2C0
102
}
330
2A
100
AcDbVisualStyle
  2
Thicken
 70
    13
 71
     2
 72
     2
 73
     0
 90
        0
 40
-0.6
 41
-30.0
 62
     5
 63
     7
 74
     1
 91
        4
 64
     7
 65
   257
 75
     1
175
     1
 42
1.0
 92
       12
 66
     7
 43
1.0
 76
     1
 77
     6
 78
     2
 67
     7
 79
     5
170
     0
171
     0
290
     0
174
     0
 93
        1
 44
0.0
173
     0
291
     1
 45
0.0
1001
ACAD
1000
AcDbSavedByObjectVersion
1070
     0
  0
DICTIONARYVAR
  5
2A7
102
{ACAD_REACTORS
330
27F
102
}
330
27F
100
DictionaryVariables
280
     0
  1
1:1
  0
DICTIONARYVAR
  5
283
102
{ACAD_REACTORS
330
27F
102
}
330
27F
100
DictionaryVariables
280
     0
  1
2
  0
DICTIONARYVAR
  5
284
102
{ACAD_REACTORS
330
27F
102
}
330
27F
100
DictionaryVariables
280
     0
  1
1
  0
DICTIONARYVAR
  5
282
102
{ACAD_REACTORS
330
27F
102
}
330
27F
100
DictionaryVariables
280
     0
  1
0
  0
DICTIONARY
  5
2CA
330
3D
100
AcDbDictionary
280
     1
281
     1
  3
ACAD_XREC_ROUNDTRIP
360
2CB
  0
DICTIONARY
  5
2C8
330
3C
100
AcDbDictionary
280
     1
281
     1
  3
ACAD_XREC_ROUNDTRIP
360
2C9
  0
DICTIONARY
  5
2CC
330
3E
100
AcDbDictionary
280
     1
281
     1
  3
ACAD_XREC_ROUNDTRIP
360
2CD
  0
DICTIONARY
  5
2B0
330
2F
100
AcDbDictionary
280
     1
281
     1
  3
ACAD_XREC_ROUNDTRIP
360
2B1
  0
DICTIONARY
  5
2B4
330
31
100
AcDbDictionary
280
     1
281
     1
  3
ACAD_XREC_ROUNDTRIP
360
2B5
  0
DICTIONARY
  5
2B2
330
30
100
AcDbDictionary
280
     1
281
     1
  3
ACAD_XREC_ROUNDTRIP
360
2B3
  0
DICTIONARY
  5
2B6
330
32
100
AcDbDictionary
280
     1
281
     1
  3
ACAD_XREC_ROUNDTRIP
360
2B7
  0
DICTIONARY
  5
2BE
330
36
100
AcDbDictionary
280
     1
281
     1
  3
ACAD_XREC_ROUNDTRIP
360
2BF
  0
DICTIONARY
  5
2C6
330
3A
100
AcDbDictionary
280
     1
281
     1
  3
ACAD_XREC_ROUNDTRIP
360
2C7
  0
DICTIONARY
  5
2BA
330
34
100
AcDbDictionary
280
     1
281
     1
  3
ACAD_XREC_ROUNDTRIP
360
2BB
  0
DICTIONARY
  5
2BC
330
35
100
AcDbDictionary
280
     1
281
     1
  3
ACAD_XREC_ROUNDTRIP
360
2BD
  0
DICTIONARY
  5
2C4
330
39
100
AcDbDictionary
280
     1
281
     1
  3
ACAD_XREC_ROUNDTRIP
360
2C5
  0
DICTIONARY
  5
2A8
330
2B
100
AcDbDictionary
280
     1
281
     1
  3
ACAD_XREC_ROUNDTRIP
360
2A9
  0
DICTIONARY
  5
2AA
330
2C
100
AcDbDictionary
280
     1
281
     1
  3
ACAD_XREC_ROUNDTRIP
360
2AB
  0
DICTIONARY
  5
2AC
330
2D
100
AcDbDictionary
280
     1
281
     1
  3
ACAD_XREC_ROUNDTRIP
360
2AD
  0
DICTIONARY
  5
2AE
330
2E
100
AcDbDictionary
280
     1
281
     1
  3
ACAD_XREC_ROUNDTRIP
360
2AF
  0
DICTIONARY
  5
2C2
330
38
100
AcDbDictionary
280
     1
281
     1
  3
ACAD_XREC_ROUNDTRIP
360
2C3
  0
DICTIONARY
  5
2B8
330
33
100
AcDbDictionary
280
     1
281
     1
  3
ACAD_XREC_ROUNDTRIP
360
2B9
  0
DICTIONARY
  5
2C0
330
37
100
AcDbDictionary
280
     1
281
     1
  3
ACAD_XREC_ROUNDTRIP
360
2C1
  0
XRECORD
  5
2CB
102
{ACAD_REACTORS
330
2CA
102
}
330
2CA
100
AcDbXrecord
280
     1
102
MATERIAL
148
0.0
149
0.0
149
0.0
 93
        0
 94
      127
282
     0
 72
     1
 77
     1
171
     1
175
     1
179
     1
273
     0
  0
XRECORD
  5
2C9
102
{ACAD_REACTORS
330
2C8
102
}
330
2C8
100
AcDbXrecord
280
     1
102
MATERIAL
148
0.0
149
0.0
149
0.0
 93
        0
 94
      127
282
     0
 72
     1
 77
     1
171
     1
175
     1
179
     1
273
     0
  0
XRECORD
  5
2CD
102
{ACAD_REACTORS
330
2CC
102
}
330
2CC
100
AcDbXrecord
280
     1
102
MATERIAL
148
0.0
149
0.0
149
0.0
 93
        0
 94
      127
282
     0
 72
     1
 77
     1
171
     1
175
     1
179
     1
273
     0
  0
XRECORD
  5
2B1
102
{ACAD_REACTORS
330
2B0
102
}
330
2B0
100
AcDbXrecord
280
     1
102
RTVSPropertyOp0
 70
     1
102
RTVSPropertyOp1
 70
     1
102
RTVSPropertyOp2
 70
     1
102
RTVSPropertyOp3
 70
     1
102
RTVSPropertyOp4
 70
     1
102
RTVSPropertyOp5
 70
     1
102
RTVSPropertyOp6
 70
     1
102
RTVSPropertyOp7
 70
     1
102
RTVSPropertyOp8
 70
     1
102
RTVSPropertyOp9
 70
     1
102
RTVSPropertyOp10
 70
     1
102
RTVSPropertyOp11
 70
     1
102
RTVSPropertyOp12
 70
     1
102
RTVSPropertyOp13
 70
     1
102
RTVSPropertyOp14
 70
     1
102
RTVSPropertyOp15
 70
     1
102
RTVSPropertyOp16
 70
     1
102
RTVSPropertyOp17
 70
     1
102
RTVSPropertyOp18
 70
     1
102
RTVSPropertyOp19
 70
     1
102
RTVSPropertyOp20
 70
     1
102
RTVSPropertyOp21
 70
     1
102
RTVSPropertyOp22
 70
     1
102
RTVSPropertyOp23
 70
     1
102
RTVSPropertyOp24
 70
     1
102
RTVSPropertyOp25
 70
     1
102
RTVSPropertyOp26
 70
     1
102
RTVSPropertyOp27
 70
     1
102
RTVSPropertyOp28
 70
     1
102
RTVSPropertyOp29
 70
     1
102
RTVSPropertyOp30
 70
     1
102
RTVSPropertyOp31
 70
     1
102
RTVSPropertyOp32
 70
     1
  0
XRECORD
  5
2B5
102
{ACAD_REACTORS
330
2B4
102
}
330
2B4
100
AcDbXrecord
280
     1
102
RTVSPropertyOp0
 70
     1
102
RTVSPropertyOp1
 70
     1
102
RTVSPropertyOp2
 70
     1
102
RTVSPropertyOp3
 70
     1
102
RTVSPropertyOp4
 70
     1
102
RTVSPropertyOp5
 70
     1
102
RTVSPropertyOp6
 70
     1
102
RTVSPropertyOp7
 70
     1
102
RTVSPropertyOp8
 70
     1
102
RTVSPropertyOp9
 70
     1
102
RTVSPropertyOp10
 70
     1
102
RTVSPropertyOp11
 70
     1
102
RTVSPropertyOp12
 70
     1
102
RTVSPropertyOp13
 70
     1
102
RTVSPropertyOp14
 70
     1
102
RTVSPropertyOp15
 70
     1
102
RTVSPropertyOp16
 70
     1
102
RTVSPropertyOp17
 70
     1
102
RTVSPropertyOp18
 70
     1
102
RTVSPropertyOp19
 70
     1
102
RTVSPropertyOp20
 70
     1
102
RTVSPropertyOp21
 70
     1
102
RTVSPropertyOp22
 70
     1
102
RTVSPropertyOp23
 70
     1
102
RTVSPropertyOp24
 70
     1
102
RTVSPropertyOp25
 70
     1
102
RTVSPropertyOp26
 70
     1
102
RTVSPropertyOp27
 70
     1
102
RTVSPropertyOp28
 70
     1
102
RTVSPropertyOp29
 70
     1
102
RTVSPropertyOp30
 70
     1
102
RTVSPropertyOp31
 70
     1
102
RTVSPropertyOp32
 70
     1
  0
XRECORD
  5
2B3
102
{ACAD_REACTORS
330
2B2
102
}
330
2B2
100
AcDbXrecord
280
     1
102
RTVSPropertyOp0
 70
     1
102
RTVSPropertyOp1
 70
     1
102
RTVSPropertyOp2
 70
     1
102
RTVSPropertyOp3
 70
     1
102
RTVSPropertyOp4
 70
     1
102
RTVSPropertyOp5
 70
     1
102
RTVSPropertyOp6
 70
     1
102
RTVSPropertyOp7
 70
     1
102
RTVSPropertyOp8
 70
     1
102
RTVSPropertyOp9
 70
     1
102
RTVSPropertyOp10
 70
     1
102
RTVSPropertyOp11
 70
     1
102
RTVSPropertyOp12
 70
     1
102
RTVSPropertyOp13
 70
     1
102
RTVSPropertyOp14
 70
     1
102
RTVSPropertyOp15
 70
     1
102
RTVSPropertyOp16
 70
     1
102
RTVSPropertyOp17
 70
     1
102
RTVSPropertyOp18
 70
     1
102
RTVSPropertyOp19
 70
     1
102
RTVSPropertyOp20
 70
     1
102
RTVSPropertyOp21
 70
     1
102
RTVSPropertyOp22
 70
     1
102
RTVSPropertyOp23
 70
     1
102
RTVSPropertyOp24
 70
     1
102
RTVSPropertyOp25
 70
     1
102
RTVSPropertyOp26
 70
     1
102
RTVSPropertyOp27
 70
     1
102
RTVSPropertyOp28
 70
     1
102
RTVSPropertyOp29
 70
     1
102
RTVSPropertyOp30
 70
     1
102
RTVSPropertyOp31
 70
     1
102
RTVSPropertyOp32
 70
     1
  0
XRECORD
  5
2B7
102
{ACAD_REACTORS
330
2B6
102
}
330
2B6
100
AcDbXrecord
280
     1
102
RTVSPropertyOp0
 70
     1
102
RTVSPropertyOp1
 70
     1
102
RTVSPropertyOp2
 70
     1
102
RTVSPropertyOp3
 70
     1
102
RTVSPropertyOp4
 70
     1
102
RTVSPropertyOp5
 70
     1
102
RTVSPropertyOp6
 70
     1
102
RTVSPropertyOp7
 70
     1
102
RTVSPropertyOp8
 70
     1
102
RTVSPropertyOp9
 70
     1
102
RTVSPropertyOp10
 70
     1
102
RTVSPropertyOp11
 70
     1
102
RTVSPropertyOp12
 70
     1
102
RTVSPropertyOp13
 70
     1
102
RTVSPropertyOp14
 70
     1
102
RTVSPropertyOp15
 70
     1
102
RTVSPropertyOp16
 70
     1
102
RTVSPropertyOp17
 70
     1
102
RTVSPropertyOp18
 70
     1
102
RTVSPropertyOp19
 70
     1
102
RTVSPropertyOp20
 70
     1
102
RTVSPropertyOp21
 70
     1
102
RTVSPropertyOp22
 70
     1
102
RTVSPropertyOp23
 70
     1
102
RTVSPropertyOp24
 70
     1
102
RTVSPropertyOp25
 70
     1
102
RTVSPropertyOp26
 70
     1
102
RTVSPropertyOp27
 70
     1
102
RTVSPropertyOp28
 70
     1
102
RTVSPropertyOp29
 70
     1
102
RTVSPropertyOp30
 70
     1
102
RTVSPropertyOp31
 70
     1
102
RTVSPropertyOp32
 70
     1
  0
XRECORD
  5
2BF
102
{ACAD_REACTORS
330
2BE
102
}
330
2BE
100
AcDbXrecord
280
     1
102
RTVSPropertyOp0
 70
     1
102
RTVSPropertyOp1
 70
     1
102
RTVSPropertyOp2
 70
     1
102
RTVSPropertyOp3
 70
     1
102
RTVSPropertyOp4
 70
     1
102
RTVSPropertyOp5
 70
     1
102
RTVSPropertyOp6
 70
     1
102
RTVSPropertyOp7
 70
     1
102
RTVSPropertyOp8
 70
     1
102
RTVSPropertyOp9
 70
     1
102
RTVSPropertyOp10
 70
     1
102
RTVSPropertyOp11
 70
     1
102
RTVSPropertyOp12
 70
     1
102
RTVSPropertyOp13
 70
     1
102
RTVSPropertyOp14
 70
     1
102
RTVSPropertyOp15
 70
     1
102
RTVSPropertyOp16
 70
     1
102
RTVSPropertyOp17
 70
     1
102
RTVSPropertyOp18
 70
     1
102
RTVSPropertyOp19
 70
     1
102
RTVSPropertyOp20
 70
     1
102
RTVSPropertyOp21
 70
     1
102
RTVSPropertyOp22
 70
     1
102
RTVSPropertyOp23
 70
     1
102
RTVSPropertyOp24
 70
     1
102
RTVSPropertyOp25
 70
     1
102
RTVSPropertyOp26
 70
     1
102
RTVSPropertyOp27
 70
     1
102
RTVSPropertyOp28
 70
     1
102
RTVSPropertyOp29
 70
     1
102
RTVSPropertyOp30
 70
     1
102
RTVSPropertyOp31
 70
     1
102
RTVSPropertyOp32
 70
     1
  0
XRECORD
  5
2C7
102
{ACAD_REACTORS
330
2C6
102
}
330
2C6
100
AcDbXrecord
280
     1
102
RTVSPropertyOp0
 70
     1
102
RTVSPropertyOp1
 70
     1
102
RTVSPropertyOp2
 70
     1
102
RTVSPropertyOp3
 70
     1
102
RTVSPropertyOp4
 70
     1
102
RTVSPropertyOp5
 70
     1
102
RTVSPropertyOp6
 70
     1
102
RTVSPropertyOp7
 70
     1
102
RTVSPropertyOp8
 70
     1
102
RTVSPropertyOp9
 70
     1
102
RTVSPropertyOp10
 70
     1
102
RTVSPropertyOp11
 70
     1
102
RTVSPropertyOp12
 70
     1
102
RTVSPropertyOp13
 70
     1
102
RTVSPropertyOp14
 70
     1
102
RTVSPropertyOp15
 70
     1
102
RTVSPropertyOp16
 70
     1
102
RTVSPropertyOp17
 70
     1
102
RTVSPropertyOp18
 70
     1
102
RTVSPropertyOp19
 70
     1
102
RTVSPropertyOp20
 70
     1
102
RTVSPropertyOp21
 70
     1
102
RTVSPropertyOp22
 70
     1
102
RTVSPropertyOp23
 70
     1
102
RTVSPropertyOp24
 70
     1
102
RTVSPropertyOp25
 70
     1
102
RTVSPropertyOp26
 70
     1
102
RTVSPropertyOp27
 70
     1
102
RTVSPropertyOp28
 70
     1
102
RTVSPropertyOp29
 70
     1
102
RTVSPropertyOp30
 70
     1
102
RTVSPropertyOp31
 70
     1
102
RTVSPropertyOp32
 70
     1
  0
XRECORD
  5
2BB
102
{ACAD_REACTORS
330
2BA
102
}
330
2BA
100
AcDbXrecord
280
     1
102
RTVSPropertyOp0
 70
     1
102
RTVSPropertyOp1
 70
     1
102
RTVSPropertyOp2
 70
     1
102
RTVSPropertyOp3
 70
     1
102
RTVSPropertyOp4
 70
     1
102
RTVSPropertyOp5
 70
     1
102
RTVSPropertyOp6
 70
     1
102
RTVSPropertyOp7
 70
     1
102
RTVSPropertyOp8
 70
     1
102
RTVSPropertyOp9
 70
     1
102
RTVSPropertyOp10
 70
     1
102
RTVSPropertyOp11
 70
     1
102
RTVSPropertyOp12
 70
     1
102
RTVSPropertyOp13
 70
     1
102
RTVSPropertyOp14
 70
     1
102
RTVSPropertyOp15
 70
     1
102
RTVSPropertyOp16
 70
     1
102
RTVSPropertyOp17
 70
     1
102
RTVSPropertyOp18
 70
     1
102
RTVSPropertyOp19
 70
     1
102
RTVSPropertyOp20
 70
     1
102
RTVSPropertyOp21
 70
     1
102
RTVSPropertyOp22
 70
     1
102
RTVSPropertyOp23
 70
     1
102
RTVSPropertyOp24
 70
     1
102
RTVSPropertyOp25
 70
     1
102
RTVSPropertyOp26
 70
     1
102
RTVSPropertyOp27
 70
     1
102
RTVSPropertyOp28
 70
     1
102
RTVSPropertyOp29
 70
     1
102
RTVSPropertyOp30
 70
     1
102
RTVSPropertyOp31
 70
     1
102
RTVSPropertyOp32
 70
     1
  0
XRECORD
  5
2BD
102
{ACAD_REACTORS
330
2BC
102
}
330
2BC
100
AcDbXrecord
280
     1
102
RTVSPropertyOp0
 70
     1
102
RTVSPropertyOp1
 70
     1
102
RTVSPropertyOp2
 70
     1
102
RTVSPropertyOp3
 70
     1
102
RTVSPropertyOp4
 70
     1
102
RTVSPropertyOp5
 70
     1
102
RTVSPropertyOp6
 70
     1
102
RTVSPropertyOp7
 70
     1
102
RTVSPropertyOp8
 70
     1
102
RTVSPropertyOp9
 70
     1
102
RTVSPropertyOp10
 70
     1
102
RTVSPropertyOp11
 70
     1
102
RTVSPropertyOp12
 70
     1
102
RTVSPropertyOp13
 70
     1
102
RTVSPropertyOp14
 70
     1
102
RTVSPropertyOp15
 70
     1
102
RTVSPropertyOp16
 70
     1
102
RTVSPropertyOp17
 70
     1
102
RTVSPropertyOp18
 70
     1
102
RTVSPropertyOp19
 70
     1
102
RTVSPropertyOp20
 70
     1
102
RTVSPropertyOp21
 70
     1
102
RTVSPropertyOp22
 70
     1
102
RTVSPropertyOp23
 70
     1
102
RTVSPropertyOp24
 70
     1
102
RTVSPropertyOp25
 70
     1
102
RTVSPropertyOp26
 70
     1
102
RTVSPropertyOp27
 70
     1
102
RTVSPropertyOp28
 70
     1
102
RTVSPropertyOp29
 70
     1
102
RTVSPropertyOp30
 70
     1
102
RTVSPropertyOp31
 70
     1
102
RTVSPropertyOp32
 70
     1
  0
XRECORD
  5
2C5
102
{ACAD_REACTORS
330
2C4
102
}
330
2C4
100
AcDbXrecord
280
     1
102
RTVSPropertyOp0
 70
     1
102
RTVSPropertyOp1
 70
     1
102
RTVSPropertyOp2
 70
     1
102
RTVSPropertyOp3
 70
     1
102
RTVSPropertyOp4
 70
     1
102
RTVSPropertyOp5
 70
     1
102
RTVSPropertyOp6
 70
     1
102
RTVSPropertyOp7
 70
     1
102
RTVSPropertyOp8
 70
     1
102
RTVSPropertyOp9
 70
     1
102
RTVSPropertyOp10
 70
     1
102
RTVSPropertyOp11
 70
     1
102
RTVSPropertyOp12
 70
     1
102
RTVSPropertyOp13
 70
     1
102
RTVSPropertyOp14
 70
     1
102
RTVSPropertyOp15
 70
     1
102
RTVSPropertyOp16
 70
     1
102
RTVSPropertyOp17
 70
     1
102
RTVSPropertyOp18
 70
     1
102
RTVSPropertyOp19
 70
     1
102
RTVSPropertyOp20
 70
     1
102
RTVSPropertyOp21
 70
     1
102
RTVSPropertyOp22
 70
     1
102
RTVSPropertyOp23
 70
     1
102
RTVSPropertyOp24
 70
     1
102
RTVSPropertyOp25
 70
     1
102
RTVSPropertyOp26
 70
     1
102
RTVSPropertyOp27
 70
     1
102
RTVSPropertyOp28
 70
     1
102
RTVSPropertyOp29
 70
     1
102
RTVSPropertyOp30
 70
     1
102
RTVSPropertyOp31
 70
     1
102
RTVSPropertyOp32
 70
     1
  0
XRECORD
  5
2A9
102
{ACAD_REACTORS
330
2A8
102
}
330
2A8
100
AcDbXrecord
280
     1
102
RTVSPropertyOp0
 70
     1
102
RTVSPropertyOp1
 70
     1
102
RTVSPropertyOp2
 70
     1
102
RTVSPropertyOp3
 70
     1
102
RTVSPropertyOp4
 70
     1
102
RTVSPropertyOp5
 70
     1
102
RTVSPropertyOp6
 70
     1
102
RTVSPropertyOp7
 70
     1
102
RTVSPropertyOp8
 70
     1
102
RTVSPropertyOp9
 70
     1
102
RTVSPropertyOp10
 70
     1
102
RTVSPropertyOp11
 70
     1
102
RTVSPropertyOp12
 70
     1
102
RTVSPropertyOp13
 70
     1
102
RTVSPropertyOp14
 70
     1
102
RTVSPropertyOp15
 70
     1
102
RTVSPropertyOp16
 70
     1
102
RTVSPropertyOp17
 70
     1
102
RTVSPropertyOp18
 70
     1
102
RTVSPropertyOp19
 70
     1
102
RTVSPropertyOp20
 70
     1
102
RTVSPropertyOp21
 70
     1
102
RTVSPropertyOp22
 70
     1
102
RTVSPropertyOp23
 70
     1
102
RTVSPropertyOp24
 70
     1
102
RTVSPropertyOp25
 70
     1
102
RTVSPropertyOp26
 70
     1
102
RTVSPropertyOp27
 70
     1
102
RTVSPropertyOp28
 70
     1
102
RTVSPropertyOp29
 70
     1
102
RTVSPropertyOp30
 70
     1
102
RTVSPropertyOp31
 70
     1
102
RTVSPropertyOp32
 70
     1
  0
XRECORD
  5
2AB
102
{ACAD_REACTORS
330
2AA
102
}
330
2AA
100
AcDbXrecord
280
     1
102
RTVSPropertyOp0
 70
     1
102
RTVSPropertyOp1
 70
     1
102
RTVSPropertyOp2
 70
     1
102
RTVSPropertyOp3
 70
     1
102
RTVSPropertyOp4
 70
     1
102
RTVSPropertyOp5
 70
     1
102
RTVSPropertyOp6
 70
     1
102
RTVSPropertyOp7
 70
     1
102
RTVSPropertyOp8
 70
     1
102
RTVSPropertyOp9
 70
     1
102
RTVSPropertyOp10
 70
     1
102
RTVSPropertyOp11
 70
     1
102
RTVSPropertyOp12
 70
     1
102
RTVSPropertyOp13
 70
     1
102
RTVSPropertyOp14
 70
     1
102
RTVSPropertyOp15
 70
     1
102
RTVSPropertyOp16
 70
     1
102
RTVSPropertyOp17
 70
     1
102
RTVSPropertyOp18
 70
     1
102
RTVSPropertyOp19
 70
     1
102
RTVSPropertyOp20
 70
     1
102
RTVSPropertyOp21
 70
     1
102
RTVSPropertyOp22
 70
     1
102
RTVSPropertyOp23
 70
     1
102
RTVSPropertyOp24
 70
     1
102
RTVSPropertyOp25
 70
     1
102
RTVSPropertyOp26
 70
     1
102
RTVSPropertyOp27
 70
     1
102
RTVSPropertyOp28
 70
     1
102
RTVSPropertyOp29
 70
     1
102
RTVSPropertyOp30
 70
     1
102
RTVSPropertyOp31
 70
     1
102
RTVSPropertyOp32
 70
     1
  0
XRECORD
  5
2AD
102
{ACAD_REACTORS
330
2AC
102
}
330
2AC
100
AcDbXrecord
280
     1
102
RTVSPropertyOp0
 70
     1
102
RTVSPropertyOp1
 70
     1
102
RTVSPropertyOp2
 70
     1
102
RTVSPropertyOp3
 70
     1
102
RTVSPropertyOp4
 70
     1
102
RTVSPropertyOp5
 70
     1
102
RTVSPropertyOp6
 70
     1
102
RTVSPropertyOp7
 70
     1
102
RTVSPropertyOp8
 70
     1
102
RTVSPropertyOp9
 70
     1
102
RTVSPropertyOp10
 70
     1
102
RTVSPropertyOp11
 70
     1
102
RTVSPropertyOp12
 70
     1
102
RTVSPropertyOp13
 70
     1
102
RTVSPropertyOp14
 70
     1
102
RTVSPropertyOp15
 70
     1
102
RTVSPropertyOp16
 70
     1
102
RTVSPropertyOp17
 70
     1
102
RTVSPropertyOp18
 70
     1
102
RTVSPropertyOp19
 70
     1
102
RTVSPropertyOp20
 70
     1
102
RTVSPropertyOp21
 70
     1
102
RTVSPropertyOp22
 70
     1
102
RTVSPropertyOp23
 70
     1
102
RTVSPropertyOp24
 70
     1
102
RTVSPropertyOp25
 70
     1
102
RTVSPropertyOp26
 70
     1
102
RTVSPropertyOp27
 70
     1
102
RTVSPropertyOp28
 70
     1
102
RTVSPropertyOp29
 70
     1
102
RTVSPropertyOp30
 70
     1
102
RTVSPropertyOp31
 70
     1
102
RTVSPropertyOp32
 70
     1
  0
XRECORD
  5
2AF
102
{ACAD_REACTORS
330
2AE
102
}
330
2AE
100
AcDbXrecord
280
     1
102
RTVSPropertyOp0
 70
     1
102
RTVSPropertyOp1
 70
     1
102
RTVSPropertyOp2
 70
     1
102
RTVSPropertyOp3
 70
     1
102
RTVSPropertyOp4
 70
     1
102
RTVSPropertyOp5
 70
     1
102
RTVSPropertyOp6
 70
     1
102
RTVSPropertyOp7
 70
     1
102
RTVSPropertyOp8
 70
     1
102
RTVSPropertyOp9
 70
     1
102
RTVSPropertyOp10
 70
     1
102
RTVSPropertyOp11
 70
     1
102
RTVSPropertyOp12
 70
     1
102
RTVSPropertyOp13
 70
     1
102
RTVSPropertyOp14
 70
     1
102
RTVSPropertyOp15
 70
     1
102
RTVSPropertyOp16
 70
     1
102
RTVSPropertyOp17
 70
     1
102
RTVSPropertyOp18
 70
     1
102
RTVSPropertyOp19
 70
     1
102
RTVSPropertyOp20
 70
     1
102
RTVSPropertyOp21
 70
     1
102
RTVSPropertyOp22
 70
     1
102
RTVSPropertyOp23
 70
     1
102
RTVSPropertyOp24
 70
     1
102
RTVSPropertyOp25
 70
     1
102
RTVSPropertyOp26
 70
     1
102
RTVSPropertyOp27
 70
     1
102
RTVSPropertyOp28
 70
     1
102
RTVSPropertyOp29
 70
     1
102
RTVSPropertyOp30
 70
     1
102
RTVSPropertyOp31
 70
     1
102
RTVSPropertyOp32
 70
     1
  0
XRECORD
  5
2C3
102
{ACAD_REACTORS
330
2C2
102
}
330
2C2
100
AcDbXrecord
280
     1
102
RTVSPropertyOp0
 70
     1
102
RTVSPropertyOp1
 70
     1
102
RTVSPropertyOp2
 70
     1
102
RTVSPropertyOp3
 70
     1
102
RTVSPropertyOp4
 70
     1
102
RTVSPropertyOp5
 70
     1
102
RTVSPropertyOp6
 70
     1
102
RTVSPropertyOp7
 70
     1
102
RTVSPropertyOp8
 70
     1
102
RTVSPropertyOp9
 70
     1
102
RTVSPropertyOp10
 70
     1
102
RTVSPropertyOp11
 70
     1
102
RTVSPropertyOp12
 70
     1
102
RTVSPropertyOp13
 70
     1
102
RTVSPropertyOp14
 70
     1
102
RTVSPropertyOp15
 70
     1
102
RTVSPropertyOp16
 70
     1
102
RTVSPropertyOp17
 70
     1
102
RTVSPropertyOp18
 70
     1
102
RTVSPropertyOp19
 70
     1
102
RTVSPropertyOp20
 70
     1
102
RTVSPropertyOp21
 70
     1
102
RTVSPropertyOp22
 70
     1
102
RTVSPropertyOp23
 70
     1
102
RTVSPropertyOp24
 70
     1
102
RTVSPropertyOp25
 70
     1
102
RTVSPropertyOp26
 70
     1
102
RTVSPropertyOp27
 70
     1
102
RTVSPropertyOp28
 70
     1
102
RTVSPropertyOp29
 70
     1
102
RTVSPropertyOp30
 70
     1
102
RTVSPropertyOp31
 70
     1
102
RTVSPropertyOp32
 70
     1
  0
XRECORD
  5
2B9
102
{ACAD_REACTORS
330
2B8
102
}
330
2B8
100
AcDbXrecord
280
     1
102
RTVSPropertyOp0
 70
     1
102
RTVSPropertyOp1
 70
     1
102
RTVSPropertyOp2
 70
     1
102
RTVSPropertyOp3
 70
     1
102
RTVSPropertyOp4
 70
     1
102
RTVSPropertyOp5
 70
     1
102
RTVSPropertyOp6
 70
     1
102
RTVSPropertyOp7
 70
     1
102
RTVSPropertyOp8
 70
     1
102
RTVSPropertyOp9
 70
     1
102
RTVSPropertyOp10
 70
     1
102
RTVSPropertyOp11
 70
     1
102
RTVSPropertyOp12
 70
     1
102
RTVSPropertyOp13
 70
     1
102
RTVSPropertyOp14
 70
     1
102
RTVSPropertyOp15
 70
     1
102
RTVSPropertyOp16
 70
     1
102
RTVSPropertyOp17
 70
     1
102
RTVSPropertyOp18
 70
     1
102
RTVSPropertyOp19
 70
     1
102
RTVSPropertyOp20
 70
     1
102
RTVSPropertyOp21
 70
     1
102
RTVSPropertyOp22
 70
     1
102
RTVSPropertyOp23
 70
     1
102
RTVSPropertyOp24
 70
     1
102
RTVSPropertyOp25
 70
     1
102
RTVSPropertyOp26
 70
     1
102
RTVSPropertyOp27
 70
     1
102
RTVSPropertyOp28
 70
     1
102
RTVSPropertyOp29
 70
     1
102
RTVSPropertyOp30
 70
     1
102
RTVSPropertyOp31
 70
     1
102
RTVSPropertyOp32
 70
     1
  0
XRECORD
  5
2C1
102
{ACAD_REACTORS
330
2C0
102
}
330
2C0
100
AcDbXrecord
280
     1
102
RTVSPropertyOp0
 70
     1
102
RTVSPropertyOp1
 70
     1
102
RTVSPropertyOp2
 70
     1
102
RTVSPropertyOp3
 70
     1
102
RTVSPropertyOp4
 70
     1
102
RTVSPropertyOp5
 70
     1
102
RTVSPropertyOp6
 70
     1
102
RTVSPropertyOp7
 70
     1
102
RTVSPropertyOp8
 70
     1
102
RTVSPropertyOp9
 70
     1
102
RTVSPropertyOp10
 70
     1
102
RTVSPropertyOp11
 70
     1
102
RTVSPropertyOp12
 70
     1
102
RTVSPropertyOp13
 70
     1
102
RTVSPropertyOp14
 70
     1
102
RTVSPropertyOp15
 70
     1
102
RTVSPropertyOp16
 70
     1
102
RTVSPropertyOp17
 70
     1
102
RTVSPropertyOp18
 70
     1
102
RTVSPropertyOp19
 70
     1
102
RTVSPropertyOp20
 70
     1
102
RTVSPropertyOp21
 70
     1
102
RTVSPropertyOp22
 70
     1
102
RTVSPropertyOp23
 70
     1
102
RTVSPropertyOp24
 70
     1
102
RTVSPropertyOp25
 70
     1
102
RTVSPropertyOp26
 70
     1
102
RTVSPropertyOp27
 70
     1
102
RTVSPropertyOp28
 70
     1
102
RTVSPropertyOp29
 70
     1
102
RTVSPropertyOp30
 70
     1
102
RTVSPropertyOp31
 70
     1
102
RTVSPropertyOp32
 70
     1
  0
ENDSEC
  0
EOF
