  0
SECTION
  2
HEADER
  9
$ACADVER
  1
AC1015
  9
$ACADMAINTVER
 70
     6
  9
$DWGCODEPAGE
  3
ANSI_932
  9
$INSBASE
 10
0.0
 20
0.0
 30
0.0
  9
$EXTMIN
 10
1081.456208276484
 20
721.6413416284549
 30
0.0
  9
$EXTMAX
 10
4222.671168808171
 20
2164.376518994852
 30
0.0
  9
$LIMMIN
 10
0.0
 20
0.0
  9
$LIMMAX
 10
4200.0
 20
2970.0
  9
$ORTHOMODE
 70
     0
  9
$REGENMODE
 70
     1
  9
$FILLMODE
 70
     1
  9
$QTEXTMODE
 70
     0
  9
$MIRRTEXT
 70
     1
  9
$LTSCALE
 40
0.5
  9
$ATTMODE
 70
     2
  9
$TEXTSIZE
 40
5.0
  9
$TRACEWID
 40
1.0
  9
$TEXTSTYLE
  7
MSP明朝1
  9
$CLAYER
  8
sunpo
  9
$CELTYPE
  6
BYLAYER
  9
$CECOLOR
 62
   256
  9
$CELTSCALE
 40
1.0
  9
$DISPSILH
 70
     0
  9
$DIMSCALE
 40
1.0
  9
$DIMASZ
 40
2.0
  9
$DIMEXO
 40
0.7
  9
$DIMDLI
 40
3.0
  9
$DIMRND
 40
0.0
  9
$DIMDLE
 40
0.0
  9
$DIMEXE
 40
0.7
  9
$DIMTP
 40
0.0
  9
$DIMTM
 40
0.0
  9
$DIMTXT
 40
2.5
  9
$DIMCEN
 40
0.09
  9
$DIMTSZ
 40
0.0
  9
$DIMTOL
 70
     0
  9
$DIMLIM
 70
     0
  9
$DIMTIH
 70
     0
  9
$DIMTOH
 70
     0
  9
$DIMSE1
 70
     0
  9
$DIMSE2
 70
     0
  9
$DIMTAD
 70
     1
  9
$DIMZIN
 70
     8
  9
$DIMBLK
  1

  9
$DIMASO
 70
     1
  9
$DIMSHO
 70
     1
  9
$DIMPOST
  1

  9
$DIMAPOST
  1

  9
$DIMALT
 70
     0
  9
$DIMALTD
 70
     4
  9
$DIMALTF
 40
0.0394
  9
$DIMLFAC
 40
1.0
  9
$DIMTOFL
 70
     1
  9
$DIMTVP
 40
0.0
  9
$DIMTIX
 70
     0
  9
$DIMSOXD
 70
     0
  9
$DIMSAH
 70
     1
  9
$DIMBLK1
  1
OPEN30
  9
$DIMBLK2
  1
OPEN30
  9
$DIMSTYLE
  2
MSP明朝寸法1
  9
$DIMCLRD
 70
     3
  9
$DIMCLRE
 70
     3
  9
$DIMCLRT
 70
     3
  9
$DIMTFAC
 40
1.0
  9
$DIMGAP
 40
1.0
  9
$DIMJUST
 70
     0
  9
$DIMSD1
 70
     0
  9
$DIMSD2
 70
     0
  9
$DIMTOLJ
 70
     1
  9
$DIMTZIN
 70
     0
  9
$DIMALTZ
 70
     0
  9
$DIMALTTZ
 70
     0
  9
$DIMUPT
 70
     0
  9
$DIMDEC
 70
     2
  9
$DIMTDEC
 70
     2
  9
$DIMALTU
 70
     8
  9
$DIMALTTD
 70
     4
  9
$DIMTXSTY
  7
MSP明朝W1
  9
$DIMAUNIT
 70
     0
  9
$DIMADEC
 70
     0
  9
$DIMALTRND
 40
0.0
  9
$DIMAZIN
 70
     0
  9
$DIMDSEP
 70
    46
  9
$DIMATFIT
 70
     3
  9
$DIMFRAC
 70
     0
  9
$DIMLDRBLK
  1
OPEN30
  9
$DIMLUNIT
 70
     2
  9
$DIMLWD
 70
    -2
  9
$DIMLWE
 70
    -2
  9
$DIMTMOVE
 70
     0
  9
$LUNITS
 70
     2
  9
$LUPREC
 70
     3
  9
$SKETCHINC
 40
1.0
  9
$FILLETRAD
 40
0.5
  9
$AUNITS
 70
     0
  9
$AUPREC
 70
     3
  9
$MENU
  1
acad
  9
$ELEVATION
 40
0.0
  9
$PELEVATION
 40
0.0
  9
$THICKNESS
 40
0.0
  9
$LIMCHECK
 70
     0
  9
$CHAMFERA
 40
100.0
  9
$CHAMFERB
 40
100.0
  9
$CHAMFERC
 40
200.0
  9
$CHAMFERD
 40
0.0
  9
$SKPOLY
 70
     0
  9
$TDCREATE
 40
2451337.667237268
  9
$TDUCREATE
 40
2451337.292237268
  9
$TDUPDATE
 40
2456127.688887975
  9
$TDUUPDATE
 40
2456127.313887974
  9
$TDINDWG
 40
1.0366016782
  9
$TDUSRTIMER
 40
1.0366016782
  9
$USRTIMER
 70
     1
  9
$ANGBASE
 50
0.0
  9
$ANGDIR
 70
     0
  9
$PDMODE
 70
     0
  9
$PDSIZE
 40
0.0
  9
$PLINEWID
 40
0.0
  9
$SPLFRAME
 70
     0
  9
$SPLINETYPE
 70
     6
  9
$SPLINESEGS
 70
     8
  9
$HANDSEED
  5
4BBC
  9
$SURFTAB1
 70
     6
  9
$SURFTAB2
 70
     6
  9
$SURFTYPE
 70
     6
  9
$SURFU
 70
     6
  9
$SURFV
 70
     6
  9
$UCSBASE
  2

  9
$UCSNAME
  2

  9
$UCSORG
 10
1000.0
 20
1000.0
 30
0.0
  9
$UCSXDIR
 10
1.0
 20
0.0
 30
0.0
  9
$UCSYDIR
 10
0.0
 20
1.0
 30
0.0
  9
$UCSORTHOREF
  2

  9
$UCSORTHOVIEW
 70
     0
  9
$UCSORGTOP
 10
0.0
 20
0.0
 30
0.0
  9
$UCSORGBOTTOM
 10
0.0
 20
0.0
 30
0.0
  9
$UCSORGLEFT
 10
0.0
 20
0.0
 30
0.0
  9
$UCSORGRIGHT
 10
0.0
 20
0.0
 30
0.0
  9
$UCSORGFRONT
 10
0.0
 20
0.0
 30
0.0
  9
$UCSORGBACK
 10
0.0
 20
0.0
 30
0.0
  9
$PUCSBASE
  2

  9
$PUCSNAME
  2

  9
$PUCSORG
 10
0.0
 20
0.0
 30
0.0
  9
$PUCSXDIR
 10
1.0
 20
0.0
 30
0.0
  9
$PUCSYDIR
 10
0.0
 20
1.0
 30
0.0
  9
$PUCSORTHOREF
  2

  9
$PUCSORTHOVIEW
 70
     0
  9
$PUCSORGTOP
 10
0.0
 20
0.0
 30
0.0
  9
$PUCSORGBOTTOM
 10
0.0
 20
0.0
 30
0.0
  9
$PUCSORGLEFT
 10
0.0
 20
0.0
 30
0.0
  9
$PUCSORGRIGHT
 10
0.0
 20
0.0
 30
0.0
  9
$PUCSORGFRONT
 10
0.0
 20
0.0
 30
0.0
  9
$PUCSORGBACK
 10
0.0
 20
0.0
 30
0.0
  9
$USERI1
 70
     0
  9
$USERI2
 70
     0
  9
$USERI3
 70
     0
  9
$USERI4
 70
     0
  9
$USERI5
 70
     0
  9
$USERR1
 40
0.0
  9
$USERR2
 40
0.0
  9
$USERR3
 40
0.0
  9
$USERR4
 40
0.0
  9
$USERR5
 40
0.0
  9
$WORLDVIEW
 70
     1
  9
$SHADEDGE
 70
     3
  9
$SHADEDIF
 70
    70
  9
$TILEMODE
 70
     0
  9
$MAXACTVP
 70
    48
  9
$PINSBASE
 10
0.0
 20
0.0
 30
0.0
  9
$PLIMCHECK
 70
     0
  9
$PEXTMIN
 10
98.24885078822076
 20
22.20804554738049
 30
0.0
  9
$PEXTMAX
 10
484.2488507882207
 20
302.2080455473805
 30
0.0
  9
$PLIMMIN
 10
72.32498970559936
 20
13.89135717970157
  9
$PLIMMAX
 10
492.4833149009118
 20
310.9231870136859
  9
$UNITMODE
 70
     0
  9
$VISRETAIN
 70
     1
  9
$PLINEGEN
 70
     0
  9
$PSLTSCALE
 70
     1
  9
$TREEDEPTH
 70
  3020
  9
$CMLSTYLE
  2
STANDARD
  9
$CMLJUST
 70
     0
  9
$CMLSCALE
 40
20.0
  9
$PROXYGRAPHICS
 70
     1
  9
$MEASUREMENT
 70
     1
  9
$CELWEIGHT
370
    -1
  9
$ENDCAPS
280
     0
  9
$JOINSTYLE
280
     0
  9
$LWDISPLAY
290
     0
  9
$INSUNITS
 70
     0
  9
$HYPERLINKBASE
  1

  9
$STYLESHEET
  1

  9
$XEDIT
290
     1
  9
$CEPSNTYPE
380
     0
  9
$PSTYLEMODE
290
     1
  9
$FINGERPRINTGUID
  2
{DA56F698-4D96-44D3-BB4C-31B7C08E0CFA}
  9
$VERSIONGUID
  2
{08CE00B8-A9ED-44A9-A350-F68DA652AA11}
  9
$EXTNAMES
290
     1
  9
$PSVPSCALE
 40
0.0
  9
$OLESTARTUP
290
     0
  0
ENDSEC
  0
SECTION
  2
CLASSES
  0
CLASS
  1
DICTIONARYVAR
  2
AcDbDictionaryVar
  3
AutoCAD 2000
 90
        0
280
     0
281
     0
  0
CLASS
  1
HATCH
  2
AcDbHatch
  3
AutoCAD 2000
 90
    32768
280
     0
281
     1
  0
CLASS
  1
ACDBDICTIONARYWDFLT
  2
AcDbDictionaryWithDefault
  3
AutoCAD 2000
 90
        0
280
     0
281
     0
  0
CLASS
  1
ACDBPLACEHOLDER
  2
AcDbPlaceHolder
  3
AutoCAD 2000
 90
        0
280
     0
281
     0
  0
CLASS
  1
LAYOUT
  2
AcDbLayout
  3
AutoCAD 2000
 90
        0
280
     0
281
     0
  0
ENDSEC
  0
SECTION
  2
TABLES
  0
TABLE
  2
VPORT
  5
8
330
0
100
AcDbSymbolTable
 70
     1
  0
VPORT
  5
4BA9
330
8
100
AcDbSymbolTableRecord
100
AcDbViewportTableRecord
  2
*Active
 70
     0
 10
0.0
 20
0.0
 11
1.0
 21
1.0
 12
1623.828580390438
 22
965.8611269454313
 13
0.0
 23
0.0
 14
10.0
 24
10.0
 15
10.0
 25
10.0
 16
0.0
 26
0.0
 36
1.0
 17
0.0
 27
0.0
 37
0.0
 40
1230.884055321696
 41
2.024813895781637
 42
50.0
 43
0.0
 44
0.0
 50
0.0
 51
0.0
 71
     0
 72
   100
 73
     1
 74
     1
 75
     0
 76
     0
 77
     0
 78
     0
281
     0
 65
     1
110
1000.0
120
1000.0
130
0.0
111
1.0
121
0.0
131
0.0
112
0.0
122
1.0
132
0.0
 79
     0
146
0.0
  0
ENDTAB
  0
TABLE
  2
LTYPE
  5
5
330
0
100
AcDbSymbolTable
 70
     2
  0
LTYPE
  5
12
330
5
100
AcDbSymbolTableRecord
100
AcDbLinetypeTableRecord
  2
BYBLOCK
 70
     0
  3

 72
    65
 73
     0
 40
0.0
  0
LTYPE
  5
13
330
5
100
AcDbSymbolTableRecord
100
AcDbLinetypeTableRecord
  2
BYLAYER
 70
     0
  3

 72
    65
 73
     0
 40
0.0
  0
LTYPE
  5
14
330
5
100
AcDbSymbolTableRecord
100
AcDbLinetypeTableRecord
  2
CONTINUOUS
 70
     0
  3
Solid line
 72
    65
 73
     0
 40
0.0
  0
LTYPE
  5
262E
330
5
100
AcDbSymbolTableRecord
100
AcDbLinetypeTableRecord
  2
HIDDEN2
 70
     0
  3
Hidden (.5x) _ _ _ _ _ _ _ _ _ _ _ _ _ _ _ _ _
 72
    65
 73
     2
 40
4.762499999999999
 49
3.174999999999999
 74
     0
 49
-1.587499999999999
 74
     0
  0
ENDTAB
  0
TABLE
  2
LAYER
  5
2
102
{ACAD_XDICTIONARY
360
4466
102
}
330
0
100
AcDbSymbolTable
 70
     7
  0
LAYER
  5
E
330
2
100
AcDbSymbolTableRecord
100
AcDbLayerTableRecord
  2
0
 70
     0
 62
     7
  6
CONTINUOUS
370
    -3
390
231F
  0
LAYER
  5
176
330
2
100
AcDbSymbolTableRecord
100
AcDbLayerTableRecord
  2
ﾃｷｽﾄ
 70
     0
 62
     3
  6
CONTINUOUS
370
    -3
390
231F
  0
LAYER
  5
177
330
2
100
AcDbSymbolTableRecord
100
AcDbLayerTableRecord
  2
ﾀｲﾄﾙ枠
 70
     0
 62
     5
  6
CONTINUOUS
370
    -3
390
231F
  0
LAYER
  5
7B2
330
2
100
AcDbSymbolTableRecord
100
AcDbLayerTableRecord
  2
DEFPOINTS
 70
     0
 62
     7
  6
CONTINUOUS
290
     0
370
    -3
390
231F
  0
LAYER
  5
136E
330
2
100
AcDbSymbolTableRecord
100
AcDbLayerTableRecord
  2
VEW枠1
 70
     1
 62
     9
  6
CONTINUOUS
370
    -3
390
231F
  0
LAYER
  5
136F
330
2
100
AcDbSymbolTableRecord
100
AcDbLayerTableRecord
  2
VEW枠2
 70
     0
 62
    -9
  6
CONTINUOUS
370
    -3
390
231F
  0
LAYER
  5
263E
330
2
100
AcDbSymbolTableRecord
100
AcDbLayerTableRecord
  2
sunpo
 70
     0
 62
     3
  6
CONTINUOUS
370
    15
390
231F
  0
ENDTAB
  0
TABLE
  2
STYLE
  5
3
330
0
100
AcDbSymbolTable
 70
     6
  0
STYLE
  5
F
330
3
100
AcDbSymbolTableRecord
100
AcDbTextStyleTableRecord
  2
STANDARD
 70
     0
 40
0.0
 41
1.0
 50
0.0
 71
     0
 42
25.0
  3
txt
  4

  0
STYLE
  5
179
330
3
100
AcDbSymbolTableRecord
100
AcDbTextStyleTableRecord
  2
BIGFONT
 70
     0
 40
1.0
 41
1.0
 50
0.0
 71
     0
 42
1.0
  3
txt.shx
  4
bigfont
  0
STYLE
  5
84E
330
3
100
AcDbSymbolTableRecord
100
AcDbTextStyleTableRecord
  2
TYPE1
 70
     0
 40
0.0
 41
0.7
 50
0.0
 71
     0
 42
25.0
  3
txt.shx
  4

  0
STYLE
  5
105B
330
3
100
AcDbSymbolTableRecord
100
AcDbTextStyleTableRecord
  2
MSP明朝1
 70
     0
 40
0.0
 41
0.7
 50
0.0
 71
     0
 42
5.0
  3
MS PMincho.ttf
  4

1001
ACAD
1000
MS PMincho
1071
    32786
  0
STYLE
  5
105D
330
3
100
AcDbSymbolTableRecord
100
AcDbTextStyleTableRecord
  2
MSP明朝W1
 70
     0
 40
0.0
 41
1.0
 50
0.0
 71
     0
 42
25.0
  3
MS PMincho.ttf
  4

1001
ACAD
1000
MS PMincho
1071
    32786
  0
STYLE
  5
2328
330
3
100
AcDbSymbolTableRecord
100
AcDbTextStyleTableRecord
  2
明朝TATE
 70
     0
 40
0.0
 41
1.0
 50
0.0
 71
     0
 42
2.5
  3
@MS PMincho.ttf
  4

1001
ACAD
1000
@MS PMincho
1071
    32786
  0
ENDTAB
  0
TABLE
  2
VIEW
  5
6
330
0
100
AcDbSymbolTable
 70
     0
  0
ENDTAB
  0
TABLE
  2
UCS
  5
7
330
0
100
AcDbSymbolTable
 70
     0
  0
ENDTAB
  0
TABLE
  2
APPID
  5
9
330
0
100
AcDbSymbolTable
 70
     5
  0
APPID
  5
10
330
9
100
AcDbSymbolTableRecord
100
AcDbRegAppTableRecord
  2
ACAD
 70
     0
  0
APPID
  5
24
330
9
100
AcDbSymbolTableRecord
100
AcDbRegAppTableRecord
  2
CONTENTTABDATA
 70
     0
  0
APPID
  5
25
330
9
100
AcDbSymbolTableRecord
100
AcDbRegAppTableRecord
  2
CONTENTCURRENTTAB
 70
     0
  0
APPID
  5
17B
330
9
100
AcDbSymbolTableRecord
100
AcDbRegAppTableRecord
  2
CONTENTBLOCKDESCRIPTION
 70
     0
  0
APPID
  5
17C
330
9
100
AcDbSymbolTableRecord
100
AcDbRegAppTableRecord
  2
CONTENTBLOCKICON
 70
     0
  0
ENDTAB
  0
TABLE
  2
DIMSTYLE
  5
A
330
0
100
AcDbSymbolTable
 70
     3
100
AcDbDimStyleTable
 71
     2
340
10C0
340
2611
  0
DIMSTYLE
105
1D
330
A
100
AcDbSymbolTableRecord
100
AcDbDimStyleTableRecord
  2
STANDARD
 70
     0
340
F
  0
DIMSTYLE
105
10C0
102
{ACAD_REACTORS
330
2723
330
2850
330
2A1C
330
2A18
330
285F
330
2840
330
275E
330
276B
330
4088
330
40B4
330
28B2
330
2A13
330
2A15
330
4125
330
4132
330
2A34
330
4A77
102
}
330
A
100
AcDbSymbolTableRecord
100
AcDbDimStyleTableRecord
  2
MSP明朝寸法1
 70
     0
 41
2.0
 42
0.7
 43
3.0
 44
0.7
 73
     0
 74
     0
 77
     1
 78
     8
140
2.5
143
0.0394
147
1.0
171
     4
172
     1
173
     1
176
     3
177
     3
178
     3
271
     2
272
     2
273
     8
274
     4
340
105D
341
33A
343
33A
344
33A
  0
DIMSTYLE
105
2611
102
{ACAD_REACTORS
330
268A
330
2CC3
102
}
330
A
100
AcDbSymbolTableRecord
100
AcDbDimStyleTableRecord
  2
MSP明朝寸法10
 70
     0
 40
10.0
 41
2.0
 42
0.0
 43
3.0
 44
0.7
 73
     0
 74
     0
 77
     1
 78
     8
140
2.5
141
1.5
143
0.0394
147
1.0
171
     4
172
     1
173
     1
176
     3
177
     3
178
     3
271
     2
272
     2
273
     8
274
     4
340
105D
341
33A
343
33A
344
33A
  0
ENDTAB
  0
TABLE
  2
BLOCK_RECORD
  5
1
330
0
100
AcDbSymbolTable
 70
    20
  0
BLOCK_RECORD
  5
18
330
1
100
AcDbSymbolTableRecord
100
AcDbBlockTableRecord
  2
*MODEL_SPACE
340
2322
  0
BLOCK_RECORD
  5
15
330
1
100
AcDbSymbolTableRecord
100
AcDbBlockTableRecord
  2
*PAPER_SPACE
340
2323
  0
BLOCK_RECORD
  5
33A
330
1
100
AcDbSymbolTableRecord
100
AcDbBlockTableRecord
  2
_OPEN30
340
0
102
{BLKREFS
331
2DC1
331
2DC2
331
4164
331
4165
331
4ACA
331
4ACB
331
4AD3
331
4AD4
331
4ADB
331
4ADC
331
4AEF
331
4AF0
331
4AF7
331
4AFD
331
4AFE
331
4B07
331
4B08
331
4B12
331
4B13
331
4B2B
331
4B2C
331
4B3C
331
4B3D
331
4B47
331
4B48
331
4B4F
331
4B55
331
4B56
331
4B5F
331
4B60
331
4B6B
331
4B6C
331
4B88
331
4B89
331
4BA3
331
4BA4
102
}
  0
BLOCK_RECORD
  5
268B
330
1
100
AcDbSymbolTableRecord
100
AcDbBlockTableRecord
  2
*D1
340
0
  0
BLOCK_RECORD
  5
2724
330
1
100
AcDbSymbolTableRecord
100
AcDbBlockTableRecord
  2
*D2
340
0
  0
BLOCK_RECORD
  5
275F
330
1
100
AcDbSymbolTableRecord
100
AcDbBlockTableRecord
  2
*D3
340
0
  0
BLOCK_RECORD
  5
276C
330
1
100
AcDbSymbolTableRecord
100
AcDbBlockTableRecord
  2
*D4
340
0
  0
BLOCK_RECORD
  5
2841
330
1
100
AcDbSymbolTableRecord
100
AcDbBlockTableRecord
  2
*D5
340
0
  0
BLOCK_RECORD
  5
2851
330
1
100
AcDbSymbolTableRecord
100
AcDbBlockTableRecord
  2
*D6
340
0
  0
BLOCK_RECORD
  5
2860
330
1
100
AcDbSymbolTableRecord
100
AcDbBlockTableRecord
  2
*D7
340
0
  0
BLOCK_RECORD
  5
28B3
330
1
100
AcDbSymbolTableRecord
100
AcDbBlockTableRecord
  2
*D8
340
0
  0
BLOCK_RECORD
  5
2A3E
330
1
100
AcDbSymbolTableRecord
100
AcDbBlockTableRecord
  2
*D9
340
0
  0
BLOCK_RECORD
  5
2A4C
330
1
100
AcDbSymbolTableRecord
100
AcDbBlockTableRecord
  2
*D10
340
0
  0
BLOCK_RECORD
  5
2A58
330
1
100
AcDbSymbolTableRecord
100
AcDbBlockTableRecord
  2
*D11
340
0
  0
BLOCK_RECORD
  5
2A7A
330
1
100
AcDbSymbolTableRecord
100
AcDbBlockTableRecord
  2
*D12
340
0
  0
BLOCK_RECORD
  5
2A94
330
1
100
AcDbSymbolTableRecord
100
AcDbBlockTableRecord
  2
*D13
340
0
  0
BLOCK_RECORD
  5
2CC4
330
1
100
AcDbSymbolTableRecord
100
AcDbBlockTableRecord
  2
*D14
340
0
  0
BLOCK_RECORD
  5
4089
330
1
100
AcDbSymbolTableRecord
100
AcDbBlockTableRecord
  2
*D15
340
0
  0
BLOCK_RECORD
  5
40B5
330
1
100
AcDbSymbolTableRecord
100
AcDbBlockTableRecord
  2
*D16
340
0
  0
BLOCK_RECORD
  5
4126
330
1
100
AcDbSymbolTableRecord
100
AcDbBlockTableRecord
  2
*D17
340
0
  0
BLOCK_RECORD
  5
4133
330
1
100
AcDbSymbolTableRecord
100
AcDbBlockTableRecord
  2
*D18
340
0
  0
BLOCK_RECORD
  5
4A78
330
1
100
AcDbSymbolTableRecord
100
AcDbBlockTableRecord
  2
*D19
340
0
  0
ENDTAB
  0
ENDSEC
  0
SECTION
  2
BLOCKS
  0
BLOCK
  5
19
330
18
100
AcDbEntity
  8
0
100
AcDbBlockBegin
  2
*MODEL_SPACE
 70
     0
 10
0.0
 20
0.0
 30
0.0
  3
*MODEL_SPACE
  1

  0
ENDBLK
  5
1A
330
18
100
AcDbEntity
  8
0
100
AcDbBlockEnd
  0
BLOCK
  5
16
330
15
100
AcDbEntity
 67
     1
  8
0
100
AcDbBlockBegin
  2
*PAPER_SPACE
 70
     0
 10
0.0
 20
0.0
 30
0.0
  3
*PAPER_SPACE
  1

  0
ENDBLK
  5
17
330
15
100
AcDbEntity
 67
     1
  8
0
100
AcDbBlockEnd
  0
BLOCK
  5
33B
330
33A
100
AcDbEntity
  8
0
100
AcDbBlockBegin
  2
_OPEN30
 70
     0
 10
0.0
 20
0.0
 30
0.0
  3
_OPEN30
  1

  0
LINE
  5
33C
330
33A
100
AcDbEntity
  8
0
  6
ByBlock
 62
     0
100
AcDbLine
 10
-1.0
 20
0.26794919
 30
0.0
 11
0.0
 21
0.0
 31
0.0
  0
LINE
  5
33D
330
33A
100
AcDbEntity
  8
0
  6
ByBlock
 62
     0
100
AcDbLine
 10
0.0
 20
0.0
 30
0.0
 11
-1.0
 21
-0.26794919
 31
0.0
  0
LINE
  5
33E
330
33A
100
AcDbEntity
  8
0
  6
ByBlock
 62
     0
100
AcDbLine
 10
0.0
 20
0.0
 30
0.0
 11
-1.0
 21
0.0
 31
0.0
  0
ENDBLK
  5
33F
330
33A
100
AcDbEntity
  8
0
100
AcDbBlockEnd
  0
BLOCK
  5
2695
330
268B
100
AcDbEntity
  8
0
 62
     3
100
AcDbBlockBegin
  2
*D1
 70
     1
 10
0.0
 20
0.0
 30
0.0
  3
*D1
  1

  0
LINE
  5
4161
330
268B
100
AcDbEntity
  8
sunpo
 62
     3
370
    -2
100
AcDbLine
 10
1211.890641387371
 20
2061.691266540527
 30
0.0
 11
1118.969260296643
 21
2061.691266540527
 31
0.0
  0
LINE
  5
4162
330
268B
100
AcDbEntity
  8
sunpo
 62
     3
370
    -2
100
AcDbLine
 10
1211.890641387371
 20
1311.691266540527
 30
0.0
 11
1118.969260296643
 21
1311.691266540527
 31
0.0
  0
LINE
  5
4163
330
268B
100
AcDbEntity
  8
sunpo
 62
     3
370
    -2
100
AcDbLine
 10
1125.969260296643
 20
2041.691266540528
 30
0.0
 11
1125.969260296643
 21
1331.691266540527
 31
0.0
  0
INSERT
  5
4164
330
268B
100
AcDbEntity
  8
sunpo
 62
     3
370
    -2
100
AcDbBlockReference
  2
_OPEN30
 10
1125.969260296643
 20
2061.691266540527
 30
0.0
 41
20.0
 42
20.0
 43
20.0
 50
90.0
  0
INSERT
  5
4165
330
268B
100
AcDbEntity
  8
sunpo
 62
     3
370
    -2
100
AcDbBlockReference
  2
_OPEN30
 10
1125.969260296643
 20
1311.691266540527
 30
0.0
 41
20.0
 42
20.0
 43
20.0
 50
270.0
  0
MTEXT
  5
4166
330
268B
100
AcDbEntity
  8
sunpo
 62
     3
100
AcDbMText
 10
1103.469260296642
 20
1686.691266540527
 30
0.0
 40
25.0
 41
0.0
 71
     5
 72
     1
  1
\A1;750
  7
MSP明朝W1
 11
0.0000000000000001
 21
1.0
 31
0.0
 73
     1
 44
1.0
  0
POINT
  5
4167
330
268B
100
AcDbEntity
  8
DEFPOINTS
 62
     0
100
AcDbPoint
 10
1211.890641387371
 20
2061.691266540527
 30
0.0
  0
POINT
  5
4168
330
268B
100
AcDbEntity
  8
DEFPOINTS
 62
     0
100
AcDbPoint
 10
1211.890641387371
 20
1311.691266540527
 30
0.0
  0
POINT
  5
4169
330
268B
100
AcDbEntity
  8
DEFPOINTS
 62
     0
100
AcDbPoint
 10
1125.969260296643
 20
1311.691266540527
 30
0.0
  0
ENDBLK
  5
2696
330
268B
100
AcDbEntity
  8
0
 62
     3
100
AcDbBlockEnd
  0
BLOCK
  5
2730
330
2724
100
AcDbEntity
  8
0
100
AcDbBlockBegin
  2
*D2
 70
     1
 10
0.0
 20
0.0
 30
0.0
  3
*D2
  1

  0
LINE
  5
4AEA
330
2724
100
AcDbEntity
  8
sunpo
 62
     3
370
    -2
100
AcDbLine
 10
1182.493206046378
 20
784.037500803415
 30
0.0
 11
1182.493206046378
 21
774.0893022748894
 31
0.0
  0
LINE
  5
4AEB
330
2724
100
AcDbEntity
  8
sunpo
 62
     3
370
    -2
100
AcDbLine
 10
1188.493206046378
 20
784.0375008034152
 30
0.0
 11
1188.493206046378
 21
774.0893022748894
 31
0.0
  0
LINE
  5
4AEC
330
2724
100
AcDbEntity
  8
sunpo
 62
     3
370
    -2
100
AcDbLine
 10
1180.493206046378
 20
774.7893022748894
 30
0.0
 11
1178.493206046378
 21
774.7893022748894
 31
0.0
  0
LINE
  5
4AED
330
2724
100
AcDbEntity
  8
sunpo
 62
     3
370
    -2
100
AcDbLine
 10
1190.493206046378
 20
774.7893022748894
 30
0.0
 11
1192.493206046378
 21
774.7893022748894
 31
0.0
  0
LINE
  5
4AEE
330
2724
100
AcDbEntity
  8
sunpo
 62
     3
370
    -2
100
AcDbLine
 10
1182.493206046378
 20
774.7893022748894
 30
0.0
 11
1188.493206046378
 21
774.7893022748894
 31
0.0
  0
INSERT
  5
4AEF
330
2724
100
AcDbEntity
  8
sunpo
 62
     3
370
    -2
100
AcDbBlockReference
  2
_OPEN30
 10
1182.493206046378
 20
774.7893022748894
 30
0.0
 41
2.0
 42
2.0
 43
2.0
  0
INSERT
  5
4AF0
330
2724
100
AcDbEntity
  8
sunpo
 62
     3
370
    -2
100
AcDbBlockReference
  2
_OPEN30
 10
1188.493206046378
 20
774.7893022748894
 30
0.0
 41
2.0
 42
2.0
 43
2.0
 50
180.0
  0
MTEXT
  5
4AF1
330
2724
100
AcDbEntity
  8
sunpo
 62
     3
100
AcDbMText
 10
1185.493206046378
 20
777.0393022748894
 30
0.0
 40
2.5
 41
0.0
 71
     5
 72
     1
  1
\A1;6
  7
MSP明朝W1
 73
     1
 44
1.0
  0
POINT
  5
4AF2
330
2724
100
AcDbEntity
  8
DEFPOINTS
 62
     0
100
AcDbPoint
 10
1182.493206046378
 20
784.737500803415
 30
0.0
  0
POINT
  5
4AF3
330
2724
100
AcDbEntity
  8
DEFPOINTS
 62
     0
100
AcDbPoint
 10
1188.493206046378
 20
784.7375008034153
 30
0.0
  0
POINT
  5
4AF4
330
2724
100
AcDbEntity
  8
DEFPOINTS
 62
     0
100
AcDbPoint
 10
1188.493206046378
 20
774.7893022748894
 30
0.0
  0
ENDBLK
  5
2731
330
2724
100
AcDbEntity
  8
0
100
AcDbBlockEnd
  0
BLOCK
  5
2769
330
275F
100
AcDbEntity
  8
0
100
AcDbBlockBegin
  2
*D3
 70
     1
 10
0.0
 20
0.0
 30
0.0
  3
*D3
  1

  0
LINE
  5
4B85
330
275F
100
AcDbEntity
  8
sunpo
 62
     3
370
    -2
100
AcDbLine
 10
1182.493206046378
 20
785.4375008034151
 30
0.0
 11
1182.493206046378
 21
841.4358234640243
 31
0.0
  0
LINE
  5
4B86
330
275F
100
AcDbEntity
  8
sunpo
 62
     3
370
    -2
100
AcDbLine
 10
1202.493206046378
 20
826.1375008034153
 30
0.0
 11
1202.493206046378
 21
841.4358234640243
 31
0.0
  0
LINE
  5
4B87
330
275F
100
AcDbEntity
  8
sunpo
 62
     3
370
    -2
100
AcDbLine
 10
1184.493206046378
 20
840.7358234640241
 30
0.0
 11
1200.493206046378
 21
840.7358234640241
 31
0.0
  0
INSERT
  5
4B88
330
275F
100
AcDbEntity
  8
sunpo
 62
     3
370
    -2
100
AcDbBlockReference
  2
_OPEN30
 10
1182.493206046378
 20
840.7358234640241
 30
0.0
 41
2.0
 42
2.0
 43
2.0
 50
180.0
  0
INSERT
  5
4B89
330
275F
100
AcDbEntity
  8
sunpo
 62
     3
370
    -2
100
AcDbBlockReference
  2
_OPEN30
 10
1202.493206046378
 20
840.7358234640241
 30
0.0
 41
2.0
 42
2.0
 43
2.0
  0
MTEXT
  5
4B8A
330
275F
100
AcDbEntity
  8
sunpo
 62
     3
100
AcDbMText
 10
1192.493206046378
 20
842.9858234640242
 30
0.0
 40
2.5
 41
0.0
 71
     5
 72
     1
  1
\A1;20
  7
MSP明朝W1
 73
     1
 44
1.0
  0
POINT
  5
4B8B
330
275F
100
AcDbEntity
  8
DEFPOINTS
 62
     0
100
AcDbPoint
 10
1182.493206046378
 20
784.737500803415
 30
0.0
  0
POINT
  5
4B8C
330
275F
100
AcDbEntity
  8
DEFPOINTS
 62
     0
100
AcDbPoint
 10
1202.493206046378
 20
825.4375008034154
 30
0.0
  0
POINT
  5
4B8D
330
275F
100
AcDbEntity
  8
DEFPOINTS
 62
     0
100
AcDbPoint
 10
1202.493206046378
 20
840.7358234640241
 30
0.0
  0
ENDBLK
  5
276A
330
275F
100
AcDbEntity
  8
0
100
AcDbBlockEnd
  0
BLOCK
  5
277B
330
276C
100
AcDbEntity
  8
0
100
AcDbBlockBegin
  2
*D4
 70
     1
 10
0.0
 20
0.0
 30
0.0
  3
*D4
  1

  0
LINE
  5
4B0D
330
276C
100
AcDbEntity
  8
sunpo
 62
     3
370
    -2
100
AcDbLine
 10
1199.493206046378
 20
827.4375008034155
 30
0.0
 11
1199.493206046378
 21
835.5357605668535
 31
0.0
  0
LINE
  5
4B0E
330
276C
100
AcDbEntity
  8
sunpo
 62
     3
370
    -2
100
AcDbLine
 10
1202.493206046378
 20
825.4375008034154
 30
0.0
 11
1202.493206046378
 21
835.5357605668535
 31
0.0
  0
LINE
  5
4B0F
330
276C
100
AcDbEntity
  8
sunpo
 62
     3
370
    -2
100
AcDbLine
 10
1197.493206046378
 20
834.8357605668534
 30
0.0
 11
1195.493206046378
 21
834.8357605668534
 31
0.0
  0
LINE
  5
4B10
330
276C
100
AcDbEntity
  8
sunpo
 62
     3
370
    -2
100
AcDbLine
 10
1204.493206046378
 20
834.8357605668534
 30
0.0
 11
1206.493206046378
 21
834.8357605668534
 31
0.0
  0
LINE
  5
4B11
330
276C
100
AcDbEntity
  8
sunpo
 62
     3
370
    -2
100
AcDbLine
 10
1199.493206046378
 20
834.8357605668534
 30
0.0
 11
1202.493206046378
 21
834.8357605668534
 31
0.0
  0
INSERT
  5
4B12
330
276C
100
AcDbEntity
  8
sunpo
 62
     3
370
    -2
100
AcDbBlockReference
  2
_OPEN30
 10
1199.493206046378
 20
834.8357605668534
 30
0.0
 41
2.0
 42
2.0
 43
2.0
  0
INSERT
  5
4B13
330
276C
100
AcDbEntity
  8
sunpo
 62
     3
370
    -2
100
AcDbBlockReference
  2
_OPEN30
 10
1202.493206046378
 20
834.8357605668534
 30
0.0
 41
2.0
 42
2.0
 43
2.0
 50
180.0
  0
MTEXT
  5
4B14
330
276C
100
AcDbEntity
  8
sunpo
 62
     3
100
AcDbMText
 10
1200.993206046378
 20
837.0857605668534
 30
0.0
 40
2.5
 41
0.0
 71
     5
 72
     1
  1
\A1;3
  7
MSP明朝W1
 73
     1
 44
1.0
  0
POINT
  5
4B15
330
276C
100
AcDbEntity
  8
DEFPOINTS
 62
     0
100
AcDbPoint
 10
1199.493206046378
 20
826.7375008034155
 30
0.0
  0
POINT
  5
4B16
330
276C
100
AcDbEntity
  8
DEFPOINTS
 62
     0
100
AcDbPoint
 10
1202.493206046378
 20
824.7375008034152
 30
0.0
  0
POINT
  5
4B17
330
276C
100
AcDbEntity
  8
DEFPOINTS
 62
     0
100
AcDbPoint
 10
1202.493206046378
 20
834.8357605668534
 30
0.0
  0
ENDBLK
  5
277C
330
276C
100
AcDbEntity
  8
0
100
AcDbBlockEnd
  0
BLOCK
  5
284D
330
2841
100
AcDbEntity
  8
0
100
AcDbBlockBegin
  2
*D5
 70
     1
 10
0.0
 20
0.0
 30
0.0
  3
*D5
  1

  0
LINE
  5
4B03
330
2841
100
AcDbEntity
  8
sunpo
 62
     3
370
    -2
100
AcDbLine
 10
1200.193206046378
 20
826.7375008034155
 30
0.0
 11
1211.990991653443
 21
826.7375008034155
 31
0.0
  0
LINE
  5
4B04
330
2841
100
AcDbEntity
  8
sunpo
 62
     3
370
    -2
100
AcDbLine
 10
1211.290991653443
 20
822.7375008034153
 30
0.0
 11
1211.290991653443
 21
820.7375008034153
 31
0.0
  0
LINE
  5
4B05
330
2841
100
AcDbEntity
  8
sunpo
 62
     3
370
    -2
100
AcDbLine
 10
1211.290991653443
 20
828.7375008034155
 30
0.0
 11
1211.290991653443
 21
834.1279502416179
 31
0.0
  0
LINE
  5
4B06
330
2841
100
AcDbEntity
  8
sunpo
 62
     3
370
    -2
100
AcDbLine
 10
1211.290991653443
 20
824.7375008034152
 30
0.0
 11
1211.290991653443
 21
826.7375008034155
 31
0.0
  0
INSERT
  5
4B07
330
2841
100
AcDbEntity
  8
sunpo
 62
     3
370
    -2
100
AcDbBlockReference
  2
_OPEN30
 10
1211.290991653443
 20
824.7375008034152
 30
0.0
 41
2.0
 42
2.0
 43
2.0
 50
90.0
  0
INSERT
  5
4B08
330
2841
100
AcDbEntity
  8
sunpo
 62
     3
370
    -2
100
AcDbBlockReference
  2
_OPEN30
 10
1211.290991653443
 20
826.7375008034155
 30
0.0
 41
2.0
 42
2.0
 43
2.0
 50
270.0
  0
MTEXT
  5
4B09
330
2841
100
AcDbEntity
  8
sunpo
 62
     3
100
AcDbMText
 10
1209.040991653443
 20
832.4327255225169
 30
0.0
 40
2.5
 41
0.0
 71
     5
 72
     1
  1
\A1;2
  7
MSP明朝W1
 11
0.0000000000000001
 21
1.0
 31
0.0
 73
     1
 44
1.0
  0
POINT
  5
4B0A
330
2841
100
AcDbEntity
  8
DEFPOINTS
 62
     0
100
AcDbPoint
 10
1211.290991653443
 20
824.7375008034152
 30
0.0
  0
POINT
  5
4B0B
330
2841
100
AcDbEntity
  8
DEFPOINTS
 62
     0
100
AcDbPoint
 10
1199.493206046378
 20
826.7375008034155
 30
0.0
  0
POINT
  5
4B0C
330
2841
100
AcDbEntity
  8
DEFPOINTS
 62
     0
100
AcDbPoint
 10
1211.290991653443
 20
826.7375008034155
 30
0.0
  0
ENDBLK
  5
284E
330
2841
100
AcDbEntity
  8
0
100
AcDbBlockEnd
  0
BLOCK
  5
285D
330
2851
100
AcDbEntity
  8
0
100
AcDbBlockBegin
  2
*D6
 70
     1
 10
0.0
 20
0.0
 30
0.0
  3
*D6
  1

  0
LINE
  5
4AFA
330
2851
100
AcDbEntity
  8
sunpo
 62
     3
370
    -2
100
AcDbLine
 10
1222.408020055084
 20
826.7375008034152
 30
0.0
 11
1222.408020055084
 21
828.7375008034153
 31
0.0
  0
LINE
  5
4AFB
330
2851
100
AcDbEntity
  8
sunpo
 62
     3
370
    -2
100
AcDbLine
 10
1222.408020055084
 20
816.7375008034152
 30
0.0
 11
1222.408020055084
 21
814.7375008034153
 31
0.0
  0
LINE
  5
4AFC
330
2851
100
AcDbEntity
  8
sunpo
 62
     3
370
    -2
100
AcDbLine
 10
1222.408020055084
 20
824.7375008034152
 30
0.0
 11
1222.408020055084
 21
818.7375008034152
 31
0.0
  0
INSERT
  5
4AFD
330
2851
100
AcDbEntity
  8
sunpo
 62
     3
370
    -2
100
AcDbBlockReference
  2
_OPEN30
 10
1222.408020055084
 20
824.7375008034152
 30
0.0
 41
2.0
 42
2.0
 43
2.0
 50
270.0
  0
INSERT
  5
4AFE
330
2851
100
AcDbEntity
  8
sunpo
 62
     3
370
    -2
100
AcDbBlockReference
  2
_OPEN30
 10
1222.408020055084
 20
818.7375008034152
 30
0.0
 41
2.0
 42
2.0
 43
2.0
 50
90.0
  0
MTEXT
  5
4AFF
330
2851
100
AcDbEntity
  8
sunpo
 62
     3
100
AcDbMText
 10
1220.158020055084
 20
821.7375008034153
 30
0.0
 40
2.5
 41
0.0
 71
     5
 72
     1
  1
\A1;6
  7
MSP明朝W1
 11
0.0000000000000001
 21
1.0
 31
0.0
 73
     1
 44
1.0
  0
POINT
  5
4B00
330
2851
100
AcDbEntity
  8
DEFPOINTS
 62
     0
100
AcDbPoint
 10
1222.408020055084
 20
824.7375008034152
 30
0.0
  0
POINT
  5
4B01
330
2851
100
AcDbEntity
  8
DEFPOINTS
 62
     0
100
AcDbPoint
 10
1222.408020055084
 20
818.7375008034152
 30
0.0
  0
POINT
  5
4B02
330
2851
100
AcDbEntity
  8
DEFPOINTS
 62
     0
100
AcDbPoint
 10
1222.408020055084
 20
818.7375008034152
 30
0.0
  0
ENDBLK
  5
285E
330
2851
100
AcDbEntity
  8
0
100
AcDbBlockEnd
  0
BLOCK
  5
286A
330
2860
100
AcDbEntity
  8
0
100
AcDbBlockBegin
  2
*D7
 70
     1
 10
0.0
 20
0.0
 30
0.0
  3
*D7
  1

  0
LINE
  5
4AD9
330
2860
100
AcDbEntity
  8
sunpo
 62
     3
370
    -2
100
AcDbLine
 10
1189.193206046378
 20
784.7375008034153
 30
0.0
 11
1223.108020055084
 21
784.7375008034153
 31
0.0
  0
LINE
  5
4ADA
330
2860
100
AcDbEntity
  8
sunpo
 62
     3
370
    -2
100
AcDbLine
 10
1222.408020055084
 20
816.7375008034152
 30
0.0
 11
1222.408020055084
 21
786.7375008034152
 31
0.0
  0
INSERT
  5
4ADB
330
2860
100
AcDbEntity
  8
sunpo
 62
     3
370
    -2
100
AcDbBlockReference
  2
_OPEN30
 10
1222.408020055084
 20
818.7375008034152
 30
0.0
 41
2.0
 42
2.0
 43
2.0
 50
90.0
  0
INSERT
  5
4ADC
330
2860
100
AcDbEntity
  8
sunpo
 62
     3
370
    -2
100
AcDbBlockReference
  2
_OPEN30
 10
1222.408020055084
 20
784.7375008034153
 30
0.0
 41
2.0
 42
2.0
 43
2.0
 50
270.0
  0
MTEXT
  5
4ADD
330
2860
100
AcDbEntity
  8
sunpo
 62
     3
100
AcDbMText
 10
1220.158020055084
 20
801.7375008034154
 30
0.0
 40
2.5
 41
0.0
 71
     5
 72
     1
  1
\A1;34
  7
MSP明朝W1
 11
0.0000000000000001
 21
1.0
 31
0.0
 73
     1
 44
1.0
  0
POINT
  5
4ADE
330
2860
100
AcDbEntity
  8
DEFPOINTS
 62
     0
100
AcDbPoint
 10
1222.408020055084
 20
818.7375008034152
 30
0.0
  0
POINT
  5
4ADF
330
2860
100
AcDbEntity
  8
DEFPOINTS
 62
     0
100
AcDbPoint
 10
1188.493206046378
 20
784.7375008034153
 30
0.0
  0
POINT
  5
4AE0
330
2860
100
AcDbEntity
  8
DEFPOINTS
 62
     0
100
AcDbPoint
 10
1222.408020055084
 20
784.7375008034153
 30
0.0
  0
ENDBLK
  5
286B
330
2860
100
AcDbEntity
  8
0
100
AcDbBlockEnd
  0
BLOCK
  5
28BD
330
28B3
100
AcDbEntity
  8
0
100
AcDbBlockBegin
  2
*D8
 70
     1
 10
0.0
 20
0.0
 30
0.0
  3
*D8
  1

  0
LINE
  5
4AC7
330
28B3
100
AcDbEntity
  8
sunpo
 62
     3
370
    -2
100
AcDbLine
 10
1182.493206046378
 20
784.037500803415
 30
0.0
 11
1182.493206046378
 21
766.7559682372155
 31
0.0
  0
LINE
  5
4AC8
330
28B3
100
AcDbEntity
  8
sunpo
 62
     3
370
    -2
100
AcDbLine
 10
1273.531398788505
 20
784.037500803415
 30
0.0
 11
1273.531398788505
 21
766.7559682372155
 31
0.0
  0
LINE
  5
4AC9
330
28B3
100
AcDbEntity
  8
sunpo
 62
     3
370
    -2
100
AcDbLine
 10
1184.493206046378
 20
767.4559682372155
 30
0.0
 11
1271.531398788505
 21
767.4559682372155
 31
0.0
  0
INSERT
  5
4ACA
330
28B3
100
AcDbEntity
  8
sunpo
 62
     3
370
    -2
100
AcDbBlockReference
  2
_OPEN30
 10
1182.493206046378
 20
767.4559682372155
 30
0.0
 41
2.0
 42
2.0
 43
2.0
 50
180.0
  0
INSERT
  5
4ACB
330
28B3
100
AcDbEntity
  8
sunpo
 62
     3
370
    -2
100
AcDbBlockReference
  2
_OPEN30
 10
1273.531398788505
 20
767.4559682372155
 30
0.0
 41
2.0
 42
2.0
 43
2.0
  0
MTEXT
  5
4ACC
330
28B3
100
AcDbEntity
  8
sunpo
 62
     6
100
AcDbMText
 10
1228.012302417441
 20
769.7059682372155
 30
0.0
 40
2.5
 41
0.0
 71
     5
 72
     1
  1
\A1;750
  7
MSP明朝W1
 73
     1
 44
1.0
  0
POINT
  5
4ACD
330
28B3
100
AcDbEntity
  8
DEFPOINTS
 62
     0
100
AcDbPoint
 10
1182.493206046378
 20
784.737500803415
 30
0.0
  0
POINT
  5
4ACE
330
28B3
100
AcDbEntity
  8
DEFPOINTS
 62
     0
100
AcDbPoint
 10
1273.531398788505
 20
784.737500803415
 30
0.0
  0
POINT
  5
4ACF
330
28B3
100
AcDbEntity
  8
DEFPOINTS
 62
     0
100
AcDbPoint
 10
1273.531398788505
 20
767.4559682372155
 30
0.0
  0
ENDBLK
  5
28BE
330
28B3
100
AcDbEntity
  8
0
100
AcDbBlockEnd
  0
BLOCK
  5
2A4A
330
2A3E
100
AcDbEntity
  8
0
100
AcDbBlockBegin
  2
*D9
 70
     1
 10
0.0
 20
0.0
 30
0.0
  3
*D9
  1

  0
LINE
  5
4B42
330
2A3E
100
AcDbEntity
  8
sunpo
 62
     3
370
    -2
100
AcDbLine
 10
1362.348229515996
 20
784.037500803415
 30
0.0
 11
1362.348229515996
 21
774.0893022748894
 31
0.0
  0
LINE
  5
4B43
330
2A3E
100
AcDbEntity
  8
sunpo
 62
     3
370
    -2
100
AcDbLine
 10
1356.348229515996
 20
784.0375008034152
 30
0.0
 11
1356.348229515996
 21
774.0893022748894
 31
0.0
  0
LINE
  5
4B44
330
2A3E
100
AcDbEntity
  8
sunpo
 62
     3
370
    -2
100
AcDbLine
 10
1364.348229515996
 20
774.7893022748894
 30
0.0
 11
1366.348229515996
 21
774.7893022748894
 31
0.0
  0
LINE
  5
4B45
330
2A3E
100
AcDbEntity
  8
sunpo
 62
     3
370
    -2
100
AcDbLine
 10
1354.348229515996
 20
774.7893022748894
 30
0.0
 11
1352.348229515996
 21
774.7893022748894
 31
0.0
  0
LINE
  5
4B46
330
2A3E
100
AcDbEntity
  8
sunpo
 62
     3
370
    -2
100
AcDbLine
 10
1362.348229515996
 20
774.7893022748894
 30
0.0
 11
1356.348229515996
 21
774.7893022748894
 31
0.0
  0
INSERT
  5
4B47
330
2A3E
100
AcDbEntity
  8
sunpo
 62
     3
370
    -2
100
AcDbBlockReference
  2
_OPEN30
 10
1362.348229515996
 20
774.7893022748894
 30
0.0
 41
2.0
 42
2.0
 43
2.0
 50
180.0
  0
INSERT
  5
4B48
330
2A3E
100
AcDbEntity
  8
sunpo
 62
     3
370
    -2
100
AcDbBlockReference
  2
_OPEN30
 10
1356.348229515996
 20
774.7893022748894
 30
0.0
 41
2.0
 42
2.0
 43
2.0
  0
MTEXT
  5
4B49
330
2A3E
100
AcDbEntity
  8
sunpo
 62
     3
100
AcDbMText
 10
1359.348229515996
 20
777.0393022748894
 30
0.0
 40
2.5
 41
0.0
 71
     5
 72
     1
  1
\A1;6
  7
MSP明朝W1
 73
     1
 44
1.0
  0
POINT
  5
4B4A
330
2A3E
100
AcDbEntity
  8
DEFPOINTS
 62
     0
100
AcDbPoint
 10
1362.348229515996
 20
784.737500803415
 30
0.0
  0
POINT
  5
4B4B
330
2A3E
100
AcDbEntity
  8
DEFPOINTS
 62
     0
100
AcDbPoint
 10
1356.348229515996
 20
784.7375008034153
 30
0.0
  0
POINT
  5
4B4C
330
2A3E
100
AcDbEntity
  8
DEFPOINTS
 62
     0
100
AcDbPoint
 10
1356.348229515996
 20
774.7893022748894
 30
0.0
  0
ENDBLK
  5
2A4B
330
2A3E
100
AcDbEntity
  8
0
100
AcDbBlockEnd
  0
BLOCK
  5
2A56
330
2A4C
100
AcDbEntity
  8
0
100
AcDbBlockBegin
  2
*D10
 70
     1
 10
0.0
 20
0.0
 30
0.0
  3
*D10
  1

  0
LINE
  5
4BA0
330
2A4C
100
AcDbEntity
  8
sunpo
 62
     3
370
    -2
100
AcDbLine
 10
1362.348229515996
 20
785.4375008034151
 30
0.0
 11
1362.348229515996
 21
842.8669363550136
 31
0.0
  0
LINE
  5
4BA1
330
2A4C
100
AcDbEntity
  8
sunpo
 62
     3
370
    -2
100
AcDbLine
 10
1342.348229515996
 20
826.1375008034153
 30
0.0
 11
1342.348229515996
 21
842.8669363550136
 31
0.0
  0
LINE
  5
4BA2
330
2A4C
100
AcDbEntity
  8
sunpo
 62
     3
370
    -2
100
AcDbLine
 10
1360.348229515996
 20
842.1669363550135
 30
0.0
 11
1344.348229515996
 21
842.1669363550135
 31
0.0
  0
INSERT
  5
4BA3
330
2A4C
100
AcDbEntity
  8
sunpo
 62
     3
370
    -2
100
AcDbBlockReference
  2
_OPEN30
 10
1362.348229515996
 20
842.1669363550135
 30
0.0
 41
2.0
 42
2.0
 43
2.0
  0
INSERT
  5
4BA4
330
2A4C
100
AcDbEntity
  8
sunpo
 62
     3
370
    -2
100
AcDbBlockReference
  2
_OPEN30
 10
1342.348229515996
 20
842.1669363550135
 30
0.0
 41
2.0
 42
2.0
 43
2.0
 50
180.0
  0
MTEXT
  5
4BA5
330
2A4C
100
AcDbEntity
  8
sunpo
 62
     3
100
AcDbMText
 10
1352.348229515996
 20
844.4169363550136
 30
0.0
 40
2.5
 41
0.0
 71
     5
 72
     1
  1
\A1;20
  7
MSP明朝W1
 73
     1
 44
1.0
  0
POINT
  5
4BA6
330
2A4C
100
AcDbEntity
  8
DEFPOINTS
 62
     0
100
AcDbPoint
 10
1362.348229515996
 20
784.737500803415
 30
0.0
  0
POINT
  5
4BA7
330
2A4C
100
AcDbEntity
  8
DEFPOINTS
 62
     0
100
AcDbPoint
 10
1342.348229515996
 20
825.4375008034154
 30
0.0
  0
POINT
  5
4BA8
330
2A4C
100
AcDbEntity
  8
DEFPOINTS
 62
     0
100
AcDbPoint
 10
1342.348229515996
 20
842.1669363550135
 30
0.0
  0
ENDBLK
  5
2A57
330
2A4C
100
AcDbEntity
  8
0
100
AcDbBlockEnd
  0
BLOCK
  5
2A64
330
2A58
100
AcDbEntity
  8
0
100
AcDbBlockBegin
  2
*D11
 70
     1
 10
0.0
 20
0.0
 30
0.0
  3
*D11
  1

  0
LINE
  5
4B65
330
2A58
100
AcDbEntity
  8
sunpo
 62
     3
370
    -2
100
AcDbLine
 10
1345.348229515996
 20
827.4375008034155
 30
0.0
 11
1345.348229515996
 21
835.5357605668535
 31
0.0
  0
LINE
  5
4B66
330
2A58
100
AcDbEntity
  8
sunpo
 62
     3
370
    -2
100
AcDbLine
 10
1342.348229515996
 20
825.4375008034154
 30
0.0
 11
1342.348229515996
 21
835.5357605668535
 31
0.0
  0
LINE
  5
4B67
330
2A58
100
AcDbEntity
  8
sunpo
 62
     3
370
    -2
100
AcDbLine
 10
1347.348229515996
 20
834.8357605668534
 30
0.0
 11
1349.348229515996
 21
834.8357605668534
 31
0.0
  0
LINE
  5
4B68
330
2A58
100
AcDbEntity
  8
sunpo
 62
     3
370
    -2
100
AcDbLine
 10
1340.348229515996
 20
834.8357605668534
 30
0.0
 11
1338.348229515996
 21
834.8357605668534
 31
0.0
  0
MTEXT
  5
4B69
330
2A58
100
AcDbEntity
  8
sunpo
 62
     3
100
AcDbMText
 10
1343.879134731895
 20
837.2863275308409
 30
0.0
 40
2.5
 41
0.0
 71
     5
 72
     1
  1
\A1;3
  7
MSP明朝W1
 73
     1
 44
1.0
  0
LINE
  5
4B6A
330
2A58
100
AcDbEntity
  8
sunpo
 62
     3
370
    -2
100
AcDbLine
 10
1345.348229515996
 20
834.8357605668534
 30
0.0
 11
1342.348229515996
 21
834.8357605668534
 31
0.0
  0
INSERT
  5
4B6B
330
2A58
100
AcDbEntity
  8
sunpo
 62
     3
370
    -2
100
AcDbBlockReference
  2
_OPEN30
 10
1345.348229515996
 20
834.8357605668534
 30
0.0
 41
2.0
 42
2.0
 43
2.0
 50
180.0
  0
INSERT
  5
4B6C
330
2A58
100
AcDbEntity
  8
sunpo
 62
     3
370
    -2
100
AcDbBlockReference
  2
_OPEN30
 10
1342.348229515996
 20
834.8357605668534
 30
0.0
 41
2.0
 42
2.0
 43
2.0
  0
POINT
  5
4B6D
330
2A58
100
AcDbEntity
  8
DEFPOINTS
 62
     0
100
AcDbPoint
 10
1345.348229515996
 20
826.7375008034155
 30
0.0
  0
POINT
  5
4B6E
330
2A58
100
AcDbEntity
  8
DEFPOINTS
 62
     0
100
AcDbPoint
 10
1342.348229515996
 20
824.7375008034152
 30
0.0
  0
POINT
  5
4B6F
330
2A58
100
AcDbEntity
  8
DEFPOINTS
 62
     0
100
AcDbPoint
 10
1342.348229515996
 20
834.8357605668534
 30
0.0
  0
ENDBLK
  5
2A65
330
2A58
100
AcDbEntity
  8
0
100
AcDbBlockEnd
  0
BLOCK
  5
2A86
330
2A7A
100
AcDbEntity
  8
0
100
AcDbBlockBegin
  2
*D12
 70
     1
 10
0.0
 20
0.0
 30
0.0
  3
*D12
  1

  0
LINE
  5
4B5B
330
2A7A
100
AcDbEntity
  8
sunpo
 62
     3
370
    -2
100
AcDbLine
 10
1344.648229515996
 20
826.7375008034155
 30
0.0
 11
1328.211363614294
 21
826.7375008034155
 31
0.0
  0
LINE
  5
4B5C
330
2A7A
100
AcDbEntity
  8
sunpo
 62
     3
370
    -2
100
AcDbLine
 10
1328.911363614294
 20
822.7375008034153
 30
0.0
 11
1328.911363614294
 21
820.7375008034153
 31
0.0
  0
LINE
  5
4B5D
330
2A7A
100
AcDbEntity
  8
sunpo
 62
     3
370
    -2
100
AcDbLine
 10
1328.911363614294
 20
828.7375008034155
 30
0.0
 11
1328.911363614294
 21
834.1279502416178
 31
0.0
  0
LINE
  5
4B5E
330
2A7A
100
AcDbEntity
  8
sunpo
 62
     3
370
    -2
100
AcDbLine
 10
1328.911363614294
 20
824.7375008034152
 30
0.0
 11
1328.911363614294
 21
826.7375008034155
 31
0.0
  0
INSERT
  5
4B5F
330
2A7A
100
AcDbEntity
  8
sunpo
 62
     3
370
    -2
100
AcDbBlockReference
  2
_OPEN30
 10
1328.911363614294
 20
824.7375008034152
 30
0.0
 41
2.0
 42
2.0
 43
2.0
 50
90.0
  0
INSERT
  5
4B60
330
2A7A
100
AcDbEntity
  8
sunpo
 62
     3
370
    -2
100
AcDbBlockReference
  2
_OPEN30
 10
1328.911363614294
 20
826.7375008034155
 30
0.0
 41
2.0
 42
2.0
 43
2.0
 50
270.0
  0
MTEXT
  5
4B61
330
2A7A
100
AcDbEntity
  8
sunpo
 62
     3
100
AcDbMText
 10
1326.661363614293
 20
832.4327255225169
 30
0.0
 40
2.5
 41
0.0
 71
     5
 72
     1
  1
\A1;2
  7
MSP明朝W1
 11
0.0000000000000001
 21
1.0
 31
0.0
 73
     1
 44
1.0
  0
POINT
  5
4B62
330
2A7A
100
AcDbEntity
  8
DEFPOINTS
 62
     0
100
AcDbPoint
 10
1328.911363614293
 20
824.7375008034152
 30
0.0
  0
POINT
  5
4B63
330
2A7A
100
AcDbEntity
  8
DEFPOINTS
 62
     0
100
AcDbPoint
 10
1345.348229515996
 20
826.7375008034155
 30
0.0
  0
POINT
  5
4B64
330
2A7A
100
AcDbEntity
  8
DEFPOINTS
 62
     0
100
AcDbPoint
 10
1328.911363614294
 20
826.7375008034155
 30
0.0
  0
ENDBLK
  5
2A87
330
2A7A
100
AcDbEntity
  8
0
100
AcDbBlockEnd
  0
BLOCK
  5
2A9E
330
2A94
100
AcDbEntity
  8
0
100
AcDbBlockBegin
  2
*D13
 70
     1
 10
0.0
 20
0.0
 30
0.0
  3
*D13
  1

  0
LINE
  5
4B3A
330
2A94
100
AcDbEntity
  8
sunpo
 62
     3
370
    -2
100
AcDbLine
 10
1355.648229515996
 20
784.7375008034153
 30
0.0
 11
1321.73341550729
 21
784.7375008034153
 31
0.0
  0
LINE
  5
4B3B
330
2A94
100
AcDbEntity
  8
sunpo
 62
     3
370
    -2
100
AcDbLine
 10
1322.43341550729
 20
816.7375008034152
 30
0.0
 11
1322.43341550729
 21
786.7375008034152
 31
0.0
  0
INSERT
  5
4B3C
330
2A94
100
AcDbEntity
  8
sunpo
 62
     3
370
    -2
100
AcDbBlockReference
  2
_OPEN30
 10
1322.43341550729
 20
818.7375008034152
 30
0.0
 41
2.0
 42
2.0
 43
2.0
 50
90.0
  0
INSERT
  5
4B3D
330
2A94
100
AcDbEntity
  8
sunpo
 62
     3
370
    -2
100
AcDbBlockReference
  2
_OPEN30
 10
1322.43341550729
 20
784.7375008034153
 30
0.0
 41
2.0
 42
2.0
 43
2.0
 50
270.0
  0
MTEXT
  5
4B3E
330
2A94
100
AcDbEntity
  8
sunpo
 62
     3
100
AcDbMText
 10
1320.18341550729
 20
801.7375008034155
 30
0.0
 40
2.5
 41
0.0
 71
     5
 72
     1
  1
\A1;34
  7
MSP明朝W1
 11
0.0000000000000001
 21
1.0
 31
0.0
 73
     1
 44
1.0
  0
POINT
  5
4B3F
330
2A94
100
AcDbEntity
  8
DEFPOINTS
 62
     0
100
AcDbPoint
 10
1322.43341550729
 20
818.7375008034152
 30
0.0
  0
POINT
  5
4B40
330
2A94
100
AcDbEntity
  8
DEFPOINTS
 62
     0
100
AcDbPoint
 10
1356.348229515996
 20
784.7375008034153
 30
0.0
  0
POINT
  5
4B41
330
2A94
100
AcDbEntity
  8
DEFPOINTS
 62
     0
100
AcDbPoint
 10
1322.43341550729
 20
784.7375008034153
 30
0.0
  0
ENDBLK
  5
2A9F
330
2A94
100
AcDbEntity
  8
0
100
AcDbBlockEnd
  0
BLOCK
  5
2CCE
330
2CC4
100
AcDbEntity
  8
0
100
AcDbBlockBegin
  2
*D14
 70
     1
 10
0.0
 20
0.0
 30
0.0
  3
*D14
  1

  0
LINE
  5
2DBE
330
2CC4
100
AcDbEntity
  8
sunpo
 62
     3
370
    -2
100
AcDbLine
 10
1211.890641387371
 20
1311.691266540527
 30
0.0
 11
1211.890641387371
 21
1206.796921136545
 31
0.0
  0
LINE
  5
2DBF
330
2CC4
100
AcDbEntity
  8
sunpo
 62
     3
370
    -2
100
AcDbLine
 10
4061.89064138737
 20
1320.691266540527
 30
0.0
 11
4061.89064138737
 21
1206.796921136545
 31
0.0
  0
LINE
  5
2DC0
330
2CC4
100
AcDbEntity
  8
sunpo
 62
     3
370
    -2
100
AcDbLine
 10
1231.890641387371
 20
1213.796921136545
 30
0.0
 11
4041.890641387371
 21
1213.796921136545
 31
0.0
  0
INSERT
  5
2DC1
330
2CC4
100
AcDbEntity
  8
sunpo
 62
     3
370
    -2
100
AcDbBlockReference
  2
_OPEN30
 10
1211.890641387371
 20
1213.796921136545
 30
0.0
 41
20.0
 42
20.0
 43
20.0
 50
180.0
  0
INSERT
  5
2DC2
330
2CC4
100
AcDbEntity
  8
sunpo
 62
     3
370
    -2
100
AcDbBlockReference
  2
_OPEN30
 10
4061.89064138737
 20
1213.796921136545
 30
0.0
 41
20.0
 42
20.0
 43
20.0
  0
MTEXT
  5
2DC3
330
2CC4
100
AcDbEntity
  8
sunpo
 62
     3
100
AcDbMText
 10
2636.89064138737
 20
1236.296921136545
 30
0.0
 40
25.0
 41
0.0
 71
     5
 72
     1
  1
\A1;2850
  7
MSP明朝W1
 73
     1
 44
1.0
  0
POINT
  5
2DC4
330
2CC4
100
AcDbEntity
  8
DEFPOINTS
 62
     0
100
AcDbPoint
 10
1211.890641387371
 20
1311.691266540527
 30
0.0
  0
POINT
  5
2DC5
330
2CC4
100
AcDbEntity
  8
DEFPOINTS
 62
     0
100
AcDbPoint
 10
4061.89064138737
 20
1320.691266540527
 30
0.0
  0
POINT
  5
2DC6
330
2CC4
100
AcDbEntity
  8
DEFPOINTS
 62
     0
100
AcDbPoint
 10
4061.89064138737
 20
1213.796921136545
 30
0.0
  0
ENDBLK
  5
2CCF
330
2CC4
100
AcDbEntity
  8
0
100
AcDbBlockEnd
  0
BLOCK
  5
408F
330
4089
100
AcDbEntity
  8
0
100
AcDbBlockBegin
  2
*D15
 70
     1
 10
0.0
 20
0.0
 30
0.0
  3
*D15
  1

  0
LINE
  5
4AF5
330
4089
100
AcDbEntity
  8
sunpo
 62
     3
370
    -2
100
AcDbLine
 10
1176.518929880186
 20
833.5629893286554
 30
0.0
 11
1184.360592234106
 21
825.5832557441118
 31
0.0
  0
MTEXT
  5
4AF6
330
4089
100
AcDbEntity
  8
sunpo
 62
     3
100
AcDbMText
 10
1180.084714253824
 20
833.1445367256957
 30
0.0
 40
2.5
 41
0.0
 71
     5
 72
     1
  1
\A1;R9
  7
MSP明朝W1
 11
0.7009092642997013
 21
-0.7132504491543288
 31
0.0
 73
     1
 44
1.0
  0
INSERT
  5
4AF7
330
4089
100
AcDbEntity
  8
sunpo
 62
     3
370
    -2
100
AcDbBlockReference
  2
_OPEN30
 10
1185.762410762706
 20
824.156754845803
 30
0.0
 41
2.0
 42
2.0
 43
2.0
 50
314.4999999999879
  0
POINT
  5
4AF8
330
4089
100
AcDbEntity
  8
DEFPOINTS
 62
     0
100
AcDbPoint
 10
1185.762410762706
 20
824.156754845803
 30
0.0
  0
POINT
  5
4AF9
330
4089
100
AcDbEntity
  8
DEFPOINTS
 62
     0
100
AcDbPoint
 10
1192.070594141402
 20
817.7375008034147
 30
0.0
  0
ENDBLK
  5
4090
330
4089
100
AcDbEntity
  8
0
100
AcDbBlockEnd
  0
BLOCK
  5
40BF
330
40B5
100
AcDbEntity
  8
0
100
AcDbBlockBegin
  2
*D16
 70
     1
 10
0.0
 20
0.0
 30
0.0
  3
*D16
  1

  0
LINE
  5
4AD0
330
40B5
100
AcDbEntity
  8
sunpo
 62
     3
370
    -2
100
AcDbLine
 10
1181.793206046378
 20
784.737500803415
 30
0.0
 11
1171.236576135269
 21
784.737500803415
 31
0.0
  0
LINE
  5
4AD1
330
40B5
100
AcDbEntity
  8
sunpo
 62
     3
370
    -2
100
AcDbLine
 10
1191.370594141404
 20
826.7375008034155
 30
0.0
 11
1171.236576135269
 21
826.7375008034155
 31
0.0
  0
LINE
  5
4AD2
330
40B5
100
AcDbEntity
  8
sunpo
 62
     3
370
    -2
100
AcDbLine
 10
1171.936576135269
 20
786.7375008034151
 30
0.0
 11
1171.936576135269
 21
824.7375008034154
 31
0.0
  0
INSERT
  5
4AD3
330
40B5
100
AcDbEntity
  8
sunpo
 62
     3
370
    -2
100
AcDbBlockReference
  2
_OPEN30
 10
1171.936576135269
 20
784.737500803415
 30
0.0
 41
2.0
 42
2.0
 43
2.0
 50
270.0
  0
INSERT
  5
4AD4
330
40B5
100
AcDbEntity
  8
sunpo
 62
     3
370
    -2
100
AcDbBlockReference
  2
_OPEN30
 10
1171.936576135269
 20
826.7375008034155
 30
0.0
 41
2.0
 42
2.0
 43
2.0
 50
90.0
  0
MTEXT
  5
4AD5
330
40B5
100
AcDbEntity
  8
sunpo
 62
     3
100
AcDbMText
 10
1169.686576135269
 20
805.7375008034153
 30
0.0
 40
2.5
 41
0.0
 71
     5
 72
     1
  1
\A1;42
  7
MSP明朝W1
 11
0.0000000000000001
 21
1.0
 31
0.0
 73
     1
 44
1.0
  0
POINT
  5
4AD6
330
40B5
100
AcDbEntity
  8
DEFPOINTS
 62
     0
100
AcDbPoint
 10
1182.493206046378
 20
784.737500803415
 30
0.0
  0
POINT
  5
4AD7
330
40B5
100
AcDbEntity
  8
DEFPOINTS
 62
     0
100
AcDbPoint
 10
1192.070594141404
 20
826.7375008034155
 30
0.0
  0
POINT
  5
4AD8
330
40B5
100
AcDbEntity
  8
DEFPOINTS
 62
     0
100
AcDbPoint
 10
1171.936576135269
 20
826.7375008034155
 30
0.0
  0
ENDBLK
  5
40C0
330
40B5
100
AcDbEntity
  8
0
100
AcDbBlockEnd
  0
BLOCK
  5
4130
330
4126
100
AcDbEntity
  8
0
100
AcDbBlockBegin
  2
*D17
 70
     1
 10
0.0
 20
0.0
 30
0.0
  3
*D17
  1

  0
LINE
  5
4B28
330
4126
100
AcDbEntity
  8
sunpo
 62
     3
370
    -2
100
AcDbLine
 10
1363.048229515996
 20
784.737500803415
 30
0.0
 11
1374.160670638719
 21
784.737500803415
 31
0.0
  0
LINE
  5
4B29
330
4126
100
AcDbEntity
  8
sunpo
 62
     3
370
    -2
100
AcDbLine
 10
1353.470841420969
 20
826.7375008034155
 30
0.0
 11
1374.160670638719
 21
826.7375008034155
 31
0.0
  0
LINE
  5
4B2A
330
4126
100
AcDbEntity
  8
sunpo
 62
     3
370
    -2
100
AcDbLine
 10
1373.460670638719
 20
786.7375008034151
 30
0.0
 11
1373.460670638719
 21
824.7375008034154
 31
0.0
  0
INSERT
  5
4B2B
330
4126
100
AcDbEntity
  8
sunpo
 62
     3
370
    -2
100
AcDbBlockReference
  2
_OPEN30
 10
1373.460670638719
 20
784.737500803415
 30
0.0
 41
2.0
 42
2.0
 43
2.0
 50
270.0
  0
INSERT
  5
4B2C
330
4126
100
AcDbEntity
  8
sunpo
 62
     3
370
    -2
100
AcDbBlockReference
  2
_OPEN30
 10
1373.460670638719
 20
826.7375008034155
 30
0.0
 41
2.0
 42
2.0
 43
2.0
 50
90.0
  0
MTEXT
  5
4B2D
330
4126
100
AcDbEntity
  8
sunpo
 62
     3
100
AcDbMText
 10
1371.210670638719
 20
805.7375008034155
 30
0.0
 40
2.5
 41
0.0
 71
     5
 72
     1
  1
\A1;42
  7
MSP明朝W1
 11
0.0000000000000001
 21
1.0
 31
0.0
 73
     1
 44
1.0
  0
POINT
  5
4B2E
330
4126
100
AcDbEntity
  8
DEFPOINTS
 62
     0
100
AcDbPoint
 10
1362.348229515996
 20
784.737500803415
 30
0.0
  0
POINT
  5
4B2F
330
4126
100
AcDbEntity
  8
DEFPOINTS
 62
     0
100
AcDbPoint
 10
1352.770841420969
 20
826.7375008034155
 30
0.0
  0
POINT
  5
4B30
330
4126
100
AcDbEntity
  8
DEFPOINTS
 62
     0
100
AcDbPoint
 10
1373.460670638719
 20
826.7375008034155
 30
0.0
  0
ENDBLK
  5
4131
330
4126
100
AcDbEntity
  8
0
100
AcDbBlockEnd
  0
BLOCK
  5
413A
330
4133
100
AcDbEntity
  8
0
100
AcDbBlockBegin
  2
*D18
 70
     1
 10
0.0
 20
0.0
 30
0.0
  3
*D18
  1

  0
LINE
  5
4B4D
330
4133
100
AcDbEntity
  8
sunpo
 62
     3
370
    -2
100
AcDbLine
 10
1368.779125966806
 20
834.027649506059
 30
0.0
 11
1360.480843328268
 21
825.5832557441115
 31
0.0
  0
MTEXT
  5
4B4E
330
4133
100
AcDbEntity
  8
sunpo
 62
     3
100
AcDbMText
 10
1365.213341593168
 20
833.6091969031
 30
0.0
 40
2.5
 41
0.0
 71
     5
 72
     1
  1
\A1;R9
  7
MSP明朝W1
 11
0.7009092642998814
 21
0.7132504491541516
 31
0.0
 73
     1
 44
1.0
  0
INSERT
  5
4B4F
330
4133
100
AcDbEntity
  8
sunpo
 62
     3
370
    -2
100
AcDbBlockReference
  2
_OPEN30
 10
1359.079024799669
 20
824.156754845803
 30
0.0
 41
2.0
 42
2.0
 43
2.0
 50
225.4999999999975
  0
POINT
  5
4B50
330
4133
100
AcDbEntity
  8
DEFPOINTS
 62
     0
100
AcDbPoint
 10
1359.079024799669
 20
824.156754845803
 30
0.0
  0
POINT
  5
4B51
330
4133
100
AcDbEntity
  8
DEFPOINTS
 62
     0
100
AcDbPoint
 10
1352.770841420969
 20
817.737500803415
 30
0.0
  0
ENDBLK
  5
413B
330
4133
100
AcDbEntity
  8
0
100
AcDbBlockEnd
  0
BLOCK
  5
4A82
330
4A78
100
AcDbEntity
  8
0
100
AcDbBlockBegin
  2
*D19
 70
     1
 10
0.0
 20
0.0
 30
0.0
  3
*D19
  1

  0
LINE
  5
4B52
330
4A78
100
AcDbEntity
  8
sunpo
 62
     3
370
    -2
100
AcDbLine
 10
1322.43341550729
 20
816.7375008034152
 30
0.0
 11
1322.43341550729
 21
814.7375008034153
 31
0.0
  0
LINE
  5
4B53
330
4A78
100
AcDbEntity
  8
sunpo
 62
     3
370
    -2
100
AcDbLine
 10
1322.43341550729
 20
826.7375008034152
 30
0.0
 11
1322.43341550729
 21
828.7375008034153
 31
0.0
  0
LINE
  5
4B54
330
4A78
100
AcDbEntity
  8
sunpo
 62
     3
370
    -2
100
AcDbLine
 10
1322.43341550729
 20
818.7375008034152
 30
0.0
 11
1322.43341550729
 21
824.7375008034152
 31
0.0
  0
INSERT
  5
4B55
330
4A78
100
AcDbEntity
  8
sunpo
 62
     3
370
    -2
100
AcDbBlockReference
  2
_OPEN30
 10
1322.43341550729
 20
818.7375008034152
 30
0.0
 41
2.0
 42
2.0
 43
2.0
 50
90.0
  0
INSERT
  5
4B56
330
4A78
100
AcDbEntity
  8
sunpo
 62
     3
370
    -2
100
AcDbBlockReference
  2
_OPEN30
 10
1322.43341550729
 20
824.7375008034152
 30
0.0
 41
2.0
 42
2.0
 43
2.0
 50
270.0
  0
MTEXT
  5
4B57
330
4A78
100
AcDbEntity
  8
sunpo
 62
     3
100
AcDbMText
 10
1320.18341550729
 20
821.7375008034155
 30
0.0
 40
2.5
 41
0.0
 71
     5
 72
     1
  1
\A1;6
  7
MSP明朝W1
 11
0.0000000000000001
 21
1.0
 31
0.0
 73
     1
 44
1.0
  0
POINT
  5
4B58
330
4A78
100
AcDbEntity
  8
DEFPOINTS
 62
     0
100
AcDbPoint
 10
1322.43341550729
 20
818.7375008034152
 30
0.0
  0
POINT
  5
4B59
330
4A78
100
AcDbEntity
  8
DEFPOINTS
 62
     0
100
AcDbPoint
 10
1322.43341550729
 20
824.7375008034152
 30
0.0
  0
POINT
  5
4B5A
330
4A78
100
AcDbEntity
  8
DEFPOINTS
 62
     0
100
AcDbPoint
 10
1322.43341550729
 20
824.7375008034152
 30
0.0
  0
ENDBLK
  5
4A83
330
4A78
100
AcDbEntity
  8
0
100
AcDbBlockEnd
  0
ENDSEC
  0
SECTION
  2
ENTITIES
  0
MTEXT
  5
1422
330
18
100
AcDbEntity
  8
0
 62
     3
100
AcDbMText
 10
2255.387085609579
 20
2104.565198799706
 30
0.0
 40
2.5
 41
0.0
 71
     6
 72
     1
  1
 
  7
TYPE1
 73
     1
 44
1.0
  0
MTEXT
  5
1426
330
18
100
AcDbEntity
  8
0
 62
     3
100
AcDbMText
 10
2283.286084648451
 20
2105.815198799706
 30
0.0
 40
2.5
 41
0.0
 71
     4
 72
     1
  1
 
  7
TYPE1
 73
     1
 44
1.0
  0
MTEXT
  5
1B6A
330
18
100
AcDbEntity
  8
0
 62
     3
100
AcDbMText
 10
2255.387085609579
 20
2104.565198799706
 30
0.0
 40
2.5
 41
0.0
 71
     6
 72
     1
  1
 
  7
TYPE1
 73
     1
 44
1.0
  0
MTEXT
  5
1B6B
330
18
100
AcDbEntity
  8
0
 62
     3
100
AcDbMText
 10
2283.286084648451
 20
2105.815198799706
 30
0.0
 40
2.5
 41
0.0
 71
     4
 72
     1
  1
 
  7
TYPE1
 73
     1
 44
1.0
  0
MTEXT
  5
1B76
330
18
100
AcDbEntity
  8
0
 62
     3
100
AcDbMText
 10
2289.603684719001
 20
2105.815198799706
 30
0.0
 40
2.5
 41
0.0
 71
     4
 72
     1
  1
 
  7
TYPE1
 73
     1
 44
1.0
  0
LINE
  5
2062
330
18
100
AcDbEntity
  8
0
100
AcDbLine
 10
1211.890641387371
 20
1311.691266540527
 30
0.0
 11
1211.890641387371
 21
2061.691266540527
 31
0.0
  0
MTEXT
  5
2064
330
18
100
AcDbEntity
  8
0
 62
     3
100
AcDbMText
 10
2026.280695250808
 20
235.038877818257
 30
0.0
 40
2.5
 41
0.0
 71
     6
 72
     1
  1
 
  7
TYPE1
 73
     1
 44
1.0
  0
MTEXT
  5
2065
330
18
100
AcDbEntity
  8
0
 62
     3
100
AcDbMText
 10
2054.179694289679
 20
236.2888778182571
 30
0.0
 40
2.5
 41
0.0
 71
     4
 72
     1
  1
 
  7
TYPE1
 73
     1
 44
1.0
  0
LINE
  5
206A
330
18
100
AcDbEntity
  8
0
100
AcDbLine
 10
4061.89064138737
 20
1320.691266540527
 30
0.0
 11
4061.89064138737
 21
2052.691266540527
 31
0.0
  0
LINE
  5
2075
330
18
100
AcDbEntity
  8
0
100
AcDbLine
 10
1211.890641387371
 20
2061.691266540527
 30
0.0
 11
4052.89064138737
 21
2061.691266540527
 31
0.0
  0
LINE
  5
2078
330
18
100
AcDbEntity
  8
0
100
AcDbLine
 10
1211.890641387371
 20
1311.691266540527
 30
0.0
 11
4052.89064138737
 21
1311.691266540527
 31
0.0
  0
LINE
  5
2079
330
18
100
AcDbEntity
  8
sunpo
 62
     3
100
AcDbLine
 10
1905.804477233063
 20
2111.691266540527
 30
0.0
 11
1905.804477233063
 21
1234.771623776032
 31
0.0
  0
LINE
  5
207A
330
18
100
AcDbEntity
  8
sunpo
 62
     3
100
AcDbLine
 10
1905.804477233063
 20
2092.762433768403
 30
0.0
 11
1971.48018438172
 21
2092.762433768403
 31
0.0
  0
LINE
  5
207B
330
18
100
AcDbEntity
  8
sunpo
 62
     3
100
AcDbLine
 10
1905.804477233063
 20
2092.762433768403
 30
0.0
 11
1933.324751463402
 21
2101.360168649594
 31
0.0
  0
LINE
  5
207C
330
18
100
AcDbEntity
  8
sunpo
 62
     3
100
AcDbLine
 10
1933.324751463402
 20
2101.360168649594
 30
0.0
 11
1933.324751463402
 21
2087.155217772869
 31
0.0
  0
LINE
  5
207E
330
18
100
AcDbEntity
  8
sunpo
 62
     3
100
AcDbLine
 10
1905.804477233063
 20
1247.839398562705
 30
0.0
 11
1971.48018438172
 21
1247.839398562705
 31
0.0
  0
LINE
  5
207F
330
18
100
AcDbEntity
  8
sunpo
 62
     3
100
AcDbLine
 10
1905.804477233063
 20
1247.839398562705
 30
0.0
 11
1933.324751463402
 21
1256.437133443895
 31
0.0
  0
LINE
  5
2080
330
18
100
AcDbEntity
  8
sunpo
 62
     3
100
AcDbLine
 10
1933.324751463402
 20
1256.437133443895
 30
0.0
 11
1933.324751463402
 21
1242.23218256717
 31
0.0
  0
LINE
  5
2083
330
18
100
AcDbEntity
  8
sunpo
 62
     3
100
AcDbLine
 10
3946.190633210992
 20
1554.191266540527
 30
0.0
 11
4156.985104778783
 21
1554.191266540527
 31
0.0
  0
LINE
  5
2085
330
18
100
AcDbEntity
  8
sunpo
 62
     3
100
AcDbLine
 10
4135.428802637817
 20
1554.191266540527
 30
0.0
 11
4135.428802637817
 21
1488.51555939187
 31
0.0
  0
LINE
  5
2086
330
18
100
AcDbEntity
  8
sunpo
 62
     3
100
AcDbLine
 10
4135.428802637817
 20
1554.191266540527
 30
0.0
 11
4144.026537519009
 21
1526.670992310188
 31
0.0
  0
LINE
  5
2087
330
18
100
AcDbEntity
  8
sunpo
 62
     3
100
AcDbLine
 10
4144.026537519009
 20
1526.670992310188
 30
0.0
 11
4129.821586642283
 21
1526.670992310188
 31
0.0
  0
LINE
  5
2089
330
18
100
AcDbEntity
  8
sunpo
 62
     3
100
AcDbLine
 10
3958.483864495237
 20
1554.191266540527
 30
0.0
 11
3958.483864495237
 21
1488.51555939187
 31
0.0
  0
LINE
  5
208A
330
18
100
AcDbEntity
  8
sunpo
 62
     3
100
AcDbLine
 10
3958.483864495237
 20
1554.191266540527
 30
0.0
 11
3967.081599376427
 21
1526.670992310188
 31
0.0
  0
LINE
  5
208B
330
18
100
AcDbEntity
  8
sunpo
 62
     3
100
AcDbLine
 10
3967.081599376427
 20
1526.670992310188
 30
0.0
 11
3952.876648499703
 21
1526.670992310188
 31
0.0
  0
LINE
  5
262F
330
18
100
AcDbEntity
  8
0
  6
HIDDEN2
 62
     6
370
    18
100
AcDbLine
 10
1211.890641387371
 20
2055.691266540527
 30
0.0
 11
4052.890641387371
 21
2055.691266540527
 31
0.0
  0
LINE
  5
2630
330
18
100
AcDbEntity
  8
0
  6
HIDDEN2
 62
     6
370
    18
100
AcDbLine
 10
4055.890641387371
 20
1320.691266540528
 30
0.0
 11
4055.890641387371
 21
2052.691266540527
 31
0.0
  0
LINE
  5
2631
330
18
100
AcDbEntity
  8
0
  6
HIDDEN2
 62
     6
370
    18
100
AcDbLine
 10
1211.890641387371
 20
1317.691266540527
 30
0.0
 11
4052.890641387371
 21
1317.691266540528
 31
0.0
  0
ARC
  5
2632
330
18
100
AcDbEntity
  8
0
  6
HIDDEN2
 62
     6
370
    18
100
AcDbCircle
 10
4052.890641387371
 20
1320.691266540528
 30
0.0
 40
3.0
100
AcDbArc
 50
270.0
 51
0.0000000000000254
  0
ARC
  5
2633
330
18
100
AcDbEntity
  8
0
  6
HIDDEN2
 62
     6
370
    18
100
AcDbCircle
 10
4052.890641387371
 20
2052.691266540527
 30
0.0
 40
3.0
100
AcDbArc
 50
0.0
 51
90.0
  0
ARC
  5
2634
330
18
100
AcDbEntity
  8
0
100
AcDbCircle
 10
4052.89064138737
 20
2052.691266540527
 30
0.0
 40
9.0
100
AcDbArc
 50
0.0
 51
90.0
  0
ARC
  5
2635
330
18
100
AcDbEntity
  8
0
100
AcDbCircle
 10
4052.89064138737
 20
1320.691266540527
 30
0.0
 40
9.0
100
AcDbArc
 50
270.0
 51
0.0
  0
LINE
  5
2636
330
18
100
AcDbEntity
  8
0
370
    18
100
AcDbLine
 10
1211.890641387371
 20
1328.691266540527
 30
0.0
 11
4044.890641387371
 21
1328.691266540527
 31
0.0
  0
LINE
  5
2637
330
18
100
AcDbEntity
  8
0
370
    18
100
AcDbLine
 10
1211.890641387371
 20
2044.691266540527
 30
0.0
 11
4044.89064138737
 21
2044.691266540527
 31
0.0
  0
LINE
  5
2638
330
18
100
AcDbEntity
  8
0
370
    18
100
AcDbLine
 10
4044.89064138737
 20
1328.691266540527
 30
0.0
 11
4044.89064138737
 21
2044.691266540527
 31
0.0
  0
LINE
  5
263C
330
18
100
AcDbEntity
  8
0
370
    18
100
AcDbLine
 10
4041.890641387372
 20
1331.691266540527
 30
0.0
 11
4044.89064138737
 21
1328.691266540527
 31
0.0
  0
LINE
  5
263D
330
18
100
AcDbEntity
  8
0
370
    18
100
AcDbLine
 10
4041.89064138737
 20
2041.691266540527
 30
0.0
 11
4044.89064138737
 21
2044.691266540527
 31
0.0
  0
DIMENSION
  5
268A
330
18
100
AcDbEntity
  8
sunpo
100
AcDbDimension
  2
*D1
 10
1125.969260296643
 20
1311.691266540527
 30
0.0
 11
1103.469260296642
 21
1686.691266540527
 31
0.0
 70
    32
 71
     5
 42
750.0000000000004
  3
MSP明朝寸法10
100
AcDbAlignedDimension
 13
1211.890641387371
 23
2061.691266540527
 33
0.0
 14
1211.890641387371
 24
1311.691266540527
 34
0.0
 50
90.0
100
AcDbRotatedDimension
  0
LINE
  5
26F0
330
18
100
AcDbEntity
  8
0
100
AcDbLine
 10
1199.341818227512
 20
826.7375008034155
 30
0.0
 11
1192.070594141404
 21
826.7375008034155
 31
0.0
  0
LINE
  5
26F1
330
18
100
AcDbEntity
  8
0
100
AcDbLine
 10
1183.071964884996
 20
817.8945724613511
 30
0.0
 11
1182.493206046378
 21
784.737500803415
 31
0.0
  0
LINE
  5
26F2
330
18
100
AcDbEntity
  8
0
100
AcDbLine
 10
1188.493206046378
 20
784.737500803415
 30
0.0
 11
1182.493206046378
 21
784.737500803415
 31
0.0
  0
LINE
  5
26F4
330
18
100
AcDbEntity
  8
0
100
AcDbLine
 10
1188.493206046378
 20
784.7375008034153
 30
0.0
 11
1190.126075637882
 21
815.8945086721441
 31
0.0
  0
LINE
  5
26F5
330
18
100
AcDbEntity
  8
0
100
AcDbLine
 10
1229.678143421813
 20
818.7375008034152
 30
0.0
 11
1193.121964242146
 21
818.7375008034152
 31
0.0
  0
LINE
  5
26F6
330
18
100
AcDbEntity
  8
0
100
AcDbLine
 10
1229.992590097511
 20
824.7375008034152
 30
0.0
 11
1202.644593865244
 21
824.7375008034152
 31
0.0
  0
LINE
  5
26FA
330
18
100
AcDbEntity
  8
0
100
AcDbLine
 10
1199.619168325624
 20
826.6535259505845
 30
0.0
 11
1202.367243767131
 21
824.8214756562463
 31
0.0
  0
ARC
  5
26FB
330
18
100
AcDbEntity
  8
0
100
AcDbCircle
 10
1192.070594141404
 20
817.7375008034156
 30
0.0
 40
9.0
100
AcDbArc
 50
90.0
 51
178.9999999999999
  0
ARC
  5
26FC
330
18
100
AcDbEntity
  8
0
100
AcDbCircle
 10
1193.121964242146
 20
815.7375008034152
 30
0.0
 40
3.0
100
AcDbArc
 50
90.0
 51
176.9999999999998
  0
LINE
  5
2707
330
18
100
AcDbEntity
  8
0
100
AcDbLine
 10
1233.683632805804
 20
818.737500803415
 30
0.0
 11
1262.902640592737
 21
818.7375008034152
 31
0.0
  0
LINE
  5
2708
330
18
100
AcDbEntity
  8
0
100
AcDbLine
 10
1256.682786607371
 20
826.7375008034152
 30
0.0
 11
1263.954010693479
 21
826.7375008034155
 31
0.0
  0
LINE
  5
2709
330
18
100
AcDbEntity
  8
0
100
AcDbLine
 10
1267.531398788505
 20
784.7375008034153
 30
0.0
 11
1265.898529197001
 21
815.8945086721441
 31
0.0
  0
LINE
  5
270A
330
18
100
AcDbEntity
  8
0
100
AcDbLine
 10
1272.952639949886
 20
817.8945724613511
 30
0.0
 11
1273.531398788505
 21
784.737500803415
 31
0.0
  0
LINE
  5
270B
330
18
100
AcDbEntity
  8
0
100
AcDbLine
 10
1267.531398788505
 20
784.737500803415
 30
0.0
 11
1273.531398788505
 21
784.737500803415
 31
0.0
  0
ARC
  5
270C
330
18
100
AcDbEntity
  8
0
100
AcDbCircle
 10
1262.902640592737
 20
815.7375008034152
 30
0.0
 40
3.0
100
AcDbArc
 50
3.000000000000176
 51
90.0
  0
ARC
  5
270D
330
18
100
AcDbEntity
  8
0
100
AcDbCircle
 10
1263.954010693479
 20
817.7375008034156
 30
0.0
 40
9.0
100
AcDbArc
 50
1.000000000000021
 51
90.0
  0
LINE
  5
270E
330
18
100
AcDbEntity
  8
0
100
AcDbLine
 10
1233.998079481502
 20
824.7375008034152
 30
0.0
 11
1253.380010969639
 21
824.7375008034152
 31
0.0
  0
LINE
  5
270F
330
18
100
AcDbEntity
  8
0
100
AcDbLine
 10
1256.405436509258
 20
826.6535259505841
 30
0.0
 11
1253.657361067752
 21
824.8214756562463
 31
0.0
  0
LINE
  5
2710
330
18
100
AcDbEntity
  8
0
100
AcDbLine
 10
1230.474078005243
 20
833.9248373843384
 30
0.0
 11
1229.206149387014
 21
809.7313181096296
 31
0.0
  0
LINE
  5
2711
330
18
100
AcDbEntity
  8
0
100
AcDbLine
 10
1234.479567389235
 20
833.9248373843384
 30
0.0
 11
1233.211638771005
 21
809.7313181096296
 31
0.0
  0
DIMENSION
  5
2723
330
18
100
AcDbEntity
  8
sunpo
100
AcDbDimension
  2
*D2
 10
1188.493206046378
 20
774.7893022748894
 30
0.0
 11
1185.493206046378
 21
777.0393022748894
 31
0.0
 70
    32
 71
     5
 42
6.0
  3
MSP明朝寸法1
100
AcDbAlignedDimension
 13
1182.493206046378
 23
784.737500803415
 33
0.0
 14
1188.493206046378
 24
784.7375008034153
 34
0.0
100
AcDbRotatedDimension
  0
DIMENSION
  5
275E
330
18
100
AcDbEntity
  8
sunpo
100
AcDbDimension
  2
*D3
 10
1202.493206046378
 20
840.7358234640241
 30
0.0
 11
1192.493206046378
 21
842.9858234640242
 31
0.0
 70
    32
 71
     5
 42
20.0
  3
MSP明朝寸法1
100
AcDbAlignedDimension
 13
1182.493206046378
 23
784.737500803415
 33
0.0
 14
1202.493206046378
 24
825.4375008034154
 34
0.0
100
AcDbRotatedDimension
  0
DIMENSION
  5
276B
330
18
100
AcDbEntity
  8
sunpo
100
AcDbDimension
  2
*D4
 10
1202.493206046378
 20
834.8357605668534
 30
0.0
 11
1200.993206046378
 21
834.8357605668534
 31
0.0
 70
   160
 71
     5
 42
3.0
  3
MSP明朝寸法1
100
AcDbAlignedDimension
 13
1199.493206046378
 23
826.7375008034155
 33
0.0
 14
1202.493206046378
 24
824.7375008034152
 34
0.0
100
AcDbRotatedDimension
  0
DIMENSION
  5
2840
330
18
100
AcDbEntity
  8
sunpo
100
AcDbDimension
  2
*D5
 10
1211.290991653443
 20
826.7375008034155
 30
0.0
 11
1211.290991653443
 21
832.4327255225169
 31
0.0
 70
   160
 71
     5
 42
2.000000000000227
  3
MSP明朝寸法1
100
AcDbAlignedDimension
 13
1211.290991653443
 23
824.7375008034152
 33
0.0
 14
1199.493206046378
 24
826.7375008034155
 34
0.0
 50
90.0
100
AcDbRotatedDimension
1001
ACAD
1000
DSTYLE
1002
{
1070
   279
1070
     0
1002
}
  0
DIMENSION
  5
2850
330
18
100
AcDbEntity
  8
sunpo
100
AcDbDimension
  2
*D6
 10
1222.408020055084
 20
818.7375008034152
 30
0.0
 11
1220.158020055084
 21
821.7375008034153
 31
0.0
 70
    32
  1
6
 71
     5
 42
6.0
  3
MSP明朝寸法1
100
AcDbAlignedDimension
 13
1222.408020055084
 23
824.7375008034152
 33
0.0
 14
1222.408020055084
 24
818.7375008034152
 34
0.0
 50
90.0
100
AcDbRotatedDimension
1001
ACAD
1000
DSTYLE
1002
{
1070
   279
1070
     2
1002
}
  0
DIMENSION
  5
285F
330
18
100
AcDbEntity
  8
sunpo
100
AcDbDimension
  2
*D7
 10
1222.408020055084
 20
784.7375008034153
 30
0.0
 11
1220.158020055084
 21
801.7375008034154
 31
0.0
 70
    32
 71
     5
 42
34.0
  3
MSP明朝寸法1
100
AcDbAlignedDimension
 13
1222.408020055084
 23
818.7375008034152
 33
0.0
 14
1188.493206046378
 24
784.7375008034153
 34
0.0
 50
90.0
100
AcDbRotatedDimension
1001
ACAD
1000
DSTYLE
1002
{
1070
   279
1070
     2
1002
}
  0
DIMENSION
  5
28B2
330
18
100
AcDbEntity
  8
sunpo
100
AcDbDimension
  2
*D8
 10
1273.531398788505
 20
767.4559682372155
 30
0.0
 11
1228.012302417441
 21
769.7059682372155
 31
0.0
 70
    32
  1
750
 71
     5
 42
91.03819274212719
  3
MSP明朝寸法1
100
AcDbAlignedDimension
 13
1182.493206046378
 23
784.737500803415
 33
0.0
 14
1273.531398788505
 24
784.737500803415
 34
0.0
100
AcDbRotatedDimension
1001
ACAD
1000
DSTYLE
1002
{
1070
   178
1070
     6
1070
   141
1040
0.0
1070
   172
1070
     0
1070
   288
1070
     1
1002
}
  0
LINE
  5
2A12
330
18
100
AcDbEntity
  8
0
100
AcDbLine
 10
1313.453027242069
 20
818.7375008034155
 30
0.0
 11
1351.719471320228
 21
818.7375008034152
 31
0.0
  0
DIMENSION
  5
2A13
330
18
100
AcDbEntity
  8
sunpo
100
AcDbDimension
  2
*D13
 10
1322.43341550729
 20
784.7375008034153
 30
0.0
 11
1320.18341550729
 21
801.7375008034155
 31
0.0
 70
    32
 71
     5
 42
34.0
  3
MSP明朝寸法1
100
AcDbAlignedDimension
 13
1322.43341550729
 23
818.7375008034152
 33
0.0
 14
1356.348229515996
 24
784.7375008034153
 34
0.0
 50
90.0
100
AcDbRotatedDimension
1001
ACAD
1000
DSTYLE
1002
{
1070
   279
1070
     2
1002
}
  0
DIMENSION
  5
2A15
330
18
100
AcDbEntity
  8
sunpo
100
AcDbDimension
  2
*D11
 10
1342.348229515996
 20
834.8357605668534
 30
0.0
 11
1343.879134731895
 21
837.2863275308409
 31
0.0
 70
   160
 71
     5
 42
3.0
  3
MSP明朝寸法1
100
AcDbAlignedDimension
 13
1345.348229515996
 23
826.7375008034155
 33
0.0
 14
1342.348229515996
 24
824.7375008034152
 34
0.0
 50
180.0
100
AcDbRotatedDimension
1001
ACAD
1000
DSTYLE
1002
{
1070
   279
1070
     2
1002
}
  0
LINE
  5
2A16
330
18
100
AcDbEntity
  8
0
100
AcDbLine
 10
1345.499617334862
 20
826.7375008034155
 30
0.0
 11
1352.770841420969
 21
826.7375008034155
 31
0.0
  0
DIMENSION
  5
2A18
330
18
100
AcDbEntity
  8
sunpo
100
AcDbDimension
  2
*D10
 10
1342.348229515996
 20
842.1669363550135
 30
0.0
 11
1352.348229515996
 21
844.4169363550136
 31
0.0
 70
    32
 71
     5
 42
20.00000000000022
  3
MSP明朝寸法1
100
AcDbAlignedDimension
 13
1362.348229515996
 23
784.737500803415
 33
0.0
 14
1342.348229515996
 24
825.4375008034154
 34
0.0
 50
180.0
100
AcDbRotatedDimension
  0
LINE
  5
2A1A
330
18
100
AcDbEntity
  8
0
100
AcDbLine
 10
1361.769470677377
 20
817.8945724613511
 30
0.0
 11
1362.348229515996
 21
784.737500803415
 31
0.0
  0
LINE
  5
2A1B
330
18
100
AcDbEntity
  8
0
100
AcDbLine
 10
1356.348229515996
 20
784.7375008034153
 30
0.0
 11
1354.715359924491
 21
815.8945086721441
 31
0.0
  0
DIMENSION
  5
2A1C
330
18
100
AcDbEntity
  8
sunpo
100
AcDbDimension
  2
*D9
 10
1356.348229515996
 20
774.7893022748894
 30
0.0
 11
1359.348229515996
 21
777.0393022748894
 31
0.0
 70
    32
 71
     5
 42
6.0
  3
MSP明朝寸法1
100
AcDbAlignedDimension
 13
1362.348229515996
 23
784.737500803415
 33
0.0
 14
1356.348229515996
 24
784.7375008034153
 34
0.0
 50
180.0
100
AcDbRotatedDimension
  0
LINE
  5
2A1D
330
18
100
AcDbEntity
  8
0
100
AcDbLine
 10
1356.348229515996
 20
784.737500803415
 30
0.0
 11
1362.348229515996
 21
784.737500803415
 31
0.0
  0
ARC
  5
2A26
330
18
100
AcDbEntity
  8
0
100
AcDbCircle
 10
1351.719471320228
 20
815.7375008034152
 30
0.0
 40
3.0
100
AcDbArc
 50
3.000000000000176
 51
90.0
  0
ARC
  5
2A27
330
18
100
AcDbEntity
  8
0
100
AcDbCircle
 10
1352.770841420969
 20
817.7375008034156
 30
0.0
 40
9.0
100
AcDbArc
 50
1.000000000000021
 51
90.0
  0
LINE
  5
2A2F
330
18
100
AcDbEntity
  8
0
100
AcDbLine
 10
1311.019918641562
 20
824.7375008034152
 30
0.0
 11
1342.19684169713
 21
824.7375008034152
 31
0.0
  0
DIMENSION
  5
2A34
330
18
100
AcDbEntity
  8
sunpo
100
AcDbDimension
  2
*D12
 10
1328.911363614294
 20
826.7375008034155
 30
0.0
 11
1328.911363614293
 21
832.4327255225169
 31
0.0
 70
   160
 71
     5
 42
2.000000000000227
  3
MSP明朝寸法1
100
AcDbAlignedDimension
 13
1328.911363614293
 23
824.7375008034152
 33
0.0
 14
1345.348229515996
 24
826.7375008034155
 34
0.0
 50
90.0
100
AcDbRotatedDimension
  0
LINE
  5
2A35
330
18
100
AcDbEntity
  8
0
100
AcDbLine
 10
1345.222267236749
 20
826.6535259505845
 30
0.0
 11
1342.474191795243
 21
824.8214756562463
 31
0.0
  0
LINE
  5
2B89
330
18
100
AcDbEntity
  8
sunpo
100
AcDbLine
 10
1312.36249892821
 20
830.8949883658906
 30
0.0
 11
1310.486790408966
 21
822.2924101864437
 31
0.0
  0
LINE
  5
2B8A
330
18
100
AcDbEntity
  8
sunpo
100
AcDbLine
 10
1310.486790408966
 20
822.2924101864437
 30
0.0
 11
1314.238207447456
 21
822.2924101864437
 31
0.0
  0
LINE
  5
2B8B
330
18
100
AcDbEntity
  8
sunpo
100
AcDbLine
 10
1314.238207447456
 20
822.2924101864437
 30
0.0
 11
1312.36249892821
 21
813.8001255247226
 31
0.0
  0
DIMENSION
  5
2CC3
330
18
100
AcDbEntity
  8
sunpo
100
AcDbDimension
  2
*D14
 10
4061.89064138737
 20
1213.796921136545
 30
0.0
 11
2636.89064138737
 21
1236.296921136545
 31
0.0
 70
    32
 71
     5
 42
2849.999999999999
  3
MSP明朝寸法10
100
AcDbAlignedDimension
 13
1211.890641387371
 23
1311.691266540527
 33
0.0
 14
4061.89064138737
 24
1320.691266540527
 34
0.0
100
AcDbRotatedDimension
  0
TEXT
  5
2CED
330
18
100
AcDbEntity
  8
sunpo
 62
     3
100
AcDbText
 10
1950.296185696236
 20
2107.151234301591
 30
0.0
 40
25.0
  1
A
  7
MSP明朝W1
100
AcDbText
  0
TEXT
  5
2CEE
330
18
100
AcDbEntity
  8
sunpo
 62
     3
100
AcDbText
 10
1950.296185696236
 20
1265.812001920529
 30
0.0
 40
25.0
  1
A
  7
MSP明朝W1
100
AcDbText
  0
TEXT
  5
2CEF
330
18
100
AcDbEntity
  8
sunpo
 62
     3
100
AcDbText
 10
4148.932345332148
 20
1516.932929708463
 30
0.0
 40
25.0
  1
B
 50
270.0
  7
MSP明朝W1
100
AcDbText
  0
TEXT
  5
2CF0
330
18
100
AcDbEntity
  8
sunpo
 62
     3
100
AcDbText
 10
3973.3895704989
 20
1516.932929708463
 30
0.0
 40
25.0
  1
B
 50
270.0
  7
MSP明朝W1
100
AcDbText
  0
TEXT
  5
2CF4
330
18
100
AcDbEntity
  8
sunpo
 62
     3
100
AcDbText
 10
4120.230551989843
 20
2133.477642590358
 30
0.0
 40
25.0
  1
2-R9
  7
MSP明朝W1
100
AcDbText
  0
LEADER
  5
2CF5
330
18
100
AcDbEntity
  8
sunpo
100
AcDbLeader
  3
MSP明朝寸法10
 76
     2
 10
4059.254602418049
 20
2059.055227571206
 30
0.0
 10
4093.823367502159
 20
2120.823691604399
 30
0.0
1001
ACAD
1000
DSTYLE
1002
{
1070
   147
1040
1.0
1070
    77
1070
     0
1002
}
  0
LINE
  5
2CF6
330
18
100
AcDbEntity
  8
sunpo
100
AcDbLine
 10
4093.823367502159
 20
2120.823691604399
 30
0.0
 11
4222.671168808171
 21
2120.823691604399
 31
0.0
  0
TEXT
  5
2D01
330
18
100
AcDbEntity
  8
sunpo
 62
     3
100
AcDbText
 10
1112.355084680979
 20
1764.30418306944
 30
0.0
 40
25.0
  1
(下)
 50
90.0
  7
MSP明朝W1
100
AcDbText
  0
ARC
  5
2E96
330
18
100
AcDbEntity
  8
0
100
AcDbCircle
 10
1199.341818227512
 20
826.2375008034155
 30
0.0
 40
0.5
100
AcDbArc
 50
56.30993247401718
 51
90.0
  0
ARC
  5
2E97
330
18
100
AcDbEntity
  8
0
100
AcDbCircle
 10
1202.644593865244
 20
825.2375008034153
 30
0.0
 40
0.5
100
AcDbArc
 50
236.3099324740149
 51
270.0
  0
ARC
  5
2E98
330
18
100
AcDbEntity
  8
0
100
AcDbCircle
 10
1253.380010969639
 20
825.2375008034153
 30
0.0
 40
0.5
100
AcDbArc
 50
270.0
 51
303.6900675259827
  0
ARC
  5
2E99
330
18
100
AcDbEntity
  8
0
100
AcDbCircle
 10
1256.682786607371
 20
826.2375008034153
 30
0.0
 40
0.5
100
AcDbArc
 50
90.0
 51
123.690067525985
  0
ARC
  5
2E9A
330
18
100
AcDbEntity
  8
0
100
AcDbCircle
 10
1342.19684169713
 20
825.2375008034153
 30
0.0
 40
0.5
100
AcDbArc
 50
270.0
 51
303.6900675259827
  0
ARC
  5
2E9B
330
18
100
AcDbEntity
  8
0
100
AcDbCircle
 10
1345.499617334862
 20
826.2375008034155
 30
0.0
 40
0.5
100
AcDbArc
 50
90.0
 51
123.690067525985
  0
LINE
  5
2F11
330
18
100
AcDbEntity
  8
0
370
    18
100
AcDbLine
 10
1211.890641387371
 20
1331.691266540527
 30
0.0
 11
4041.89064138737
 21
1331.691266540527
 31
0.0
  0
LINE
  5
2F12
330
18
100
AcDbEntity
  8
0
370
    18
100
AcDbLine
 10
4041.89064138737
 20
1331.691266540527
 30
0.0
 11
4041.89064138737
 21
2041.691266540527
 31
0.0
  0
LINE
  5
2F13
330
18
100
AcDbEntity
  8
0
370
    18
100
AcDbLine
 10
1211.890641387371
 20
2041.691266540527
 30
0.0
 11
4041.89064138737
 21
2041.691266540527
 31
0.0
  0
MTEXT
  5
33B0
330
18
100
AcDbEntity
  8
0
 62
     3
100
AcDbMText
 10
8479.599297475338
 20
1742.839736178122
 30
0.0
 40
2.5
 41
0.0
 71
     6
 72
     1
  1
 
  7
TYPE1
 73
     1
 44
1.0
  0
MTEXT
  5
33B1
330
18
100
AcDbEntity
  8
0
 62
     3
100
AcDbMText
 10
8507.498296514212
 20
1744.089736178121
 30
0.0
 40
2.5
 41
0.0
 71
     4
 72
     1
  1
 
  7
TYPE1
 73
     1
 44
1.0
  0
MTEXT
  5
33B2
330
18
100
AcDbEntity
  8
0
 62
     3
100
AcDbMText
 10
8479.599297475338
 20
1742.839736178122
 30
0.0
 40
2.5
 41
0.0
 71
     6
 72
     1
  1
 
  7
TYPE1
 73
     1
 44
1.0
  0
MTEXT
  5
33B3
330
18
100
AcDbEntity
  8
0
 62
     3
100
AcDbMText
 10
8507.498296514212
 20
1744.089736178121
 30
0.0
 40
2.5
 41
0.0
 71
     4
 72
     1
  1
 
  7
TYPE1
 73
     1
 44
1.0
  0
MTEXT
  5
33B4
330
18
100
AcDbEntity
  8
0
 62
     3
100
AcDbMText
 10
8513.815896584763
 20
1744.089736178121
 30
0.0
 40
2.5
 41
0.0
 71
     4
 72
     1
  1
 
  7
TYPE1
 73
     1
 44
1.0
  0
MTEXT
  5
33B5
330
18
100
AcDbEntity
  8
0
 62
     3
100
AcDbMText
 10
10728.33395626378
 20
4294.381158399851
 30
0.0
 40
2.5
 41
0.0
 71
     6
 72
     1
  1
 
  7
TYPE1
 73
     1
 44
1.0
  0
MTEXT
  5
33B6
330
18
100
AcDbEntity
  8
0
 62
     3
100
AcDbMText
 10
10756.23295530265
 20
4295.631158399851
 30
0.0
 40
2.5
 41
0.0
 71
     4
 72
     1
  1
 
  7
TYPE1
 73
     1
 44
1.0
  0
MTEXT
  5
33B7
330
18
100
AcDbEntity
  8
0
 62
     3
100
AcDbMText
 10
10728.33395626378
 20
4294.381158399851
 30
0.0
 40
2.5
 41
0.0
 71
     6
 72
     1
  1
 
  7
TYPE1
 73
     1
 44
1.0
  0
MTEXT
  5
33B8
330
18
100
AcDbEntity
  8
0
 62
     3
100
AcDbMText
 10
10756.23295530265
 20
4295.631158399851
 30
0.0
 40
2.5
 41
0.0
 71
     4
 72
     1
  1
 
  7
TYPE1
 73
     1
 44
1.0
  0
MTEXT
  5
33B9
330
18
100
AcDbEntity
  8
0
 62
     3
100
AcDbMText
 10
10762.5505553732
 20
4295.631158399851
 30
0.0
 40
2.5
 41
0.0
 71
     4
 72
     1
  1
 
  7
TYPE1
 73
     1
 44
1.0
  0
DIMENSION
  5
4088
330
18
100
AcDbEntity
  8
sunpo
100
AcDbDimension
  2
*D15
 10
1192.070594141402
 20
817.7375008034147
 30
0.0
 11
1178.479900743227
 21
831.5674908810215
 31
0.0
 70
   164
 71
     5
 42
8.999999999999317
  3
MSP明朝寸法1
100
AcDbRadialDimension
 15
1185.762410762706
 25
824.156754845803
 35
0.0
 40
0.0
1001
ACAD
1000
DSTYLE
1002
{
1070
   141
1040
0.0
1070
   172
1070
     0
1070
   288
1070
     1
1002
}
  0
DIMENSION
  5
40B4
330
18
100
AcDbEntity
  8
sunpo
100
AcDbDimension
  2
*D16
 10
1171.936576135269
 20
826.7375008034155
 30
0.0
 11
1169.686576135269
 21
805.7375008034153
 31
0.0
 70
    32
 71
     5
 42
42.00000000000045
  3
MSP明朝寸法1
100
AcDbAlignedDimension
 13
1182.493206046378
 23
784.737500803415
 33
0.0
 14
1192.070594141404
 24
826.7375008034155
 34
0.0
 50
90.0
100
AcDbRotatedDimension
  0
DIMENSION
  5
4125
330
18
100
AcDbEntity
  8
sunpo
100
AcDbDimension
  2
*D17
 10
1373.460670638719
 20
826.7375008034155
 30
0.0
 11
1371.210670638719
 21
805.7375008034155
 31
0.0
 70
    32
 71
     5
 42
42.00000000000045
  3
MSP明朝寸法1
100
AcDbAlignedDimension
 13
1362.348229515996
 23
784.737500803415
 33
0.0
 14
1352.770841420969
 24
826.7375008034155
 34
0.0
 50
90.0
100
AcDbRotatedDimension
  0
DIMENSION
  5
4132
330
18
100
AcDbEntity
  8
sunpo
100
AcDbDimension
  2
*D18
 10
1352.770841420969
 20
817.737500803415
 30
0.0
 11
1366.818155103765
 21
832.0321510584253
 31
0.0
 70
   164
 71
     5
 42
9.000000000000909
  3
MSP明朝寸法1
100
AcDbRadialDimension
 15
1359.079024799669
 25
824.156754845803
 35
0.0
 40
0.0
1001
ACAD
1000
DSTYLE
1002
{
1070
   141
1040
0.0
1070
   172
1070
     0
1070
   288
1070
     1
1002
}
  0
LWPOLYLINE
  5
442F
330
18
100
AcDbEntity
  8
sunpo
100
AcDbPolyline
 90
        4
 70
     1
 43
0.0
 10
1111.314070659598
 20
721.6413416284549
 10
1525.592386622207
 20
721.6413416284549
 10
1525.592386622207
 20
887.267904969398
 10
1111.314070659598
 20
887.267904969398
  0
DIMENSION
  5
4A77
330
18
100
AcDbEntity
  8
sunpo
100
AcDbDimension
  2
*D19
 10
1322.43341550729
 20
824.7375008034152
 30
0.0
 11
1320.18341550729
 21
821.7375008034155
 31
0.0
 70
    32
 71
     5
 42
6.0
  3
MSP明朝寸法1
100
AcDbAlignedDimension
 13
1322.43341550729
 23
818.7375008034152
 33
0.0
 14
1322.43341550729
 24
824.7375008034152
 34
0.0
 50
90.0
100
AcDbRotatedDimension
  0
VIEWPORT
  5
47
330
15
100
AcDbEntity
 67
     1
  8
0
100
AcDbViewport
 10
316.0960192100447
 20
162.4072720966937
 30
0.0
 40
703.70109259004
 41
314.2596759643554
 68
     1
 69
     1
 12
316.0960192100447
 22
162.4072720966937
 13
0.0
 23
0.0
 14
1.0
 24
1.0
 15
5.0
 25
5.0
 16
0.0
 26
0.0
 36
1.0
 17
0.0
 27
0.0
 37
0.0
 42
50.0
 43
0.0
 44
0.0
 45
314.2596759643554
 50
0.0
 51
0.0
 72
   100
 90
    32800
  1

281
     0
 71
     1
 74
     0
110
0.0
120
0.0
130
0.0
111
1.0
121
0.0
131
0.0
112
0.0
122
1.0
132
0.0
 79
     0
146
0.0
  0
TEXT
  5
638
330
15
100
AcDbEntity
 67
     1
  8
ﾃｷｽﾄ
  6
Continuous
 62
     3
100
AcDbText
 10
258.35400390625
 20
22.69371541341133
 30
0.0
 40
5.0468565623
  1
   
 41
0.6466754489000001
  7
BIGFONT
100
AcDbText
  0
TEXT
  5
649
330
15
100
AcDbEntity
 67
     1
  8
ﾃｷｽﾄ
 62
     3
100
AcDbText
 10
1047.0
 20
69.0
 30
0.0
 40
9.0
  1
 
100
AcDbText
  0
TEXT
  5
652
330
15
100
AcDbEntity
 67
     1
  8
ﾃｷｽﾄ
 62
     3
100
AcDbText
 10
1141.800048828125
 20
111.0
 30
0.0
 40
15.0
  1
 
 41
1.6
100
AcDbText
  0
TEXT
  5
653
330
15
100
AcDbEntity
 67
     1
  8
ﾃｷｽﾄ
 62
     3
100
AcDbText
 10
1141.800048828125
 20
87.0
 30
0.0
 40
15.0
  1
 
 41
1.6
100
AcDbText
  0
TEXT
  5
654
330
15
100
AcDbEntity
 67
     1
  8
ﾃｷｽﾄ
 62
     3
100
AcDbText
 10
774.0
 20
69.0
 30
0.0
 40
15.0
  1
 
 41
0.8
100
AcDbText
  0
TEXT
  5
655
330
15
100
AcDbEntity
 67
     1
  8
ﾃｷｽﾄ
 62
     3
100
AcDbText
 10
957.0
 20
69.0
 30
0.0
 40
15.0
  1
 
 41
0.8
100
AcDbText
  0
TEXT
  5
656
330
15
100
AcDbEntity
 67
     1
  8
ﾃｷｽﾄ
 62
     3
100
AcDbText
 10
957.0
 20
84.0
 30
0.0
 40
15.0
  1
 
 41
0.8
100
AcDbText
  0
TEXT
  5
657
330
15
100
AcDbEntity
 67
     1
  8
ﾃｷｽﾄ
 62
     3
100
AcDbText
 10
774.0
 20
105.0
 30
0.0
 40
15.0
  1
 
 41
0.8
100
AcDbText
  0
TEXT
  5
775
330
15
100
AcDbEntity
 67
     1
  8
ﾃｷｽﾄ
 62
     5
100
AcDbText
 10
258.0
 20
35.0
 30
0.0
 40
5.0
  1
     
 41
0.7
100
AcDbText
  0
LINE
  5
BC3
330
15
100
AcDbEntity
 67
     1
  8
0
 62
     3
100
AcDbLine
 10
152.1266773157767
 20
160.096852584781
 30
0.0
 11
196.0593797774251
 21
160.096852584781
 31
0.0
  0
LINE
  5
BC4
330
15
100
AcDbEntity
 67
     1
  8
0
 62
     3
100
AcDbLine
 10
152.1266773157767
 20
159.5968525847809
 30
0.0
 11
196.0593797774251
 21
159.5968525847809
 31
0.0
  0
VIEWPORT
  5
1852
330
15
100
AcDbEntity
 67
     1
  8
VEW枠1
100
AcDbViewport
 10
284.2735122419442
 20
223.6513122351623
 30
0.0
 40
360.0526765205243
 41
117.8896071720762
 68
     3
 69
     2
 12
2590.573661185298
 22
1691.559333946697
 13
0.0
 23
0.0
 14
10.0
 24
10.0
 15
10.0
 25
10.0
 16
0.0
 26
0.0
 36
1.0
 17
0.0
 27
0.0
 37
0.0
 42
50.0
 43
0.0
 44
0.0
 45
1178.896073973361
 50
0.0
 51
0.0
 72
   100
 90
    32800
  1

281
     0
 71
     1
 74
     0
110
1000.0
120
1000.0
130
0.0
111
1.0
121
0.0
131
0.0
112
0.0
122
1.0
132
0.0
 79
     0
146
0.0
  0
MTEXT
  5
1853
330
15
100
AcDbEntity
 67
     1
  8
VEW枠1
100
AcDbMText
 10
107.612151386432
 20
172.4579957224436
 30
0.0
 40
5.0
 41
0.0
 71
     1
 72
     5
  1
Vew1
  7
MSP明朝1
 73
     1
 44
1.0
  0
VIEWPORT
  5
1855
330
15
100
AcDbEntity
 67
     1
  8
VEW枠2
100
AcDbViewport
 10
284.2735122419442
 20
93.38877457948184
 30
0.0
 40
360.0526765205243
 41
122.3614580642026
 68
     2
 69
     3
 12
1313.152121406508
 22
797.3723821447339
 13
0.0
 23
0.0
 14
10.0
 24
10.0
 15
10.0
 25
10.0
 16
0.0
 26
0.0
 36
1.0
 17
0.0
 27
0.0
 37
0.0
 42
50.0
 43
0.0
 44
0.0
 45
122.3614614573244
 50
0.0
 51
0.0
 72
   100
 90
    32800
  1

281
     0
 71
     1
 74
     0
110
1000.0
120
1000.0
130
0.0
111
1.0
121
0.0
131
0.0
112
0.0
122
1.0
132
0.0
 79
     0
146
0.0
  0
MTEXT
  5
1856
330
15
100
AcDbEntity
 67
     1
  8
VEW枠2
100
AcDbMText
 10
107.612151386432
 20
71.32785676688775
 30
0.0
 40
5.0
 41
0.0
 71
     1
 72
     5
  1
Vew2
  7
MSP明朝1
 73
     1
 44
1.0
  0
LINE
  5
19B3
330
15
100
AcDbEntity
 67
     1
  8
0
 62
     3
100
AcDbLine
 10
143.8303384245882
 20
48.42235142088782
 30
0.0
 11
194.8458098449961
 21
48.42235142088782
 31
0.0
  0
LINE
  5
19B4
330
15
100
AcDbEntity
 67
     1
  8
0
 62
     3
100
AcDbLine
 10
143.8303384245882
 20
47.92235142088782
 30
0.0
 11
194.8458098449961
 21
47.92235142088782
 31
0.0
  0
MTEXT
  5
19B5
330
15
100
AcDbEntity
 67
     1
  8
0
 62
     3
100
AcDbMText
 10
144.5339995333997
 20
53.9334353347524
 30
0.0
 40
3.5
 41
0.0
 71
     1
 72
     5
  1
Ａ－Ａ断面　Ｓ＝（１／１）
  7
MSP明朝W1
 73
     1
 44
1.0
  0
LINE
  5
230E
330
15
100
AcDbEntity
 67
     1
  8
0
 62
     3
100
AcDbLine
 10
285.0859776936571
 20
48.42235142088782
 30
0.0
 11
336.1014491140651
 21
48.42235142088782
 31
0.0
  0
LINE
  5
2310
330
15
100
AcDbEntity
 67
     1
  8
0
 62
     3
100
AcDbLine
 10
285.0859776936571
 20
47.92235142088782
 30
0.0
 11
336.1014491140651
 21
47.92235142088782
 31
0.0
  0
LINE
  5
2482
330
15
100
AcDbEntity
 67
     1
  8
ﾀｲﾄﾙ枠
  6
Continuous
 62
     5
100
AcDbLine
 10
484.2488507882207
 20
22.20804554738049
 30
0.0
 11
98.24885078822076
 21
22.20804554738049
 31
0.0
  0
LINE
  5
2483
330
15
100
AcDbEntity
 67
     1
  8
ﾀｲﾄﾙ枠
  6
Continuous
 62
     5
100
AcDbLine
 10
98.24885078822076
 20
302.2080455473805
 30
0.0
 11
484.2488507882207
 21
302.2080455473805
 31
0.0
  0
LINE
  5
2484
330
15
100
AcDbEntity
 67
     1
  8
0
 62
     5
100
AcDbLine
 10
98.24885078822076
 20
302.2080455473805
 30
0.0
 11
98.24885078822076
 21
22.20804554738049
 31
0.0
  0
LINE
  5
2485
330
15
100
AcDbEntity
 67
     1
  8
ﾀｲﾄﾙ枠
  6
Continuous
 62
     5
100
AcDbLine
 10
484.2488507882207
 20
302.2080455473805
 30
0.0
 11
484.2488507882207
 21
22.20804554738049
 31
0.0
  0
TEXT
  5
248D
330
15
100
AcDbEntity
 67
     1
  8
0
100
AcDbText
 10
335.4999999999999
 20
46.23430648127306
 30
0.0
 40
4.0
  1

  7
MSP明朝W1
 72
     4
 11
335.4999999999999
 21
46.23430648127306
 31
0.0
100
AcDbText
  0
TEXT
  5
2610
330
15
100
AcDbEntity
 67
     1
  8
0
 62
     3
100
AcDbText
 10
151.8303384245882
 20
161.4787230154995
 30
0.0
 40
3.5
  1
平面図　Ｓ＝（１／10）
  7
MSP明朝W1
100
AcDbText
  0
TEXT
  5
2CA9
330
15
100
AcDbEntity
 67
     1
  8
0
 62
     3
100
AcDbText
 10
285.7896388024686
 20
49.80422185160634
 30
0.0
 40
3.5
  1
Ｂ－Ｂ断面　Ｓ＝（１／１）
  7
MSP明朝W1
100
AcDbText
  0
LINE
  5
48CC
330
15
100
AcDbEntity
 67
     1
  8
ﾀｲﾄﾙ枠
370
    40
100
AcDbLine
 10
458.7286396557802
 20
29.62601171294045
 30
0.0
 11
460.7537539214159
 21
30.75769321432517
 31
0.0
  0
LINE
  5
48CD
330
15
100
AcDbEntity
 67
     1
  8
ﾀｲﾄﾙ枠
370
    40
100
AcDbLine
 10
458.9786396557802
 20
29.37660671222647
 30
0.0
 11
461.2408126599771
 21
30.50769321432517
 31
0.0
  0
LINE
  5
48CE
330
15
100
AcDbEntity
 67
     1
  8
ﾀｲﾄﾙ枠
370
    40
100
AcDbLine
 10
461.4686396557802
 20
30.2472017115125
 30
0.0
 11
458.7286396557802
 21
28.87720171151249
 31
0.0
  0
LINE
  5
48CF
330
15
100
AcDbEntity
 67
     1
  8
ﾀｲﾄﾙ枠
100
AcDbLine
 10
399.2488507882207
 20
46.20804554738049
 30
0.0
 11
484.2488507882207
 21
46.20804554738049
 31
0.0
  0
LINE
  5
48D0
330
15
100
AcDbEntity
 67
     1
  8
ﾀｲﾄﾙ枠
100
AcDbLine
 10
399.2488507882207
 20
34.20804554738049
 30
0.0
 11
484.2488507882207
 21
34.20804554738049
 31
0.0
  0
LINE
  5
48D1
330
15
100
AcDbEntity
 67
     1
  8
ﾀｲﾄﾙ枠
370
    40
100
AcDbLine
 10
464.2086396557802
 20
27.75769321432517
 30
0.0
 11
458.7286396557802
 21
27.75769321432517
 31
0.0
  0
LWPOLYLINE
  5
48D2
330
15
100
AcDbEntity
 67
     1
  8
ﾀｲﾄﾙ枠
100
AcDbPolyline
 90
        4
 70
     1
 43
0.0
 10
399.2488507882207
 20
22.20804554738049
 10
484.2488507882207
 20
22.20804554738049
 10
484.2488507882207
 20
46.20804554738049
 10
399.2488507882207
 20
46.20804554738049
  0
LINE
  5
48D3
330
15
100
AcDbEntity
 67
     1
  8
ﾀｲﾄﾙ枠
370
    40
100
AcDbLine
 10
455.4428131738592
 20
29.56769321432512
 30
0.0
 11
456.6218829413008
 21
25.66769321432514
 31
0.0
  0
LINE
  5
48D4
330
15
100
AcDbEntity
 67
     1
  8
ﾀｲﾄﾙ枠
370
    40
100
AcDbLine
 10
455.7142335795618
 20
25.66769321432514
 30
0.0
 11
454.5351638121199
 21
29.56769321432512
 31
0.0
  0
LINE
  5
48D5
330
15
100
AcDbEntity
 67
     1
  8
ﾀｲﾄﾙ枠
370
    40
100
AcDbLine
 10
453.9786396557802
 20
27.21589964808481
 30
0.0
 11
453.9786396557802
 21
26.27264419000482
 31
0.0
  0
LINE
  5
48D6
330
15
100
AcDbEntity
 67
     1
  8
ﾀｲﾄﾙ枠
370
    40
100
AcDbLine
 10
451.2286396557802
 20
25.72264419000481
 30
0.0
 11
451.2286396557802
 21
26.88589964808477
 31
0.0
  0
LINE
  5
48D7
330
15
100
AcDbEntity
 67
     1
  8
ﾀｲﾄﾙ枠
370
    40
100
AcDbLine
 10
453.7635390816816
 20
26.48615050716069
 30
0.0
 11
451.5135390816817
 21
26.12615050716067
 31
0.0
  0
LINE
  5
48D8
330
15
100
AcDbEntity
 67
     1
  8
ﾀｲﾄﾙ枠
370
    40
100
AcDbLine
 10
453.7286396557802
 20
26.70427191904479
 30
0.0
 11
451.4786396557802
 21
26.34427191904478
 31
0.0
  0
LINE
  5
48D9
330
15
100
AcDbEntity
 67
     1
  8
ﾀｲﾄﾙ枠
370
    40
100
AcDbLine
 10
446.0315420883552
 20
25.66769321432514
 30
0.0
 11
446.8215420883551
 21
27.24769321432512
 31
0.0
  0
LINE
  5
48DA
330
15
100
AcDbEntity
 67
     1
  8
ﾀｲﾄﾙ枠
370
    40
100
AcDbLine
 10
448.9200093467915
 20
25.66769321432514
 30
0.0
 11
448.3275093467915
 21
27.24769321432512
 31
0.0
  0
LINE
  5
48DB
330
15
100
AcDbEntity
 67
     1
  8
ﾀｲﾄﾙ枠
370
    40
100
AcDbLine
 10
448.7653895387391
 20
27.24769321432512
 30
0.0
 11
449.3578895387391
 21
25.66769321432514
 31
0.0
  0
LINE
  5
48DC
330
15
100
AcDbEntity
 67
     1
  8
ﾀｲﾄﾙ枠
370
    40
100
AcDbLine
 10
444.5286396557802
 20
28.76769321432516
 30
0.0
 11
444.5286396557802
 21
25.66769321432514
 31
0.0
  0
LINE
  5
48DD
330
15
100
AcDbEntity
 67
     1
  8
ﾀｲﾄﾙ枠
370
    40
100
AcDbLine
 10
443.9886396557802
 20
25.66769321432514
 30
0.0
 11
443.9886396557802
 21
27.65908432359344
 31
0.0
  0
LINE
  5
48DE
330
15
100
AcDbEntity
 67
     1
  8
ﾀｲﾄﾙ枠
370
    40
100
AcDbLine
 10
439.4336396557801
 20
27.14848813390711
 30
0.0
 11
441.7086396557802
 21
25.84848813390715
 31
0.0
  0
LINE
  5
48DF
330
15
100
AcDbEntity
 67
     1
  8
ﾀｲﾄﾙ枠
370
    40
100
AcDbLine
 10
439.4336396557801
 20
25.66769321432514
 30
0.0
 11
439.4336396557801
 21
28.73269321432514
 31
0.0
  0
LINE
  5
48E0
330
15
100
AcDbEntity
 67
     1
  8
ﾀｲﾄﾙ枠
370
    40
100
AcDbLine
 10
438.5036396557802
 20
28.73269321432514
 30
0.0
 11
438.5036396557802
 21
25.66769321432514
 31
0.0
  0
LINE
  5
48E1
330
15
100
AcDbEntity
 67
     1
  8
ﾀｲﾄﾙ枠
370
    40
100
AcDbLine
 10
438.7686396557802
 20
28.48269321432514
 30
0.0
 11
438.7686396557802
 21
25.91769321432514
 31
0.0
  0
LINE
  5
48E2
330
15
100
AcDbEntity
 67
     1
  8
ﾀｲﾄﾙ枠
370
    40
100
AcDbLine
 10
439.1686396557802
 20
28.48269321432514
 30
0.0
 11
439.1686396557802
 21
25.91769321432514
 31
0.0
  0
LINE
  5
48E3
330
15
100
AcDbEntity
 67
     1
  8
ﾀｲﾄﾙ枠
370
    40
100
AcDbLine
 10
438.9686396557802
 20
28.48269321432514
 30
0.0
 11
438.9686396557802
 21
25.91769321432514
 31
0.0
  0
LINE
  5
48E4
330
15
100
AcDbEntity
 67
     1
  8
ﾀｲﾄﾙ枠
370
    40
100
AcDbLine
 10
441.7086396557802
 20
26.31261258045748
 30
0.0
 11
440.2034985465116
 21
27.17269321432513
 31
0.0
  0
LINE
  5
48E5
330
15
100
AcDbEntity
 67
     1
  8
ﾀｲﾄﾙ枠
370
    40
100
AcDbLine
 10
436.2286396557802
 20
26.31261258045748
 30
0.0
 11
437.7337807650488
 21
27.17269321432513
 31
0.0
  0
LINE
  5
48E6
330
15
100
AcDbEntity
 67
     1
  8
ﾀｲﾄﾙ枠
370
    40
100
AcDbLine
 10
431.8486396557802
 20
26.7076932143251
 30
0.0
 11
431.8486396557802
 21
25.68769321432512
 31
0.0
  0
LINE
  5
48E7
330
15
100
AcDbEntity
 67
     1
  8
ﾀｲﾄﾙ枠
370
    40
100
AcDbLine
 10
432.0486396557801
 20
27.90769321432515
 30
0.0
 11
432.0486396557801
 21
25.91769321432514
 31
0.0
  0
LINE
  5
48E8
330
15
100
AcDbEntity
 67
     1
  8
ﾀｲﾄﾙ枠
370
    40
100
AcDbLine
 10
432.4486396557802
 20
27.90769321432515
 30
0.0
 11
432.4486396557802
 21
25.91769321432514
 31
0.0
  0
LINE
  5
48E9
330
15
100
AcDbEntity
 67
     1
  8
ﾀｲﾄﾙ枠
370
    40
100
AcDbLine
 10
432.2486396557802
 20
27.90769321432515
 30
0.0
 11
432.2486396557802
 21
25.91769321432514
 31
0.0
  0
LINE
  5
48EA
330
15
100
AcDbEntity
 67
     1
  8
ﾀｲﾄﾙ枠
370
    40
100
AcDbLine
 10
432.6486396557801
 20
25.68769321432512
 30
0.0
 11
432.6486396557801
 21
26.7076932143251
 31
0.0
  0
LINE
  5
48EB
330
15
100
AcDbEntity
 67
     1
  8
ﾀｲﾄﾙ枠
370
    40
100
AcDbLine
 10
438.5036396557802
 20
27.14848813390711
 30
0.0
 11
436.2286396557802
 21
25.84848813390715
 31
0.0
  0
LINE
  5
48EC
330
15
100
AcDbEntity
 67
     1
  8
ﾀｲﾄﾙ枠
370
    40
100
AcDbLine
 10
446.3631481529678
 20
27.24769321432512
 30
0.0
 11
445.5731481529675
 21
25.66769321432514
 31
0.0
  0
LINE
  5
48ED
330
15
100
AcDbEntity
 67
     1
  8
ﾀｲﾄﾙ枠
370
    40
100
AcDbLine
 10
426.9686396557802
 20
25.98868948380516
 30
0.0
 11
426.9686396557802
 21
26.72357988742016
 31
0.0
  0
ARC
  5
48EE
330
15
100
AcDbEntity
 67
     1
  8
ﾀｲﾄﾙ枠
370
    40
100
AcDbCircle
 10
423.4410748378969
 20
27.47070914483447
 30
0.0
 40
5.45
100
AcDbArc
 50
340.6809234802237
 51
356.9872124958168
  0
ARC
  5
48EF
330
15
100
AcDbEntity
 67
     1
  8
ﾀｲﾄﾙ枠
370
    40
100
AcDbCircle
 10
423.4410748378969
 20
27.47070914483447
 30
0.0
 40
5.989999999999999
100
AcDbArc
 50
342.4820645709959
 51
356.9872124958168
  0
ARC
  5
48F0
330
15
100
AcDbEntity
 67
     1
  8
ﾀｲﾄﾙ枠
370
    40
100
AcDbCircle
 10
423.4410748378969
 20
27.47070914483447
 30
0.0
 40
5.719999999999999
100
AcDbArc
 50
344.2460809455042
 51
356.9872124958168
  0
LINE
  5
48F1
330
15
100
AcDbEntity
 67
     1
  8
ﾀｲﾄﾙ枠
370
    40
100
AcDbLine
 10
422.5286396557802
 20
26.46769321432515
 30
0.0
 11
422.5286396557802
 21
26.31769321432511
 31
0.0
  0
LINE
  5
48F2
330
15
100
AcDbEntity
 67
     1
  8
ﾀｲﾄﾙ枠
370
    40
100
AcDbLine
 10
425.4086396557802
 20
26.31769321432511
 30
0.0
 11
425.4086396557802
 21
26.46769321432515
 31
0.0
  0
LINE
  5
48F3
330
15
100
AcDbEntity
 67
     1
  8
ﾀｲﾄﾙ枠
370
    40
100
AcDbLine
 10
424.4336396557801
 20
28.32868948380513
 30
0.0
 11
426.9686396557802
 21
25.98868948380516
 31
0.0
  0
LINE
  5
48F4
330
15
100
AcDbEntity
 67
     1
  8
ﾀｲﾄﾙ枠
370
    40
100
AcDbLine
 10
420.9686396557802
 20
26.72357988742016
 30
0.0
 11
420.9686396557802
 21
25.98868948380516
 31
0.0
  0
LINE
  5
48F5
330
15
100
AcDbEntity
 67
     1
  8
ﾀｲﾄﾙ枠
370
    40
100
AcDbLine
 10
418.6836396557801
 20
25.81769321432512
 30
0.0
 11
418.6836396557801
 21
27.48769321432513
 31
0.0
  0
LINE
  5
48F6
330
15
100
AcDbEntity
 67
     1
  8
ﾀｲﾄﾙ枠
370
    40
100
AcDbLine
 10
418.9486396557802
 20
27.63769321432516
 30
0.0
 11
418.9486396557802
 21
25.66769321432514
 31
0.0
  0
LINE
  5
48F7
330
15
100
AcDbEntity
 67
     1
  8
ﾀｲﾄﾙ枠
370
    40
100
AcDbLine
 10
418.2836396557801
 20
25.81769321432512
 30
0.0
 11
418.2836396557801
 21
27.48769321432513
 31
0.0
  0
LINE
  5
48F8
330
15
100
AcDbEntity
 67
     1
  8
ﾀｲﾄﾙ枠
370
    40
100
AcDbLine
 10
418.0186396557801
 20
25.81769321432512
 30
0.0
 11
418.0186396557801
 21
27.48769321432513
 31
0.0
  0
LINE
  5
48F9
330
15
100
AcDbEntity
 67
     1
  8
ﾀｲﾄﾙ枠
370
    40
100
AcDbLine
 10
418.4836396557802
 20
25.81769321432512
 30
0.0
 11
418.4836396557802
 21
27.48769321432513
 31
0.0
  0
LINE
  5
48FA
330
15
100
AcDbEntity
 67
     1
  8
ﾀｲﾄﾙ枠
370
    40
100
AcDbLine
 10
413.9886396557802
 20
25.66769321432514
 30
0.0
 11
413.9886396557802
 21
27.63769321432516
 31
0.0
  0
LINE
  5
48FB
330
15
100
AcDbEntity
 67
     1
  8
ﾀｲﾄﾙ枠
370
    40
100
AcDbLine
 10
414.2536396557802
 20
27.48769321432513
 30
0.0
 11
414.2536396557802
 21
25.81769321432512
 31
0.0
  0
LINE
  5
48FC
330
15
100
AcDbEntity
 67
     1
  8
ﾀｲﾄﾙ枠
370
    40
100
AcDbLine
 10
414.6536396557801
 20
27.48769321432513
 30
0.0
 11
414.6536396557801
 21
25.81769321432512
 31
0.0
  0
LINE
  5
48FD
330
15
100
AcDbEntity
 67
     1
  8
ﾀｲﾄﾙ枠
370
    40
100
AcDbLine
 10
414.4536396557802
 20
27.48769321432513
 30
0.0
 11
414.4536396557802
 21
25.81769321432512
 31
0.0
  0
LINE
  5
48FE
330
15
100
AcDbEntity
 67
     1
  8
ﾀｲﾄﾙ枠
370
    40
100
AcDbLine
 10
414.9186396557802
 20
27.48769321432513
 30
0.0
 11
414.9186396557802
 21
25.81769321432512
 31
0.0
  0
LINE
  5
48FF
330
15
100
AcDbEntity
 67
     1
  8
ﾀｲﾄﾙ枠
370
    40
100
AcDbLine
 10
420.9686396557802
 20
25.98868948380516
 30
0.0
 11
423.5036396557801
 21
28.32868948380513
 31
0.0
  0
LINE
  5
4900
330
15
100
AcDbEntity
 67
     1
  8
ﾀｲﾄﾙ枠
370
    40
100
AcDbLine
 10
423.7686396557801
 20
25.91769321432514
 30
0.0
 11
423.7686396557801
 21
30.50769321432517
 31
0.0
  0
LINE
  5
4901
330
15
100
AcDbEntity
 67
     1
  8
ﾀｲﾄﾙ枠
370
    40
100
AcDbLine
 10
424.1686396557803
 20
25.91769321432514
 30
0.0
 11
424.1686396557803
 21
30.50769321432517
 31
0.0
  0
LINE
  5
4902
330
15
100
AcDbEntity
 67
     1
  8
ﾀｲﾄﾙ枠
370
    40
100
AcDbLine
 10
423.9686396557802
 20
25.91769321432514
 30
0.0
 11
423.9686396557802
 21
30.50769321432517
 31
0.0
  0
LINE
  5
4903
330
15
100
AcDbEntity
 67
     1
  8
ﾀｲﾄﾙ枠
370
    40
100
AcDbLine
 10
444.2586396557802
 20
30.50769321432517
 30
0.0
 11
444.2586396557802
 21
25.91769321432514
 31
0.0
  0
LINE
  5
4904
330
15
100
AcDbEntity
 67
     1
  8
ﾀｲﾄﾙ枠
370
    40
100
AcDbLine
 10
447.2386396557801
 20
25.66769321432514
 30
0.0
 11
447.2386396557801
 21
30.75769321432517
 31
0.0
  0
LINE
  5
4905
330
15
100
AcDbEntity
 67
     1
  8
ﾀｲﾄﾙ枠
370
    40
100
AcDbLine
 10
447.9086396557803
 20
30.75769321432517
 30
0.0
 11
447.9086396557803
 21
25.66769321432514
 31
0.0
  0
LINE
  5
4906
330
15
100
AcDbEntity
 67
     1
  8
ﾀｲﾄﾙ枠
370
    40
100
AcDbLine
 10
447.5736396557802
 20
25.91769321432514
 30
0.0
 11
447.5736396557802
 21
30.50769321432517
 31
0.0
  0
LINE
  5
4907
330
15
100
AcDbEntity
 67
     1
  8
ﾀｲﾄﾙ枠
370
    40
100
AcDbLine
 10
454.4652334355342
 20
30.53679749175325
 30
0.0
 11
455.870505789328
 21
25.88858893689706
 31
0.0
  0
LINE
  5
4908
330
15
100
AcDbEntity
 67
     1
  8
ﾀｲﾄﾙ枠
370
    40
100
AcDbLine
 10
454.9267735222324
 20
30.53679749175325
 30
0.0
 11
456.3320458760261
 21
25.88858893689706
 31
0.0
  0
LINE
  5
4909
330
15
100
AcDbEntity
 67
     1
  8
ﾀｲﾄﾙ枠
370
    40
100
AcDbLine
 10
454.6960034788833
 20
30.53679749175325
 30
0.0
 11
456.101275832677
 21
25.88858893689706
 31
0.0
  0
LINE
  5
490A
330
15
100
AcDbEntity
 67
     1
  8
ﾀｲﾄﾙ枠
370
    40
100
AcDbLine
 10
414.9186396557802
 20
25.81769321432512
 30
0.0
 11
418.0186396557801
 21
25.81769321432512
 31
0.0
  0
LINE
  5
490B
330
15
100
AcDbEntity
 67
     1
  8
ﾀｲﾄﾙ枠
370
    40
100
AcDbLine
 10
418.9486396557802
 20
25.66769321432514
 30
0.0
 11
413.9886396557802
 21
25.66769321432514
 31
0.0
  0
LINE
  5
490C
330
15
100
AcDbEntity
 67
     1
  8
ﾀｲﾄﾙ枠
370
    40
100
AcDbLine
 10
423.5036396557801
 20
25.66769321432514
 30
0.0
 11
424.4336396557801
 21
25.66769321432514
 31
0.0
  0
LINE
  5
490D
330
15
100
AcDbEntity
 67
     1
  8
ﾀｲﾄﾙ枠
370
    40
100
AcDbLine
 10
423.5036396557801
 20
26.31769321432511
 30
0.0
 11
423.5036396557801
 21
25.66769321432514
 31
0.0
  0
LINE
  5
490E
330
15
100
AcDbEntity
 67
     1
  8
ﾀｲﾄﾙ枠
370
    40
100
AcDbLine
 10
422.5286396557802
 20
26.31769321432511
 30
0.0
 11
423.5036396557801
 21
26.31769321432511
 31
0.0
  0
LINE
  5
490F
330
15
100
AcDbEntity
 67
     1
  8
ﾀｲﾄﾙ枠
370
    40
100
AcDbLine
 10
424.4336396557801
 20
26.31769321432511
 30
0.0
 11
425.4086396557802
 21
26.31769321432511
 31
0.0
  0
LINE
  5
4910
330
15
100
AcDbEntity
 67
     1
  8
ﾀｲﾄﾙ枠
370
    40
100
AcDbLine
 10
424.4336396557801
 20
25.66769321432514
 30
0.0
 11
424.4336396557801
 21
26.31769321432511
 31
0.0
  0
LINE
  5
4911
330
15
100
AcDbEntity
 67
     1
  8
ﾀｲﾄﾙ枠
370
    40
100
AcDbLine
 10
430.0286396557801
 20
25.66769321432514
 30
0.0
 11
434.4686396557802
 21
25.66769321432514
 31
0.0
  0
LINE
  5
4912
330
15
100
AcDbEntity
 67
     1
  8
ﾀｲﾄﾙ枠
370
    40
100
AcDbLine
 10
434.4686396557802
 20
25.68769321432512
 30
0.0
 11
432.6486396557801
 21
25.68769321432512
 31
0.0
  0
LINE
  5
4913
330
15
100
AcDbEntity
 67
     1
  8
ﾀｲﾄﾙ枠
370
    40
100
AcDbLine
 10
431.8486396557802
 20
25.68769321432512
 30
0.0
 11
430.0286396557801
 21
25.68769321432512
 31
0.0
  0
LINE
  5
4914
330
15
100
AcDbEntity
 67
     1
  8
ﾀｲﾄﾙ枠
370
    40
100
AcDbLine
 10
430.0286396557801
 20
25.68769321432512
 30
0.0
 11
430.0286396557801
 21
25.66769321432514
 31
0.0
  0
LINE
  5
4915
330
15
100
AcDbEntity
 67
     1
  8
ﾀｲﾄﾙ枠
370
    40
100
AcDbLine
 10
429.1532752505515
 20
25.66769321432514
 30
0.0
 11
428.5841899984133
 21
25.66769321432514
 31
0.0
  0
LINE
  5
4916
330
15
100
AcDbEntity
 67
     1
  8
ﾀｲﾄﾙ枠
370
    40
100
AcDbLine
 10
438.5036396557802
 20
25.66769321432514
 30
0.0
 11
439.4336396557801
 21
25.66769321432514
 31
0.0
  0
LINE
  5
4917
330
15
100
AcDbEntity
 67
     1
  8
ﾀｲﾄﾙ枠
370
    40
100
AcDbLine
 10
441.7086396557802
 20
25.84848813390715
 30
0.0
 11
441.7086396557802
 21
26.31261258045748
 31
0.0
  0
LINE
  5
4918
330
15
100
AcDbEntity
 67
     1
  8
ﾀｲﾄﾙ枠
370
    40
100
AcDbLine
 10
436.2286396557802
 20
25.84848813390715
 30
0.0
 11
436.2286396557802
 21
26.31261258045748
 31
0.0
  0
LINE
  5
4919
330
15
100
AcDbEntity
 67
     1
  8
ﾀｲﾄﾙ枠
370
    40
100
AcDbLine
 10
434.4686396557802
 20
25.66769321432514
 30
0.0
 11
434.4686396557802
 21
25.68769321432512
 31
0.0
  0
LINE
  5
491A
330
15
100
AcDbEntity
 67
     1
  8
ﾀｲﾄﾙ枠
370
    40
100
AcDbLine
 10
447.9086396557803
 20
25.66769321432514
 30
0.0
 11
447.2386396557801
 21
25.66769321432514
 31
0.0
  0
LINE
  5
491B
330
15
100
AcDbEntity
 67
     1
  8
ﾀｲﾄﾙ枠
370
    40
100
AcDbLine
 10
449.3578895387391
 20
25.66769321432514
 30
0.0
 11
448.9200093467915
 21
25.66769321432514
 31
0.0
  0
LINE
  5
491C
330
15
100
AcDbEntity
 67
     1
  8
ﾀｲﾄﾙ枠
370
    40
100
AcDbLine
 10
444.5286396557802
 20
25.66769321432514
 30
0.0
 11
443.9886396557802
 21
25.66769321432514
 31
0.0
  0
LINE
  5
491D
330
15
100
AcDbEntity
 67
     1
  8
ﾀｲﾄﾙ枠
370
    40
100
AcDbLine
 10
445.5731481529675
 20
25.66769321432514
 30
0.0
 11
446.0315420883552
 21
25.66769321432514
 31
0.0
  0
LINE
  5
491E
330
15
100
AcDbEntity
 67
     1
  8
ﾀｲﾄﾙ枠
370
    40
100
AcDbLine
 10
456.6218829413008
 20
25.66769321432514
 30
0.0
 11
455.7142335795618
 21
25.66769321432514
 31
0.0
  0
LINE
  5
491F
330
15
100
AcDbEntity
 67
     1
  8
ﾀｲﾄﾙ枠
370
    40
100
AcDbLine
 10
453.9786396557802
 20
26.27264419000482
 30
0.0
 11
451.2286396557802
 21
25.72264419000481
 31
0.0
  0
LINE
  5
4921
330
15
100
AcDbEntity
 67
     1
  8
ﾀｲﾄﾙ枠
370
    40
100
AcDbLine
 10
426.7186396557802
 20
26.5869039163818
 30
0.0
 11
424.4336396557801
 21
28.69613468561249
 31
0.0
  0
LINE
  5
4922
330
15
100
AcDbEntity
 67
     1
  8
ﾀｲﾄﾙ枠
370
    40
100
AcDbLine
 10
426.9686396557802
 20
26.72357988742016
 30
0.0
 11
424.4336396557801
 21
29.06357988742013
 31
0.0
  0
LINE
  5
4923
330
15
100
AcDbEntity
 67
     1
  8
ﾀｲﾄﾙ枠
370
    40
100
AcDbLine
 10
426.9686396557802
 20
29.71769321432515
 30
0.0
 11
424.4336396557801
 21
29.71769321432515
 31
0.0
  0
LINE
  5
4924
330
15
100
AcDbEntity
 67
     1
  8
ﾀｲﾄﾙ枠
370
    40
100
AcDbLine
 10
424.4336396557801
 20
29.56769321432512
 30
0.0
 11
426.9686396557802
 21
29.56769321432512
 31
0.0
  0
TEXT
  5
4925
330
15
100
AcDbEntity
 67
     1
  8
ﾀｲﾄﾙ枠
100
AcDbText
 10
400.7488507882207
 20
42.20804554738049
 30
0.0
 40
2.5
  1
製品名
  7
MSP明朝W1
100
AcDbText
1001
ACAD
1000
MTEXTBEGIN
1070
    73
1070
     1
1070
    44
1040
1.0
1070
    74
1070
     0
1000
MTEXTEND
1000
MTEXTBEGIN
1070
    73
1070
     1
1070
    44
1040
1.0
1070
    74
1070
     0
1000
MTEXTEND
  0
LINE
  5
4926
330
15
100
AcDbEntity
 67
     1
  8
ﾀｲﾄﾙ枠
370
    40
100
AcDbLine
 10
416.9336396557801
 20
29.84769321432514
 30
0.0
 11
419.4686396557802
 21
29.84769321432514
 31
0.0
  0
LINE
  5
4927
330
15
100
AcDbEntity
 67
     1
  8
ﾀｲﾄﾙ枠
370
    40
100
AcDbLine
 10
418.0186396557801
 20
27.48769321432513
 30
0.0
 11
414.9186396557802
 21
27.48769321432513
 31
0.0
  0
LINE
  5
4928
330
15
100
AcDbEntity
 67
     1
  8
ﾀｲﾄﾙ枠
370
    40
100
AcDbLine
 10
418.9486396557802
 20
28.52769321432515
 30
0.0
 11
413.9886396557802
 21
28.52769321432515
 31
0.0
  0
LINE
  5
4929
330
15
100
AcDbEntity
 67
     1
  8
ﾀｲﾄﾙ枠
370
    40
100
AcDbLine
 10
413.9886396557802
 20
27.63769321432516
 30
0.0
 11
418.9486396557802
 21
27.63769321432516
 31
0.0
  0
LINE
  5
492A
330
15
100
AcDbEntity
 67
     1
  8
ﾀｲﾄﾙ枠
370
    40
100
AcDbLine
 10
419.4686396557802
 20
29.69769321432511
 30
0.0
 11
416.9336396557801
 21
29.69769321432511
 31
0.0
  0
LINE
  5
492B
330
15
100
AcDbEntity
 67
     1
  8
ﾀｲﾄﾙ枠
370
    40
100
AcDbLine
 10
416.9336396557801
 20
28.67769321432513
 30
0.0
 11
418.9486396557802
 21
28.67769321432513
 31
0.0
  0
LINE
  5
492C
330
15
100
AcDbEntity
 67
     1
  8
ﾀｲﾄﾙ枠
370
    40
100
AcDbLine
 10
413.4686396557802
 20
29.84769321432514
 30
0.0
 11
416.0036396557802
 21
29.84769321432514
 31
0.0
  0
LINE
  5
492D
330
15
100
AcDbEntity
 67
     1
  8
ﾀｲﾄﾙ枠
370
    40
100
AcDbLine
 10
416.9336396557801
 20
30.75769321432517
 30
0.0
 11
416.9336396557801
 21
29.84769321432514
 31
0.0
  0
LINE
  5
492E
330
15
100
AcDbEntity
 67
     1
  8
ﾀｲﾄﾙ枠
370
    40
100
AcDbLine
 10
416.0036396557802
 20
29.84769321432514
 30
0.0
 11
416.0036396557802
 21
30.75769321432517
 31
0.0
  0
LINE
  5
492F
330
15
100
AcDbEntity
 67
     1
  8
ﾀｲﾄﾙ枠
370
    40
100
AcDbLine
 10
416.0036396557802
 20
30.75769321432517
 30
0.0
 11
416.9336396557801
 21
30.75769321432517
 31
0.0
  0
LINE
  5
4930
330
15
100
AcDbEntity
 67
     1
  8
ﾀｲﾄﾙ枠
370
    40
100
AcDbLine
 10
416.0036396557802
 20
29.69769321432511
 30
0.0
 11
413.4686396557802
 21
29.69769321432511
 31
0.0
  0
LINE
  5
4931
330
15
100
AcDbEntity
 67
     1
  8
ﾀｲﾄﾙ枠
370
    40
100
AcDbLine
 10
413.9886396557802
 20
28.67769321432513
 30
0.0
 11
416.0036396557802
 21
28.67769321432513
 31
0.0
  0
LINE
  5
4932
330
15
100
AcDbEntity
 67
     1
  8
ﾀｲﾄﾙ枠
370
    40
100
AcDbLine
 10
413.9886396557802
 20
28.52769321432515
 30
0.0
 11
413.9886396557802
 21
28.67769321432513
 31
0.0
  0
LINE
  5
4933
330
15
100
AcDbEntity
 67
     1
  8
ﾀｲﾄﾙ枠
370
    40
100
AcDbLine
 10
416.9336396557801
 20
29.69769321432511
 30
0.0
 11
416.9336396557801
 21
28.67769321432513
 31
0.0
  0
LINE
  5
4934
330
15
100
AcDbEntity
 67
     1
  8
ﾀｲﾄﾙ枠
370
    40
100
AcDbLine
 10
416.0036396557802
 20
28.67769321432513
 30
0.0
 11
416.0036396557802
 21
29.69769321432511
 31
0.0
  0
LINE
  5
4935
330
15
100
AcDbEntity
 67
     1
  8
ﾀｲﾄﾙ枠
370
    40
100
AcDbLine
 10
413.4686396557802
 20
29.69769321432511
 30
0.0
 11
413.4686396557802
 21
29.84769321432514
 31
0.0
  0
LINE
  5
4936
330
15
100
AcDbEntity
 67
     1
  8
ﾀｲﾄﾙ枠
370
    40
100
AcDbLine
 10
416.2686396557801
 20
28.77769321432515
 30
0.0
 11
416.2686396557801
 21
30.50769321432517
 31
0.0
  0
LINE
  5
4937
330
15
100
AcDbEntity
 67
     1
  8
ﾀｲﾄﾙ枠
370
    40
100
AcDbLine
 10
416.6686396557802
 20
28.77769321432515
 30
0.0
 11
416.6686396557802
 21
30.50769321432517
 31
0.0
  0
LINE
  5
4938
330
15
100
AcDbEntity
 67
     1
  8
ﾀｲﾄﾙ枠
370
    40
100
AcDbLine
 10
416.4686396557802
 20
28.77769321432515
 30
0.0
 11
416.4686396557802
 21
30.50769321432517
 31
0.0
  0
LINE
  5
4939
330
15
100
AcDbEntity
 67
     1
  8
ﾀｲﾄﾙ枠
370
    40
100
AcDbLine
 10
424.4336396557801
 20
30.75769321432517
 30
0.0
 11
423.5036396557801
 21
30.75769321432517
 31
0.0
  0
LINE
  5
493A
330
15
100
AcDbEntity
 67
     1
  8
ﾀｲﾄﾙ枠
370
    40
100
AcDbLine
 10
423.5036396557801
 20
29.56769321432512
 30
0.0
 11
423.5036396557801
 21
29.06357988742013
 31
0.0
  0
LINE
  5
493B
330
15
100
AcDbEntity
 67
     1
  8
ﾀｲﾄﾙ枠
370
    40
100
AcDbLine
 10
423.5036396557801
 20
26.46769321432515
 30
0.0
 11
422.5286396557802
 21
26.46769321432515
 31
0.0
  0
LINE
  5
493C
330
15
100
AcDbEntity
 67
     1
  8
ﾀｲﾄﾙ枠
370
    40
100
AcDbLine
 10
423.5036396557801
 20
28.32868948380513
 30
0.0
 11
423.5036396557801
 21
26.46769321432515
 31
0.0
  0
LINE
  5
493D
330
15
100
AcDbEntity
 67
     1
  8
ﾀｲﾄﾙ枠
370
    40
100
AcDbLine
 10
424.4336396557801
 20
29.06357988742013
 30
0.0
 11
424.4336396557801
 21
29.56769321432512
 31
0.0
  0
LINE
  5
493E
330
15
100
AcDbEntity
 67
     1
  8
ﾀｲﾄﾙ枠
370
    40
100
AcDbLine
 10
425.4086396557802
 20
26.46769321432515
 30
0.0
 11
424.4336396557801
 21
26.46769321432515
 31
0.0
  0
LINE
  5
493F
330
15
100
AcDbEntity
 67
     1
  8
ﾀｲﾄﾙ枠
370
    40
100
AcDbLine
 10
424.4336396557801
 20
26.46769321432515
 30
0.0
 11
424.4336396557801
 21
28.32868948380513
 31
0.0
  0
LINE
  5
4940
330
15
100
AcDbEntity
 67
     1
  8
ﾀｲﾄﾙ枠
370
    40
100
AcDbLine
 10
420.9686396557802
 20
29.71769321432515
 30
0.0
 11
420.9686396557802
 21
29.56769321432512
 31
0.0
  0
LINE
  5
4941
330
15
100
AcDbEntity
 67
     1
  8
ﾀｲﾄﾙ枠
370
    40
100
AcDbLine
 10
418.9486396557802
 20
28.67769321432513
 30
0.0
 11
418.9486396557802
 21
28.52769321432515
 31
0.0
  0
LINE
  5
4942
330
15
100
AcDbEntity
 67
     1
  8
ﾀｲﾄﾙ枠
370
    40
100
AcDbLine
 10
423.5036396557801
 20
28.69613468561249
 30
0.0
 11
421.2186396557802
 21
26.5869039163818
 31
0.0
  0
LINE
  5
4943
330
15
100
AcDbEntity
 67
     1
  8
ﾀｲﾄﾙ枠
370
    40
100
AcDbLine
 10
423.5036396557801
 20
29.06357988742013
 30
0.0
 11
420.9686396557802
 21
26.72357988742016
 31
0.0
  0
LINE
  5
4944
330
15
100
AcDbEntity
 67
     1
  8
ﾀｲﾄﾙ枠
370
    40
100
AcDbLine
 10
420.9686396557802
 20
29.56769321432512
 30
0.0
 11
423.5036396557801
 21
29.56769321432512
 31
0.0
  0
LINE
  5
4945
330
15
100
AcDbEntity
 67
     1
  8
ﾀｲﾄﾙ枠
370
    40
100
AcDbLine
 10
423.5036396557801
 20
29.71769321432515
 30
0.0
 11
420.9686396557802
 21
29.71769321432515
 31
0.0
  0
LINE
  5
4946
330
15
100
AcDbEntity
 67
     1
  8
ﾀｲﾄﾙ枠
370
    40
100
AcDbLine
 10
423.5036396557801
 20
30.75769321432517
 30
0.0
 11
423.5036396557801
 21
29.71769321432515
 31
0.0
  0
LINE
  5
4947
330
15
100
AcDbEntity
 67
     1
  8
ﾀｲﾄﾙ枠
370
    40
100
AcDbLine
 10
419.4686396557802
 20
29.84769321432514
 30
0.0
 11
419.4686396557802
 21
29.69769321432511
 31
0.0
  0
LINE
  5
4948
330
15
100
AcDbEntity
 67
     1
  8
ﾀｲﾄﾙ枠
370
    40
100
AcDbLine
 10
424.4336396557801
 20
29.71769321432515
 30
0.0
 11
424.4336396557801
 21
30.75769321432517
 31
0.0
  0
LINE
  5
494A
330
15
100
AcDbEntity
 67
     1
  8
ﾀｲﾄﾙ枠
370
    40
100
AcDbLine
 10
434.187092061038
 20
30.08769321432515
 30
0.0
 11
434.4686396557802
 21
30.08769321432515
 31
0.0
  0
LINE
  5
494B
330
15
100
AcDbEntity
 67
     1
  8
ﾀｲﾄﾙ枠
370
    40
100
AcDbLine
 10
434.4686396557802
 20
30.10769321432514
 30
0.0
 11
432.2586396557801
 21
30.10769321432514
 31
0.0
  0
LINE
  5
494C
330
15
100
AcDbEntity
 67
     1
  8
ﾀｲﾄﾙ枠
370
    40
100
AcDbLine
 10
432.6486396557801
 20
27.74769321432512
 30
0.0
 11
434.4686396557802
 21
27.74769321432512
 31
0.0
  0
LINE
  5
494D
330
15
100
AcDbEntity
 67
     1
  8
ﾀｲﾄﾙ枠
370
    40
100
AcDbLine
 10
434.4686396557802
 20
27.76769321432516
 30
0.0
 11
432.6486396557801
 21
27.76769321432516
 31
0.0
  0
LINE
  5
494E
330
15
100
AcDbEntity
 67
     1
  8
ﾀｲﾄﾙ枠
370
    40
100
AcDbLine
 10
434.4686396557802
 20
28.93769321432512
 30
0.0
 11
433.4970920610379
 21
28.93769321432512
 31
0.0
  0
LINE
  5
494F
330
15
100
AcDbEntity
 67
     1
  8
ﾀｲﾄﾙ枠
370
    40
100
AcDbLine
 10
429.5155225555932
 20
28.91769321432514
 30
0.0
 11
434.4686396557802
 21
28.91769321432514
 31
0.0
  0
LINE
  5
4950
330
15
100
AcDbEntity
 67
     1
  8
ﾀｲﾄﾙ枠
370
    40
100
AcDbLine
 10
432.2586396557801
 20
30.75769321432517
 30
0.0
 11
431.4586396557802
 21
30.75769321432517
 31
0.0
  0
LINE
  5
4951
330
15
100
AcDbEntity
 67
     1
  8
ﾀｲﾄﾙ枠
370
    40
100
AcDbLine
 10
433.4331481529676
 20
30.08769321432515
 30
0.0
 11
430.2841311585928
 21
30.08769321432515
 31
0.0
  0
LINE
  5
4952
330
15
100
AcDbEntity
 67
     1
  8
ﾀｲﾄﾙ枠
370
    40
100
AcDbLine
 10
431.6586396557801
 20
30.33769321432515
 30
0.0
 11
431.6586396557801
 21
30.50769321432517
 31
0.0
  0
LINE
  5
4953
330
15
100
AcDbEntity
 67
     1
  8
ﾀｲﾄﾙ枠
370
    40
100
AcDbLine
 10
431.4586396557802
 20
30.75769321432517
 30
0.0
 11
431.4586396557802
 21
30.10769321432514
 31
0.0
  0
LINE
  5
4954
330
15
100
AcDbEntity
 67
     1
  8
ﾀｲﾄﾙ枠
370
    40
100
AcDbLine
 10
431.8586396557802
 20
30.33769321432515
 30
0.0
 11
431.8586396557802
 21
30.50769321432517
 31
0.0
  0
LINE
  5
4955
330
15
100
AcDbEntity
 67
     1
  8
ﾀｲﾄﾙ枠
370
    40
100
AcDbLine
 10
432.2586396557801
 20
30.10769321432514
 30
0.0
 11
432.2586396557801
 21
30.75769321432517
 31
0.0
  0
LINE
  5
4956
330
15
100
AcDbEntity
 67
     1
  8
ﾀｲﾄﾙ枠
370
    40
100
AcDbLine
 10
432.0586396557801
 20
30.33769321432515
 30
0.0
 11
432.0586396557801
 21
30.50769321432517
 31
0.0
  0
LINE
  5
4957
330
15
100
AcDbEntity
 67
     1
  8
ﾀｲﾄﾙ枠
370
    40
100
AcDbLine
 10
428.9886396557802
 20
30.08769321432515
 30
0.0
 11
429.5301872505224
 21
30.08769321432515
 31
0.0
  0
LINE
  5
4958
330
15
100
AcDbEntity
 67
     1
  8
ﾀｲﾄﾙ枠
370
    40
100
AcDbLine
 10
428.9886396557802
 20
30.10769321432514
 30
0.0
 11
428.9886396557802
 21
30.08769321432515
 31
0.0
  0
LINE
  5
4959
330
15
100
AcDbEntity
 67
     1
  8
ﾀｲﾄﾙ枠
370
    40
100
AcDbLine
 10
431.4586396557802
 20
30.10769321432514
 30
0.0
 11
428.9886396557802
 21
30.10769321432514
 31
0.0
  0
LINE
  5
495A
330
15
100
AcDbEntity
 67
     1
  8
ﾀｲﾄﾙ枠
370
    40
100
AcDbLine
 10
434.2086396557802
 20
26.7076932143251
 30
0.0
 11
434.2086396557802
 21
26.72769321432514
 31
0.0
  0
LINE
  5
495B
330
15
100
AcDbEntity
 67
     1
  8
ﾀｲﾄﾙ枠
370
    40
100
AcDbLine
 10
430.4186396557803
 20
26.7076932143251
 30
0.0
 11
431.8486396557802
 21
26.7076932143251
 31
0.0
  0
LINE
  5
495C
330
15
100
AcDbEntity
 67
     1
  8
ﾀｲﾄﾙ枠
370
    40
100
AcDbLine
 10
431.8486396557802
 20
26.72769321432514
 30
0.0
 11
430.4186396557803
 21
26.72769321432514
 31
0.0
  0
LINE
  5
495D
330
15
100
AcDbEntity
 67
     1
  8
ﾀｲﾄﾙ枠
370
    40
100
AcDbLine
 10
430.4186396557803
 20
27.74769321432512
 30
0.0
 11
431.8486396557802
 21
27.74769321432512
 31
0.0
  0
LINE
  5
495E
330
15
100
AcDbEntity
 67
     1
  8
ﾀｲﾄﾙ枠
370
    40
100
AcDbLine
 10
431.8486396557802
 20
27.76769321432516
 30
0.0
 11
430.6986396557802
 21
27.76769321432516
 31
0.0
  0
LINE
  5
495F
330
15
100
AcDbEntity
 67
     1
  8
ﾀｲﾄﾙ枠
370
    40
100
AcDbLine
 10
430.8591311585929
 20
28.93769321432512
 30
0.0
 11
432.8581481529675
 21
28.93769321432512
 31
0.0
  0
LINE
  5
4960
330
15
100
AcDbEntity
 67
     1
  8
ﾀｲﾄﾙ枠
370
    40
100
AcDbLine
 10
430.6986396557802
 20
28.15769321432515
 30
0.0
 11
430.4186396557803
 21
28.15769321432515
 31
0.0
  0
LINE
  5
4961
330
15
100
AcDbEntity
 67
     1
  8
ﾀｲﾄﾙ枠
370
    40
100
AcDbLine
 10
430.4186396557803
 20
26.72769321432514
 30
0.0
 11
430.4186396557803
 21
26.7076932143251
 31
0.0
  0
LINE
  5
4962
330
15
100
AcDbEntity
 67
     1
  8
ﾀｲﾄﾙ枠
370
    40
100
AcDbLine
 10
430.4186396557803
 20
28.15769321432515
 30
0.0
 11
430.4186396557803
 21
27.74769321432512
 31
0.0
  0
LINE
  5
4963
330
15
100
AcDbEntity
 67
     1
  8
ﾀｲﾄﾙ枠
370
    40
100
AcDbLine
 10
430.6986396557802
 20
27.76769321432516
 30
0.0
 11
430.6986396557802
 21
28.15769321432515
 31
0.0
  0
LINE
  5
4964
330
15
100
AcDbEntity
 67
     1
  8
ﾀｲﾄﾙ枠
370
    40
100
AcDbLine
 10
432.6486396557801
 20
26.72769321432514
 30
0.0
 11
432.6486396557801
 21
27.74769321432512
 31
0.0
  0
LINE
  5
4965
330
15
100
AcDbEntity
 67
     1
  8
ﾀｲﾄﾙ枠
370
    40
100
AcDbLine
 10
432.6486396557801
 20
27.76769321432516
 30
0.0
 11
432.6486396557801
 21
28.15769321432515
 31
0.0
  0
LINE
  5
4966
330
15
100
AcDbEntity
 67
     1
  8
ﾀｲﾄﾙ枠
370
    40
100
AcDbLine
 10
431.8486396557802
 20
27.74769321432512
 30
0.0
 11
431.8486396557802
 21
26.72769321432514
 31
0.0
  0
LINE
  5
4967
330
15
100
AcDbEntity
 67
     1
  8
ﾀｲﾄﾙ枠
370
    40
100
AcDbLine
 10
431.8486396557802
 20
28.15769321432515
 30
0.0
 11
431.8486396557802
 21
27.76769321432516
 31
0.0
  0
LINE
  5
4968
330
15
100
AcDbEntity
 67
     1
  8
ﾀｲﾄﾙ枠
370
    40
100
AcDbLine
 10
432.6486396557801
 20
28.15769321432515
 30
0.0
 11
431.8486396557802
 21
28.15769321432515
 31
0.0
  0
LINE
  5
4969
330
15
100
AcDbEntity
 67
     1
  8
ﾀｲﾄﾙ枠
370
    40
100
AcDbLine
 10
434.2086396557802
 20
26.72769321432514
 30
0.0
 11
432.6486396557801
 21
26.72769321432514
 31
0.0
  0
LINE
  5
496A
330
15
100
AcDbEntity
 67
     1
  8
ﾀｲﾄﾙ枠
370
    40
100
AcDbLine
 10
432.6486396557801
 20
26.7076932143251
 30
0.0
 11
434.2086396557802
 21
26.7076932143251
 31
0.0
  0
LINE
  5
496B
330
15
100
AcDbEntity
 67
     1
  8
ﾀｲﾄﾙ枠
370
    40
100
AcDbLine
 10
429.5155225555932
 20
28.91769321432514
 30
0.0
 11
429.4227956355985
 21
27.15588173442915
 31
0.0
  0
LINE
  5
496C
330
15
100
AcDbEntity
 67
     1
  8
ﾀｲﾄﾙ枠
370
    40
100
AcDbLine
 10
429.1531688216789
 20
27.17007261937215
 30
0.0
 11
429.2330435898342
 21
28.68769321432512
 31
0.0
  0
LINE
  5
496D
330
15
100
AcDbEntity
 67
     1
  8
ﾀｲﾄﾙ枠
370
    40
100
AcDbLine
 10
428.9758277819701
 20
28.93769321432512
 30
0.0
 11
428.8835420077591
 21
27.18426350431548
 31
0.0
  0
LINE
  5
496E
330
15
100
AcDbEntity
 67
     1
  8
ﾀｲﾄﾙ枠
370
    40
100
AcDbLine
 10
426.9686396557802
 20
29.56769321432512
 30
0.0
 11
426.9686396557802
 21
29.71769321432515
 31
0.0
  0
LINE
  5
496F
330
15
100
AcDbEntity
 67
     1
  8
ﾀｲﾄﾙ枠
370
    40
100
AcDbLine
 10
430.2201872505225
 20
28.93769321432512
 30
0.0
 11
428.9758277819701
 21
28.93769321432512
 31
0.0
  0
LINE
  5
4970
330
15
100
AcDbEntity
 67
     1
  8
ﾀｲﾄﾙ枠
370
    40
100
AcDbLine
 10
429.5301872505224
 20
30.08769321432515
 30
0.0
 11
430.2201872505225
 21
28.93769321432512
 31
0.0
  0
LINE
  5
4971
330
15
100
AcDbEntity
 67
     1
  8
ﾀｲﾄﾙ枠
370
    40
100
AcDbLine
 10
430.2841311585928
 20
30.08769321432515
 30
0.0
 11
430.8591311585929
 21
28.93769321432512
 31
0.0
  0
LINE
  5
4972
330
15
100
AcDbEntity
 67
     1
  8
ﾀｲﾄﾙ枠
370
    40
100
AcDbLine
 10
430.0336592045574
 20
29.85769321432513
 30
0.0
 11
430.4131592045575
 21
29.16769321432514
 31
0.0
  0
LINE
  5
4973
330
15
100
AcDbEntity
 67
     1
  8
ﾀｲﾄﾙ枠
370
    40
100
AcDbLine
 10
432.8581481529675
 20
28.93769321432512
 30
0.0
 11
433.4331481529676
 21
30.08769321432515
 31
0.0
  0
LINE
  5
4974
330
15
100
AcDbEntity
 67
     1
  8
ﾀｲﾄﾙ枠
370
    40
100
AcDbLine
 10
433.3041201070029
 20
29.16769321432514
 30
0.0
 11
433.6836201070028
 21
29.85769321432513
 31
0.0
  0
LINE
  5
4975
330
15
100
AcDbEntity
 67
     1
  8
ﾀｲﾄﾙ枠
370
    40
100
AcDbLine
 10
433.4970920610379
 20
28.93769321432512
 30
0.0
 11
434.187092061038
 21
30.08769321432515
 31
0.0
  0
LINE
  5
4976
330
15
100
AcDbEntity
 67
     1
  8
ﾀｲﾄﾙ枠
370
    40
100
AcDbLine
 10
440.4071968309208
 20
29.77269321432515
 30
0.0
 11
439.8886396557801
 21
29.77269321432515
 31
0.0
  0
LINE
  5
4977
330
15
100
AcDbEntity
 67
     1
  8
ﾀｲﾄﾙ枠
370
    40
100
AcDbLine
 10
439.4136396557802
 20
29.77269321432515
 30
0.0
 11
438.5236396557801
 21
29.77269321432515
 31
0.0
  0
LINE
  5
4978
330
15
100
AcDbEntity
 67
     1
  8
ﾀｲﾄﾙ枠
370
    40
100
AcDbLine
 10
438.0486396557802
 20
30.75769321432517
 30
0.0
 11
438.0486396557802
 21
29.77269321432515
 31
0.0
  0
LINE
  5
4979
330
15
100
AcDbEntity
 67
     1
  8
ﾀｲﾄﾙ枠
370
    40
100
AcDbLine
 10
438.5236396557801
 20
30.75769321432517
 30
0.0
 11
438.0486396557802
 21
30.75769321432517
 31
0.0
  0
LINE
  5
497A
330
15
100
AcDbEntity
 67
     1
  8
ﾀｲﾄﾙ枠
370
    40
100
AcDbLine
 10
438.5236396557801
 20
29.77269321432515
 30
0.0
 11
438.5236396557801
 21
30.75769321432517
 31
0.0
  0
LINE
  5
497B
330
15
100
AcDbEntity
 67
     1
  8
ﾀｲﾄﾙ枠
370
    40
100
AcDbLine
 10
439.4136396557802
 20
30.75769321432517
 30
0.0
 11
439.4136396557802
 21
29.77269321432515
 31
0.0
  0
LINE
  5
497C
330
15
100
AcDbEntity
 67
     1
  8
ﾀｲﾄﾙ枠
370
    40
100
AcDbLine
 10
439.8886396557801
 20
30.75769321432517
 30
0.0
 11
439.4136396557802
 21
30.75769321432517
 31
0.0
  0
LINE
  5
497D
330
15
100
AcDbEntity
 67
     1
  8
ﾀｲﾄﾙ枠
370
    40
100
AcDbLine
 10
439.8886396557801
 20
29.77269321432515
 30
0.0
 11
439.8886396557801
 21
30.75769321432517
 31
0.0
  0
LINE
  5
497E
330
15
100
AcDbEntity
 67
     1
  8
ﾀｲﾄﾙ枠
370
    40
100
AcDbLine
 10
441.0536030809209
 20
30.75769321432517
 30
0.0
 11
441.7433820332965
 21
30.75769321432517
 31
0.0
  0
LINE
  5
497F
330
15
100
AcDbEntity
 67
     1
  8
ﾀｲﾄﾙ枠
370
    40
100
AcDbLine
 10
441.9686396557802
 20
29.77269321432515
 30
0.0
 11
441.0661945332969
 21
29.77269321432515
 31
0.0
  0
LINE
  5
4980
330
15
100
AcDbEntity
 67
     1
  8
ﾀｲﾄﾙ枠
370
    40
100
AcDbLine
 10
434.4686396557802
 20
30.08769321432515
 30
0.0
 11
434.4686396557802
 21
30.10769321432514
 31
0.0
  0
LINE
  5
4981
330
15
100
AcDbEntity
 67
     1
  8
ﾀｲﾄﾙ枠
370
    40
100
AcDbLine
 10
436.8710847782638
 20
29.77269321432515
 30
0.0
 11
435.9686396557802
 21
29.77269321432515
 31
0.0
  0
LINE
  5
4982
330
15
100
AcDbEntity
 67
     1
  8
ﾀｲﾄﾙ枠
370
    40
100
AcDbLine
 10
436.1938972782639
 20
30.75769321432517
 30
0.0
 11
436.8836762306395
 21
30.75769321432517
 31
0.0
  0
LINE
  5
4983
330
15
100
AcDbEntity
 67
     1
  8
ﾀｲﾄﾙ枠
370
    40
100
AcDbLine
 10
438.0486396557802
 20
29.77269321432515
 30
0.0
 11
437.5300824806395
 21
29.77269321432515
 31
0.0
  0
LINE
  5
4984
330
15
100
AcDbEntity
 67
     1
  8
ﾀｲﾄﾙ枠
370
    40
100
AcDbLine
 10
441.7086396557802
 20
27.17269321432513
 30
0.0
 11
439.4336396557801
 21
27.17269321432513
 31
0.0
  0
LINE
  5
4985
330
15
100
AcDbEntity
 67
     1
  8
ﾀｲﾄﾙ枠
370
    40
100
AcDbLine
 10
439.4336396557801
 20
27.95269321432511
 30
0.0
 11
441.0586396557802
 21
27.95269321432511
 31
0.0
  0
LINE
  5
4986
330
15
100
AcDbEntity
 67
     1
  8
ﾀｲﾄﾙ枠
370
    40
100
AcDbLine
 10
434.4686396557802
 20
27.74769321432512
 30
0.0
 11
434.4686396557802
 21
27.76769321432516
 31
0.0
  0
LINE
  5
4987
330
15
100
AcDbEntity
 67
     1
  8
ﾀｲﾄﾙ枠
370
    40
100
AcDbLine
 10
434.4686396557802
 20
28.91769321432514
 30
0.0
 11
434.4686396557802
 21
28.93769321432512
 31
0.0
  0
LINE
  5
4988
330
15
100
AcDbEntity
 67
     1
  8
ﾀｲﾄﾙ枠
370
    40
100
AcDbLine
 10
441.4486396557802
 20
28.73269321432514
 30
0.0
 11
436.4886396557801
 21
28.73269321432514
 31
0.0
  0
LINE
  5
4989
330
15
100
AcDbEntity
 67
     1
  8
ﾀｲﾄﾙ枠
370
    40
100
AcDbLine
 10
436.8786396557801
 20
27.95269321432511
 30
0.0
 11
438.5036396557802
 21
27.95269321432511
 31
0.0
  0
LINE
  5
498A
330
15
100
AcDbEntity
 67
     1
  8
ﾀｲﾄﾙ枠
370
    40
100
AcDbLine
 10
438.5036396557802
 20
27.17269321432513
 30
0.0
 11
436.2286396557802
 21
27.17269321432513
 31
0.0
  0
LINE
  5
498B
330
15
100
AcDbEntity
 67
     1
  8
ﾀｲﾄﾙ枠
370
    40
100
AcDbLine
 10
439.7246968309208
 20
28.73269321432514
 30
0.0
 11
441.0536030809209
 21
30.75769321432517
 31
0.0
  0
LINE
  5
498C
330
15
100
AcDbEntity
 67
     1
  8
ﾀｲﾄﾙ枠
370
    40
100
AcDbLine
 10
436.8836762306395
 20
30.75769321432517
 30
0.0
 11
438.2125824806395
 21
28.73269321432514
 31
0.0
  0
LINE
  5
498D
330
15
100
AcDbEntity
 67
     1
  8
ﾀｲﾄﾙ枠
370
    40
100
AcDbLine
 10
436.7067555044519
 20
30.50769321432517
 30
0.0
 11
437.7313648794515
 21
28.98269321432513
 31
0.0
  0
LINE
  5
498E
330
15
100
AcDbEntity
 67
     1
  8
ﾀｲﾄﾙ枠
370
    40
100
AcDbLine
 10
437.5860847782639
 20
28.73269321432514
 30
0.0
 11
436.1938972782639
 21
30.75769321432517
 31
0.0
  0
LINE
  5
498F
330
15
100
AcDbEntity
 67
     1
  8
ﾀｲﾄﾙ枠
370
    40
100
AcDbLine
 10
440.2059144321088
 20
28.98269321432513
 30
0.0
 11
441.2305238071088
 21
30.50769321432517
 31
0.0
  0
LINE
  5
4990
330
15
100
AcDbEntity
 67
     1
  8
ﾀｲﾄﾙ枠
370
    40
100
AcDbLine
 10
441.7433820332965
 20
30.75769321432517
 30
0.0
 11
440.3511945332965
 21
28.73269321432514
 31
0.0
  0
LINE
  5
4991
330
15
100
AcDbEntity
 67
     1
  8
ﾀｲﾄﾙ枠
370
    40
100
AcDbLine
 10
447.2386396557801
 20
30.75769321432517
 30
0.0
 11
447.9086396557803
 21
30.75769321432517
 31
0.0
  0
LINE
  5
4992
330
15
100
AcDbEntity
 67
     1
  8
ﾀｲﾄﾙ枠
370
    40
100
AcDbLine
 10
443.9886396557802
 20
30.75769321432517
 30
0.0
 11
444.5286396557802
 21
30.75769321432517
 31
0.0
  0
LINE
  5
4993
330
15
100
AcDbEntity
 67
     1
  8
ﾀｲﾄﾙ枠
370
    40
100
AcDbLine
 10
445.8086396557801
 20
30.75769321432517
 30
0.0
 11
446.2186396557802
 21
30.75769321432517
 31
0.0
  0
LINE
  5
4994
330
15
100
AcDbEntity
 67
     1
  8
ﾀｲﾄﾙ枠
370
    40
100
AcDbLine
 10
447.9086396557803
 20
27.24769321432512
 30
0.0
 11
448.7653895387391
 21
27.24769321432512
 31
0.0
  0
LINE
  5
4995
330
15
100
AcDbEntity
 67
     1
  8
ﾀｲﾄﾙ枠
370
    40
100
AcDbLine
 10
447.2386396557801
 20
27.24769321432512
 30
0.0
 11
446.3631481529678
 21
27.24769321432512
 31
0.0
  0
LINE
  5
4996
330
15
100
AcDbEntity
 67
     1
  8
ﾀｲﾄﾙ枠
370
    40
100
AcDbLine
 10
444.9186396557802
 20
28.71435988099182
 30
0.0
 11
444.9186396557802
 21
28.24769321432512
 31
0.0
  0
LINE
  5
4997
330
15
100
AcDbEntity
 67
     1
  8
ﾀｲﾄﾙ枠
370
    40
100
AcDbLine
 10
443.4686396557802
 20
27.96954761343346
 30
0.0
 11
444.1118978961369
 21
29.57769321432511
 31
0.0
  0
LINE
  5
4998
330
15
100
AcDbEntity
 67
     1
  8
ﾀｲﾄﾙ枠
370
    40
100
AcDbLine
 10
443.9886396557802
 20
27.65908432359344
 30
0.0
 11
443.4686396557802
 21
26.74908432359382
 31
0.0
  0
LINE
  5
4999
330
15
100
AcDbEntity
 67
     1
  8
ﾀｲﾄﾙ枠
370
    40
100
AcDbLine
 10
443.7186396557802
 20
27.70049966993315
 30
0.0
 11
444.0502687759586
 21
28.41838876895946
 31
0.0
  0
LINE
  5
499A
330
15
100
AcDbEntity
 67
     1
  8
ﾀｲﾄﾙ枠
370
    40
100
AcDbLine
 10
443.4686396557802
 20
26.74908432359382
 30
0.0
 11
443.4686396557802
 21
27.96954761343346
 31
0.0
  0
LINE
  5
499B
330
15
100
AcDbEntity
 67
     1
  8
ﾀｲﾄﾙ枠
370
    40
100
AcDbLine
 10
444.9186396557802
 20
28.24769321432512
 30
0.0
 11
444.5286396557802
 21
28.76769321432516
 31
0.0
  0
LINE
  5
499C
330
15
100
AcDbEntity
 67
     1
  8
ﾀｲﾄﾙ枠
370
    40
100
AcDbLine
 10
444.9186396557802
 20
29.57769321432511
 30
0.0
 11
443.4686396557802
 21
29.57769321432511
 31
0.0
  0
LINE
  5
499D
330
15
100
AcDbEntity
 67
     1
  8
ﾀｲﾄﾙ枠
370
    40
100
AcDbLine
 10
444.2711396557802
 20
29.57769321432511
 30
0.0
 11
444.9186396557802
 21
28.71435988099182
 31
0.0
  0
LINE
  5
499E
330
15
100
AcDbEntity
 67
     1
  8
ﾀｲﾄﾙ枠
370
    40
100
AcDbLine
 10
449.0786396557802
 20
29.57769321432511
 30
0.0
 11
445.8086396557801
 21
29.57769321432511
 31
0.0
  0
LINE
  5
499F
330
15
100
AcDbEntity
 67
     1
  8
ﾀｲﾄﾙ枠
370
    40
100
AcDbLine
 10
445.8086396557801
 20
28.40769321432515
 30
0.0
 11
448.9486396557802
 21
28.40769321432515
 31
0.0
  0
LINE
  5
49A0
330
15
100
AcDbEntity
 67
     1
  8
ﾀｲﾄﾙ枠
370
    40
100
AcDbLine
 10
445.8086396557801
 20
29.57769321432511
 30
0.0
 11
445.8086396557801
 21
30.75769321432517
 31
0.0
  0
LINE
  5
49A1
330
15
100
AcDbEntity
 67
     1
  8
ﾀｲﾄﾙ枠
370
    40
100
AcDbLine
 10
446.2186396557802
 20
30.75769321432517
 30
0.0
 11
446.2186396557802
 21
29.57769321432511
 31
0.0
  0
LINE
  5
49A2
330
15
100
AcDbEntity
 67
     1
  8
ﾀｲﾄﾙ枠
370
    40
100
AcDbLine
 10
444.5286396557802
 20
30.75769321432517
 30
0.0
 11
444.5286396557802
 21
29.57769321432511
 31
0.0
  0
LINE
  5
49A3
330
15
100
AcDbEntity
 67
     1
  8
ﾀｲﾄﾙ枠
370
    40
100
AcDbLine
 10
443.9886396557802
 20
29.57769321432511
 30
0.0
 11
443.9886396557802
 21
30.75769321432517
 31
0.0
  0
LINE
  5
49A4
330
15
100
AcDbEntity
 67
     1
  8
ﾀｲﾄﾙ枠
370
    40
100
AcDbLine
 10
456.0386396557801
 20
30.49769321432512
 30
0.0
 11
456.5786396557802
 21
30.49769321432512
 31
0.0
  0
LINE
  5
49A5
330
15
100
AcDbEntity
 67
     1
  8
ﾀｲﾄﾙ枠
370
    40
100
AcDbLine
 10
456.5786396557802
 20
30.34769321432515
 30
0.0
 11
456.0386396557801
 21
30.34769321432515
 31
0.0
  0
LINE
  5
49A6
330
15
100
AcDbEntity
 67
     1
  8
ﾀｲﾄﾙ枠
370
    40
100
AcDbLine
 10
454.1753963702595
 20
30.75769321432517
 30
0.0
 11
455.0830457319985
 21
30.75769321432517
 31
0.0
  0
LINE
  5
49A7
330
15
100
AcDbEntity
 67
     1
  8
ﾀｲﾄﾙ枠
370
    40
100
AcDbLine
 10
456.0386396557801
 20
30.34769321432515
 30
0.0
 11
456.0386396557801
 21
30.49769321432512
 31
0.0
  0
LINE
  5
49A8
330
15
100
AcDbEntity
 67
     1
  8
ﾀｲﾄﾙ枠
370
    40
100
AcDbLine
 10
456.5786396557802
 20
30.49769321432512
 30
0.0
 11
456.5786396557802
 21
30.34769321432515
 31
0.0
  0
LINE
  5
49A9
330
15
100
AcDbEntity
 67
     1
  8
ﾀｲﾄﾙ枠
370
    40
100
AcDbLine
 10
458.7286396557802
 20
28.87720171151249
 30
0.0
 11
458.7286396557802
 21
29.62601171294045
 31
0.0
  0
LINE
  5
49AA
330
15
100
AcDbEntity
 67
     1
  8
ﾀｲﾄﾙ枠
370
    40
100
AcDbLine
 10
452.8086396557801
 20
27.07549964808481
 30
0.0
 11
452.8086396557801
 21
28.66769321432514
 31
0.0
  0
LINE
  5
49AB
330
15
100
AcDbEntity
 67
     1
  8
ﾀｲﾄﾙ枠
370
    40
100
AcDbLine
 10
452.0086396557801
 20
26.97949964808481
 30
0.0
 11
452.0086396557801
 21
28.66769321432514
 31
0.0
  0
LINE
  5
49AC
330
15
100
AcDbEntity
 67
     1
  8
ﾀｲﾄﾙ枠
370
    40
100
AcDbLine
 10
452.4086396557803
 20
28.41769321432514
 30
0.0
 11
452.4086396557803
 21
27.02749964808481
 31
0.0
  0
LINE
  5
49AD
330
15
100
AcDbEntity
 67
     1
  8
ﾀｲﾄﾙ枠
370
    40
100
AcDbLine
 10
451.2286396557802
 20
26.88589964808477
 30
0.0
 11
453.9786396557802
 21
27.21589964808481
 31
0.0
  0
LINE
  5
49AE
330
15
100
AcDbEntity
 67
     1
  8
ﾀｲﾄﾙ枠
370
    40
100
AcDbLine
 10
453.9786396557802
 20
28.66769321432514
 30
0.0
 11
451.2286396557802
 21
28.66769321432514
 31
0.0
  0
LINE
  5
49AF
330
15
100
AcDbEntity
 67
     1
  8
ﾀｲﾄﾙ枠
370
    40
100
AcDbLine
 10
453.6937402298788
 20
26.92239333092891
 30
0.0
 11
451.4437402298788
 21
26.56239333092889
 31
0.0
  0
LINE
  5
49B0
330
15
100
AcDbEntity
 67
     1
  8
ﾀｲﾄﾙ枠
370
    40
100
AcDbLine
 10
451.2286396557802
 20
29.57769321432511
 30
0.0
 11
456.5786396557802
 21
29.57769321432511
 31
0.0
  0
LINE
  5
49B1
330
15
100
AcDbEntity
 67
     1
  8
ﾀｲﾄﾙ枠
370
    40
100
AcDbLine
 10
454.5291173004923
 20
29.58769321432516
 30
0.0
 11
454.1753963702595
 21
30.75769321432517
 31
0.0
  0
LINE
  5
49B2
330
15
100
AcDbEntity
 67
     1
  8
ﾀｲﾄﾙ枠
370
    40
100
AcDbLine
 10
455.0830457319985
 20
30.75769321432517
 30
0.0
 11
455.4367666622312
 21
29.58769321432516
 31
0.0
  0
LINE
  5
49BC
330
15
100
AcDbEntity
 67
     1
  8
ﾀｲﾄﾙ枠
370
    40
100
AcDbLine
 10
467.8686396557802
 20
28.80769321432513
 30
0.0
 11
467.8686396557802
 21
25.91769321432514
 31
0.0
  0
LINE
  5
49BD
330
15
100
AcDbEntity
 67
     1
  8
ﾀｲﾄﾙ枠
370
    40
100
AcDbLine
 10
468.0686396557801
 20
25.66769321432514
 30
0.0
 11
468.0686396557801
 21
29.05769321432512
 31
0.0
  0
LINE
  5
49BE
330
15
100
AcDbEntity
 67
     1
  8
ﾀｲﾄﾙ枠
370
    40
100
AcDbLine
 10
467.4686396557802
 20
28.80769321432513
 30
0.0
 11
467.4686396557802
 21
25.91769321432514
 31
0.0
  0
LINE
  5
49BF
330
15
100
AcDbEntity
 67
     1
  8
ﾀｲﾄﾙ枠
370
    40
100
AcDbLine
 10
467.6686396557802
 20
28.80769321432513
 30
0.0
 11
467.6686396557802
 21
25.91769321432514
 31
0.0
  0
LINE
  5
49C0
330
15
100
AcDbEntity
 67
     1
  8
ﾀｲﾄﾙ枠
370
    40
100
AcDbLine
 10
467.2686396557802
 20
29.05769321432512
 30
0.0
 11
467.2686396557802
 21
25.66769321432514
 31
0.0
  0
LINE
  5
49C3
330
15
100
AcDbEntity
 67
     1
  8
ﾀｲﾄﾙ枠
370
    40
100
AcDbLine
 10
470.2636396557801
 20
25.86269321432513
 30
0.0
 11
470.2636396557801
 21
30.50769321432517
 31
0.0
  0
LINE
  5
49C4
330
15
100
AcDbEntity
 67
     1
  8
ﾀｲﾄﾙ枠
370
    40
100
AcDbLine
 10
470.4636396557802
 20
25.86269321432513
 30
0.0
 11
470.4636396557802
 21
30.50769321432517
 31
0.0
  0
LINE
  5
49C5
330
15
100
AcDbEntity
 67
     1
  8
ﾀｲﾄﾙ枠
370
    40
100
AcDbLine
 10
469.9986396557802
 20
25.61269321432513
 30
0.0
 11
469.9986396557802
 21
30.75769321432517
 31
0.0
  0
LINE
  5
49C6
330
15
100
AcDbEntity
 67
     1
  8
ﾀｲﾄﾙ枠
370
    40
100
AcDbLine
 10
470.6636396557802
 20
25.86269321432513
 30
0.0
 11
470.6636396557802
 21
30.50769321432517
 31
0.0
  0
LINE
  5
49C7
330
15
100
AcDbEntity
 67
     1
  8
ﾀｲﾄﾙ枠
370
    40
100
AcDbLine
 10
470.9286396557803
 20
30.75769321432517
 30
0.0
 11
470.9286396557803
 21
25.61269321432513
 31
0.0
  0
LINE
  5
49C9
330
15
100
AcDbEntity
 67
     1
  8
ﾀｲﾄﾙ枠
370
    40
100
AcDbLine
 10
459.7089474085925
 20
25.67769321432513
 30
0.0
 11
461.3556140752591
 21
27.75769321432517
 31
0.0
  0
LINE
  5
49CA
330
15
100
AcDbEntity
 67
     1
  8
ﾀｲﾄﾙ枠
370
    40
100
AcDbLine
 10
460.8589626560308
 20
27.57599595148383
 30
0.0
 11
459.5619729891135
 21
25.93769321432512
 31
0.0
  0
LINE
  5
49CB
330
15
100
AcDbEntity
 67
     1
  8
ﾀｲﾄﾙ枠
370
    40
100
AcDbLine
 10
459.0033319029679
 20
25.67769321432513
 30
0.0
 11
460.6420819029682
 21
27.74769321432512
 31
0.0
  0
LINE
  5
49CC
330
15
100
AcDbEntity
 67
     1
  8
ﾀｲﾄﾙ枠
370
    40
100
AcDbLine
 10
463.3753063224468
 20
25.93769321432512
 30
0.0
 11
462.0783166555296
 21
27.57599595148383
 31
0.0
  0
LINE
  5
49CD
330
15
100
AcDbEntity
 67
     1
  8
ﾀｲﾄﾙ枠
370
    40
100
AcDbLine
 10
462.2951974085921
 20
27.74769321432512
 30
0.0
 11
463.9339474085922
 21
25.67769321432513
 31
0.0
  0
LINE
  5
49CE
330
15
100
AcDbEntity
 67
     1
  8
ﾀｲﾄﾙ枠
370
    40
100
AcDbLine
 10
461.5816652363013
 20
27.75769321432517
 30
0.0
 11
463.2283319029682
 21
25.67769321432513
 31
0.0
  0
LINE
  5
49CF
330
15
100
AcDbEntity
 67
     1
  8
ﾀｲﾄﾙ枠
370
    40
100
AcDbLine
 10
463.9339474085922
 20
25.67769321432513
 30
0.0
 11
459.0033319029679
 21
25.67769321432513
 31
0.0
  0
LINE
  5
49D0
330
15
100
AcDbEntity
 67
     1
  8
ﾀｲﾄﾙ枠
370
    40
100
AcDbLine
 10
467.2686396557802
 20
25.66769321432514
 30
0.0
 11
468.0686396557801
 21
25.66769321432514
 31
0.0
  0
LINE
  5
49D1
330
15
100
AcDbEntity
 67
     1
  8
ﾀｲﾄﾙ枠
370
    40
100
AcDbLine
 10
471.9686396557802
 20
25.61269321432513
 30
0.0
 11
469.3486396557802
 21
25.61269321432513
 31
0.0
  0
TEXT
  5
49D5
330
15
100
AcDbEntity
 67
     1
  8
0
100
AcDbText
 10
463.1730080915915
 20
38.56619161479622
 30
0.0
 40
3.5
  1
1/10,1/1
  7
MSP明朝W1
 72
     4
 11
472.7488507882207
 21
40.20804554738049
 31
0.0
100
AcDbText
  0
TEXT
  5
49D6
330
15
100
AcDbEntity
 67
     1
  8
ﾀｲﾄﾙ枠
100
AcDbText
 10
456.9510979792319
 20
36.20804554738049
 30
0.0
 40
2.5
  1
尺
  7
MSP明朝W1
 72
     4
 11
458.7488507882207
 21
37.45804554738049
 31
0.0
100
AcDbText
1001
ACAD
1000
MTEXTBEGIN
1070
    73
1070
     1
1070
    44
1040
1.0
1070
    74
1070
     0
1000
MTEXTEND
  0
LINE
  5
49D7
330
15
100
AcDbEntity
 67
     1
  8
ﾀｲﾄﾙ枠
100
AcDbLine
 10
456.2488507882207
 20
34.20804554738049
 30
0.0
 11
456.2488507882207
 21
46.20804554738049
 31
0.0
  0
LINE
  5
49D8
330
15
100
AcDbEntity
 67
     1
  8
ﾀｲﾄﾙ枠
100
AcDbLine
 10
461.2488507882207
 20
34.20804554738049
 30
0.0
 11
461.2488507882207
 21
46.20804554738049
 31
0.0
  0
LINE
  5
49D9
330
15
100
AcDbEntity
 67
     1
  8
ﾀｲﾄﾙ枠
370
    40
100
AcDbLine
 10
466.7486396557801
 20
30.74769321432512
 30
0.0
 11
468.4586396557802
 21
30.74769321432512
 31
0.0
  0
LINE
  5
49DA
330
15
100
AcDbEntity
 67
     1
  8
ﾀｲﾄﾙ枠
370
    40
100
AcDbLine
 10
467.2686396557802
 20
27.89769321432515
 30
0.0
 11
466.8088294607942
 21
27.89769321432515
 31
0.0
  0
LINE
  5
49DB
330
15
100
AcDbEntity
 67
     1
  8
ﾀｲﾄﾙ枠
370
    40
100
AcDbLine
 10
468.5886396557802
 20
29.05769321432512
 30
0.0
 11
466.4886396557802
 21
29.05769321432512
 31
0.0
  0
LINE
  5
49DC
330
15
100
AcDbEntity
 67
     1
  8
ﾀｲﾄﾙ枠
370
    40
100
AcDbLine
 10
466.4836100104692
 20
26.44769321432511
 30
0.0
 11
466.9669433438025
 21
27.89769321432515
 31
0.0
  0
LINE
  5
49DD
330
15
100
AcDbEntity
 67
     1
  8
ﾀｲﾄﾙ枠
370
    40
100
AcDbLine
 10
463.1686396557802
 20
28.61269321432513
 30
0.0
 11
463.1686396557802
 21
28.72269321432515
 31
0.0
  0
LINE
  5
49DE
330
15
100
AcDbEntity
 67
     1
  8
ﾀｲﾄﾙ枠
370
    40
100
AcDbLine
 10
464.2086396557802
 20
29.62601171294045
 30
0.0
 11
464.2086396557802
 21
28.87720171151249
 31
0.0
  0
LINE
  5
49DF
330
15
100
AcDbEntity
 67
     1
  8
ﾀｲﾄﾙ枠
370
    40
100
AcDbLine
 10
466.3254961274609
 20
26.44769321432511
 30
0.0
 11
466.4836100104692
 21
26.44769321432511
 31
0.0
  0
LINE
  5
49E0
330
15
100
AcDbEntity
 67
     1
  8
ﾀｲﾄﾙ枠
370
    40
100
AcDbLine
 10
466.8088294607942
 20
27.89769321432515
 30
0.0
 11
466.3254961274609
 21
26.44769321432511
 31
0.0
  0
LINE
  5
49E1
330
15
100
AcDbEntity
 67
     1
  8
ﾀｲﾄﾙ枠
370
    40
100
AcDbLine
 10
461.2408126599771
 20
30.50769321432517
 30
0.0
 11
461.6964666515833
 21
30.50769321432517
 31
0.0
  0
LINE
  5
49E2
330
15
100
AcDbEntity
 67
     1
  8
ﾀｲﾄﾙ枠
370
    40
100
AcDbLine
 10
460.7537539214159
 20
30.75769321432517
 30
0.0
 11
462.1835253901445
 21
30.75769321432517
 31
0.0
  0
LINE
  5
49E3
330
15
100
AcDbEntity
 67
     1
  8
ﾀｲﾄﾙ枠
370
    40
100
AcDbLine
 10
459.7686396557802
 20
28.72269321432515
 30
0.0
 11
459.7686396557802
 21
28.61269321432513
 31
0.0
  0
LINE
  5
49E4
330
15
100
AcDbEntity
 67
     1
  8
ﾀｲﾄﾙ枠
370
    40
100
AcDbLine
 10
461.6964666515833
 20
30.50769321432517
 30
0.0
 11
463.9586396557802
 21
29.37660671222647
 31
0.0
  0
LINE
  5
49E5
330
15
100
AcDbEntity
 67
     1
  8
ﾀｲﾄﾙ枠
370
    40
100
AcDbLine
 10
464.2086396557802
 20
28.87720171151249
 30
0.0
 11
461.4686396557802
 21
30.2472017115125
 31
0.0
  0
LINE
  5
49E6
330
15
100
AcDbEntity
 67
     1
  8
ﾀｲﾄﾙ枠
370
    40
100
AcDbLine
 10
462.1835253901445
 20
30.75769321432517
 30
0.0
 11
464.2086396557802
 21
29.62601171294045
 31
0.0
  0
LINE
  5
49E7
330
15
100
AcDbEntity
 67
     1
  8
ﾀｲﾄﾙ枠
370
    40
100
AcDbLine
 10
459.7686396557802
 20
28.61269321432513
 30
0.0
 11
463.1686396557802
 21
28.61269321432513
 31
0.0
  0
LINE
  5
49E8
330
15
100
AcDbEntity
 67
     1
  8
ﾀｲﾄﾙ枠
370
    40
100
AcDbLine
 10
463.1686396557802
 20
28.72269321432515
 30
0.0
 11
459.7686396557802
 21
28.72269321432515
 31
0.0
  0
LINE
  5
49E9
330
15
100
AcDbEntity
 67
     1
  8
ﾀｲﾄﾙ枠
370
    40
100
AcDbLine
 10
469.9986396557802
 20
30.75769321432517
 30
0.0
 11
470.9286396557803
 21
30.75769321432517
 31
0.0
  0
LINE
  5
49EA
330
15
100
AcDbEntity
 67
     1
  8
ﾀｲﾄﾙ枠
370
    40
100
AcDbLine
 10
468.5165700775092
 20
27.89769321432515
 30
0.0
 11
468.0686396557801
 21
27.89769321432515
 31
0.0
  0
LINE
  5
49EB
330
15
100
AcDbEntity
 67
     1
  8
ﾀｲﾄﾙ枠
370
    40
100
AcDbLine
 10
468.9032367441758
 20
26.44769321432511
 30
0.0
 11
468.7479949972135
 21
26.44769321432511
 31
0.0
  0
LINE
  5
49EC
330
15
100
AcDbEntity
 67
     1
  8
ﾀｲﾄﾙ枠
370
    40
100
AcDbLine
 10
468.5165700775092
 20
27.89769321432515
 30
0.0
 11
468.9032367441758
 21
26.44769321432511
 31
0.0
  0
LINE
  5
49ED
330
15
100
AcDbEntity
 67
     1
  8
ﾀｲﾄﾙ枠
370
    40
100
AcDbLine
 10
468.7479949972135
 20
26.44769321432511
 30
0.0
 11
468.3613283305465
 21
27.89769321432515
 31
0.0
  0
LINE
  5
49EE
330
15
100
AcDbEntity
 67
     1
  8
ﾀｲﾄﾙ枠
370
    40
100
AcDbLine
 10
469.4786396557802
 20
29.05769321432512
 30
0.0
 11
471.8386396557802
 21
29.05769321432512
 31
0.0
  0
TEXT
  5
49EF
330
15
100
AcDbEntity
 67
     1
  8
ﾀｲﾄﾙ枠
100
AcDbText
 10
456.9510979792319
 20
41.69400060356027
 30
0.0
 40
2.5
  1
縮
  7
MSP明朝W1
 72
     4
 11
458.7488507882207
 21
42.95804554738049
 31
0.0
100
AcDbText
1001
ACAD
1000
MTEXTBEGIN
1070
    73
1070
     1
1070
    44
1040
1.0
1070
    74
1070
     0
1000
MTEXTEND
  0
TEXT
  5
49FB
330
15
100
AcDbEntity
 67
     1
  8
0
100
AcDbText
 10
407.4468844960859
 20
36.41871970468386
 30
0.0
 40
3.5
  1
SFB750ｶｳﾝﾀｰ（6t）
  7
MSP明朝W1
 72
     4
 11
427.7488507882207
 21
38.20804554738049
 31
0.0
100
AcDbText
  0
ENDSEC
  0
SECTION
  2
OBJECTS
  0
DICTIONARY
  5
C
330
0
100
AcDbDictionary
281
     1
  3
ACAD_GROUP
350
D
  3
ACAD_LAYOUT
350
2320
  3
ACAD_MLINESTYLE
350
1B
  3
ACAD_PLOTSETTINGS
350
2321
  3
ACAD_PLOTSTYLENAME
350
231E
  3
ACDBVARIABLEDICTIONARY
350
2CE
  3
CONTENTDICTIONARY
350
23
  0
DICTIONARY
  5
4466
330
2
100
AcDbDictionary
280
     1
281
     1
  3
ACAD_LAYERFILTERS
360
4467
  0
DICTIONARY
  5
D
102
{ACAD_REACTORS
330
C
102
}
330
C
100
AcDbDictionary
281
     1
  0
DICTIONARY
  5
2320
102
{ACAD_REACTORS
330
C
102
}
330
C
100
AcDbDictionary
281
     1
  3
Model
350
2322
  3
SFB750t6
350
2323
  0
DICTIONARY
  5
1B
102
{ACAD_REACTORS
330
C
102
}
330
C
100
AcDbDictionary
281
     1
  3
STANDARD
350
1C
  0
DICTIONARY
  5
2321
102
{ACAD_REACTORS
330
C
102
}
330
C
100
AcDbDictionary
281
     1
  0
ACDBDICTIONARYWDFLT
  5
231E
102
{ACAD_REACTORS
330
C
102
}
330
C
100
AcDbDictionary
281
     1
  3
Normal
350
231F
100
AcDbDictionaryWithDefault
340
231F
  0
DICTIONARY
  5
2CE
102
{ACAD_REACTORS
330
C
102
}
330
C
100
AcDbDictionary
281
     1
  3
DIMADEC
350
2CF
  3
DIMASSOC
350
25EB
  3
SORTENTS
350
1857
  0
DICTIONARY
  5
23
102
{ACAD_REACTORS
330
C
102
}
330
C
100
AcDbDictionary
281
     1
  0
DICTIONARY
  5
4467
102
{ACAD_REACTORS
330
4466
102
}
330
4466
100
AcDbDictionary
280
     1
281
     1
  3
\U+663E示所有\U+56FE\U+5C42
360
4468
  3
\U+9EC3色
360
4469
  3
1
360
446A
  3
1-L
360
446B
  3
1stFloor
360
446C
  3
2
360
446D
  3
200
360
446E
  3
2ndFloor
360
446F
  3
3
360
4470
  3
400
360
4471
  3
A
360
4472
  3
A-
360
4473
  3
A-ELEV
360
4474
  3
ac
360
4475
  3
ALL-TXT
360
4476
  3
ap平面圖
360
4477
  3
AR-TXT
360
4478
  3
ARCHITECTS
360
4479
  3
area
360
447A
  3
asd
360
447B
  3
B
360
447C
  3
Basci
360
447D
  3
base_map
360
447E
  3
BB
360
447F
  3
BLUE
360
4480
  3
boun地籍資料
360
4481
  3
BROWNLINES
360
4482
  3
BW-TXT
360
4483
  3
C-
360
4484
  3
CEILING
360
4485
  3
cloud
360
4486
  3
co
360
4487
  3
co-
360
4488
  3
color-7
360
4489
  3
columns-propose
360
448A
  3
columns-proposed
360
448B
  3
Combo
360
448C
  3
complete-services
360
448D
  3
CONSTRUCTION-DOC
360
448E
  3
cont整地
360
448F
  3
Core
360
4490
  3
CSD
360
4491
  3
CSD-TXT
360
4492
  3
CYAN
360
4493
  3
ｄ
360
4791
  3
D
360
4495
  3
dim尺寸
360
4496
  3
dnf
360
4497
  3
drain
360
4498
  3
DT
360
4499
  3
DW-GRID
360
449A
  3
electrical
360
449B
  3
ELEV
360
449C
  3
es立剖面
360
449D
  3
extg
360
449E
  3
EXTG-~
360
449F
  3
F.S.
360
44A0
  3
fire
360
44A1
  3
fireline
360
44A2
  3
floor layout
360
44A3
  3
Freeze
360
44A4
  3
Frez
360
44A5
  3
FROOZEN
360
44A6
  3
FROZEN
360
44A7
  3
FS
360
44A8
  3
FUR
360
44A9
  3
furn\U+50A2\U+4FF1
360
44AA
  3
furniture
360
44AB
  3
GREEN
360
44AC
  3
Grid
360
44AD
  3
Grid and Fireline
360
44AE
  3
hatches
360
44AF
  3
hat鋪面質感
360
44B0
  3
hd
360
44B1
  3
ian1
360
44B2
  3
ian2
360
44B3
  3
ian3
360
44B4
  3
idx索引圖
360
44B5
  3
ims
360
44B6
  3
Karsten
360
44B7
  3
L-TEMP
360
44B8
  3
LANDSCAP
360
44B9
  3
LANDSCAPE
360
44BA
  3
law法規檢討
360
44BB
  3
lea
360
44BC
  3
list表格
360
44BD
  3
MAGENTA
360
44BE
  3
move
360
44BF
  3
N
360
44C0
  3
Off
360
44C1
  3
P
360
44C2
  3
Pen weight
360
44C3
  3
PHA
360
44C4
  3
poche
360
44C5
  3
PORT
360
44C6
  3
R
360
44C7
  3
RAIL
360
44C8
  3
RED
360
44C9
  3
S
360
44CA
  3
search
360
44CB
  3
sec
360
44CC
  3
section
360
44CD
  3
Show all thawed Layers
360
44CE
  3
show all thawed no xref
360
44CF
  3
Show No xref layers
360
44D0
  3
ｓｉｔｅ
360
44D1
  3
Site
360
4792
  3
ST-UG-OL
360
44D3
  3
stair
360
44D4
  3
sta樓梯
360
44D5
  3
sym符號
360
44D6
  3
t
360
44D7
  3
test
360
44D8
  3
TEXT
360
44D9
  3
TEXT-0NLY
360
44DA
  3
TEXT-ONLY
360
44DB
  3
text文字
360
44DC
  3
TL
360
44DD
  3
toil衛浴
360
44DE
  3
txt
360
44DF
  3
TXT-BW
360
44E0
  3
unlock all layers
360
44E1
  3
VP THAW
360
44E2
  3
vsit景觀環境
360
44E3
  3
W
360
44E4
  3
WA
360
44E5
  3
walk-distance
360
44E6
  3
WALL
360
44E7
  3
WALL-90
360
44E8
  3
wd門窗
360
44E9
  3
WHITE
360
44EA
  3
WIN
360
44EB
  3
YELLOW
360
44EC
  3
ｚｚｚ
360
44ED
  3
ZZZ
360
4793
  3
紅色
360
44EF
  3
青色
360
44F0
  3
白色
360
44F1
  0
LAYOUT
  5
2322
102
{ACAD_REACTORS
330
2320
102
}
330
2320
100
AcDbPlotSettings
  1

  2
\\YOSHISV\NEC MultiWriter 2000E Plus
  4

  6

 40
0.0
 41
0.0
 42
0.0
 43
0.0
 44
0.0
 45
0.0
 46
0.0
 47
0.0
 48
0.0
 49
0.0
140
0.0
141
0.0
142
1.0
143
1.0
 70
  1712
 72
     0
 73
     0
 74
     0
  7

 75
     0
147
1.0
148
0.0
149
0.0
100
AcDbLayout
  1
Model
 70
     1
 71
     0
 10
0.0
 20
0.0
 11
12.0
 21
9.0
 12
0.0
 22
0.0
 32
0.0
 14
0.0
 24
0.0
 34
0.0
 15
0.0
 25
0.0
 35
0.0
146
0.0
 13
0.0
 23
0.0
 33
0.0
 16
1.0
 26
0.0
 36
0.0
 17
0.0
 27
1.0
 37
0.0
 76
     0
330
18
  0
LAYOUT
  5
2323
102
{ACAD_REACTORS
330
2320
102
}
330
2320
100
AcDbPlotSettings
  1

  2
Acrobat Distiller
  4
A3
  6

 40
3.174999952316284
 41
3.174999952316284
 42
3.17498779296875
 43
3.17498779296875
 44
297.0318298339843
 45
420.1583251953125
 46
0.0
 47
0.0
 48
0.0
 49
0.0
140
0.0
141
0.0
142
1.0
143
1.0
 70
   688
 72
     1
 73
     1
 74
     1
  7
monochrome.ctb
 75
    16
147
1.0
148
-75.49997749856811
149
-17.06635713201785
100
AcDbLayout
  1
SFB750t6
 70
     1
 71
     1
 10
72.32498970559936
 20
13.89135717970157
 11
492.4833149009118
 21
310.9231870136859
 12
0.0
 22
0.0
 32
0.0
 14
98.24885078822076
 24
22.20804554738049
 34
0.0
 15
484.2488507882207
 25
302.2080455473805
 35
0.0
146
0.0
 13
0.0
 23
0.0
 33
0.0
 16
1.0
 26
0.0
 36
0.0
 17
0.0
 27
1.0
 37
0.0
 76
     0
330
15
331
47
  0
MLINESTYLE
  5
1C
102
{ACAD_REACTORS
330
1B
102
}
330
1B
100
AcDbMlineStyle
  2
STANDARD
 70
     0
  3

 62
   256
 51
90.0
 52
90.0
 71
     2
 49
0.5
 62
   256
  6
BYLAYER
 49
-0.5
 62
   256
  6
BYLAYER
  0
ACDBPLACEHOLDER
  5
231F
102
{ACAD_REACTORS
330
231E
102
}
330
231E
  0
DICTIONARYVAR
  5
2CF
102
{ACAD_REACTORS
330
2CE
102
}
330
2CE
100
DictionaryVariables
280
     0
  1
0
  0
DICTIONARYVAR
  5
25EB
102
{ACAD_REACTORS
330
2CE
102
}
330
2CE
100
DictionaryVariables
280
     0
  1
1
  0
DICTIONARYVAR
  5
1857
102
{ACAD_REACTORS
330
2CE
102
}
330
2CE
100
DictionaryVariables
280
     0
  1
96
  0
XRECORD
  5
4468
102
{ACAD_REACTORS
330
4467
102
}
330
4467
100
AcDbXrecord
280
     1
  1
\U+663E示所有\U+56FE\U+5C42
  1
\U+5899
  1
*
  1
*
 70
     0
  1
*
  1
*
  0
XRECORD
  5
4469
102
{ACAD_REACTORS
330
4467
102
}
330
4467
100
AcDbXrecord
280
     1
  1
\U+9EC3色
  1
*
  1
yellow*
  1
*
 70
     0
  1
*
  1
*
  0
XRECORD
  5
446A
102
{ACAD_REACTORS
330
4467
102
}
330
4467
100
AcDbXrecord
280
     1
  1
1
  1
*
  1
*
  1
*
 70
     1
  1
*
  1
*
  0
XRECORD
  5
446B
102
{ACAD_REACTORS
330
4467
102
}
330
4467
100
AcDbXrecord
280
     1
  1
1-L
  1
*
  1
*
  1
*
 70
     0
  1
*
  1
*
  0
XRECORD
  5
446C
102
{ACAD_REACTORS
330
4467
102
}
330
4467
100
AcDbXrecord
280
     1
  1
1stFloor
  1
*F1
  1
*
  1
*
 70
     0
  1
*
  1
*
  0
XRECORD
  5
446D
102
{ACAD_REACTORS
330
4467
102
}
330
4467
100
AcDbXrecord
280
     1
  1
2
  1
*
  1
*
  1
*
 70
   768
  1
*
  1
*
  0
XRECORD
  5
446E
102
{ACAD_REACTORS
330
4467
102
}
330
4467
100
AcDbXrecord
280
     1
  1
200
  1
*200*
  1
*
  1
*
 70
     0
  1
*
  1
*
  0
XRECORD
  5
446F
102
{ACAD_REACTORS
330
4467
102
}
330
4467
100
AcDbXrecord
280
     1
  1
2ndFloor
  1
*F2
  1
*
  1
*
 70
     0
  1
*
  1
*
  0
XRECORD
  5
4470
102
{ACAD_REACTORS
330
4467
102
}
330
4467
100
AcDbXrecord
280
     1
  1
3
  1
*
  1
*
  1
*
 70
     0
  1
*
  1
*
  0
XRECORD
  5
4471
102
{ACAD_REACTORS
330
4467
102
}
330
4467
100
AcDbXrecord
280
     1
  1
400
  1
*400*
  1
*
  1
*
 70
     0
  1
*
  1
*
  0
XRECORD
  5
4472
102
{ACAD_REACTORS
330
4467
102
}
330
4467
100
AcDbXrecord
280
     1
  1
A
  1
*SOLID*
  1
*
  1
*
 70
     0
  1
*
  1
*
  0
XRECORD
  5
4473
102
{ACAD_REACTORS
330
4467
102
}
330
4467
100
AcDbXrecord
280
     1
  1
A-
  1
*
  1
*
  1
*
 70
     0
  1
*
  1
*
  0
XRECORD
  5
4474
102
{ACAD_REACTORS
330
4467
102
}
330
4467
100
AcDbXrecord
280
     1
  1
A-ELEV
  1
A-ELEV*
  1
*
  1
*
 70
     0
  1
*
  1
*
  0
XRECORD
  5
4475
102
{ACAD_REACTORS
330
4467
102
}
330
4467
100
AcDbXrecord
280
     1
  1
ac
  1
*ac*
  1
*
  1
*
 70
     0
  1
*
  1
*
  0
XRECORD
  5
4476
102
{ACAD_REACTORS
330
4467
102
}
330
4467
100
AcDbXrecord
280
     1
  1
ALL-TXT
  1
*TXT*
  1
*
  1
*
 70
     0
  1
*
  1
*
  0
XRECORD
  5
4477
102
{ACAD_REACTORS
330
4467
102
}
330
4467
100
AcDbXrecord
280
     1
  1
ap平面圖
  1
ap*
  1
*
  1
*
 70
     0
  1
*
  1
*
  0
XRECORD
  5
4478
102
{ACAD_REACTORS
330
4467
102
}
330
4467
100
AcDbXrecord
280
     1
  1
AR-TXT
  1
*TXT-CSD
  1
*
  1
*
 70
     0
  1
*
  1
*
  0
XRECORD
  5
4479
102
{ACAD_REACTORS
330
4467
102
}
330
4467
100
AcDbXrecord
280
     1
  1
ARCHITECTS
  1
AR*
  1
*
  1
*
 70
     0
  1
*
  1
*
  0
XRECORD
  5
447A
102
{ACAD_REACTORS
330
4467
102
}
330
4467
100
AcDbXrecord
280
     1
  1
area
  1
area*
  1
*
  1
*
 70
     0
  1
*
  1
*
  0
XRECORD
  5
447B
102
{ACAD_REACTORS
330
4467
102
}
330
4467
100
AcDbXrecord
280
     1
  1
asd
  1
1389p00|*
  1
*
  1
*
 70
     0
  1
*
  1
*
  0
XRECORD
  5
447C
102
{ACAD_REACTORS
330
4467
102
}
330
4467
100
AcDbXrecord
280
     1
  1
B
  1
KK*
  1
*
  1
*
 70
     3
  1
*
  1
*
  0
XRECORD
  5
447D
102
{ACAD_REACTORS
330
4467
102
}
330
4467
100
AcDbXrecord
280
     1
  1
Basci
  1
*
  1
*
  1
*
 70
     0
  1
*
  1
*
  0
XRECORD
  5
447E
102
{ACAD_REACTORS
330
4467
102
}
330
4467
100
AcDbXrecord
280
     1
  1
base_map
  1
9*
  1
*
  1
*
 70
     0
  1
*
  1
*
  0
XRECORD
  5
447F
102
{ACAD_REACTORS
330
4467
102
}
330
4467
100
AcDbXrecord
280
     1
  1
BB
  1
*
  1
*
  1
*
 70
     0
  1
*
  1
*
  0
XRECORD
  5
4480
102
{ACAD_REACTORS
330
4467
102
}
330
4467
100
AcDbXrecord
280
     1
  1
BLUE
  1
*
  1
BLUE
  1
*
 70
     0
  1
*
  1
*
  0
XRECORD
  5
4481
102
{ACAD_REACTORS
330
4467
102
}
330
4467
100
AcDbXrecord
280
     1
  1
boun地籍資料
  1
boun*
  1
*
  1
*
 70
     0
  1
*
  1
*
  0
XRECORD
  5
4482
102
{ACAD_REACTORS
330
4467
102
}
330
4467
100
AcDbXrecord
280
     1
  1
BROWNLINES
  1
*
  1
*
  1
*
 70
     0
  1
*
  1
*
  0
XRECORD
  5
4483
102
{ACAD_REACTORS
330
4467
102
}
330
4467
100
AcDbXrecord
280
     1
  1
BW-TXT
  1
*TXT-BW
  1
*
  1
*
 70
     0
  1
*
  1
*
  0
XRECORD
  5
4484
102
{ACAD_REACTORS
330
4467
102
}
330
4467
100
AcDbXrecord
280
     1
  1
C-
  1
*
  1
*
  1
*
 70
     0
  1
*
  1
*
  0
XRECORD
  5
4485
102
{ACAD_REACTORS
330
4467
102
}
330
4467
100
AcDbXrecord
280
     1
  1
CEILING
  1
CEILING
  1
*
  1
*
 70
     4
  1
*
  1
*
  0
XRECORD
  5
4486
102
{ACAD_REACTORS
330
4467
102
}
330
4467
100
AcDbXrecord
280
     1
  1
cloud
  1
*cloud*
  1
*
  1
*
 70
     0
  1
*
  1
*
  0
XRECORD
  5
4487
102
{ACAD_REACTORS
330
4467
102
}
330
4467
100
AcDbXrecord
280
     1
  1
co
  1
*
  1
*
  1
*
 70
     0
  1
*
  1
*
  0
XRECORD
  5
4488
102
{ACAD_REACTORS
330
4467
102
}
330
4467
100
AcDbXrecord
280
     1
  1
co-
  1
*
  1
*
  1
*
 70
     0
  1
*
  1
*
  0
XRECORD
  5
4489
102
{ACAD_REACTORS
330
4467
102
}
330
4467
100
AcDbXrecord
280
     1
  1
color-7
  1
*
  1
7
  1
*
 70
     0
  1
*
  1
*
  0
XRECORD
  5
448A
102
{ACAD_REACTORS
330
4467
102
}
330
4467
100
AcDbXrecord
280
     1
  1
columns-propose
  1
*propose*
  1
*
  1
*
 70
     0
  1
*
  1
*
  0
XRECORD
  5
448B
102
{ACAD_REACTORS
330
4467
102
}
330
4467
100
AcDbXrecord
280
     1
  1
columns-proposed
  1
*propose*
  1
*
  1
*
 70
     0
  1
*
  1
*
  0
XRECORD
  5
448C
102
{ACAD_REACTORS
330
4467
102
}
330
4467
100
AcDbXrecord
280
     1
  1
Combo
  1
*Fc
  1
*
  1
*
 70
     0
  1
*
  1
*
  0
XRECORD
  5
448D
102
{ACAD_REACTORS
330
4467
102
}
330
4467
100
AcDbXrecord
280
     1
  1
complete-services
  1
*
  1
*
  1
*
 70
    13
  1
*
  1
*
  0
XRECORD
  5
448E
102
{ACAD_REACTORS
330
4467
102
}
330
4467
100
AcDbXrecord
280
     1
  1
CONSTRUCTION-DOC
  1
*
  1
*
  1
*
 70
     3
  1
*
  1
*
  0
XRECORD
  5
448F
102
{ACAD_REACTORS
330
4467
102
}
330
4467
100
AcDbXrecord
280
     1
  1
cont整地
  1
cont*
  1
*
  1
*
 70
     0
  1
*
  1
*
  0
XRECORD
  5
4490
102
{ACAD_REACTORS
330
4467
102
}
330
4467
100
AcDbXrecord
280
     1
  1
Core
  1
Core*
  1
*
  1
*
 70
     0
  1
*
  1
*
  0
XRECORD
  5
4491
102
{ACAD_REACTORS
330
4467
102
}
330
4467
100
AcDbXrecord
280
     1
  1
CSD
  1
csd*
  1
*
  1
*
 70
     0
  1
*
  1
*
  0
XRECORD
  5
4492
102
{ACAD_REACTORS
330
4467
102
}
330
4467
100
AcDbXrecord
280
     1
  1
CSD-TXT
  1
*TXT-CSD
  1
*
  1
*
 70
     0
  1
*
  1
*
  0
XRECORD
  5
4493
102
{ACAD_REACTORS
330
4467
102
}
330
4467
100
AcDbXrecord
280
     1
  1
CYAN
  1
*
  1
CYAN
  1
*
 70
     0
  1
*
  1
*
  0
XRECORD
  5
4791
102
{ACAD_REACTORS
330
4467
102
}
330
4467
100
AcDbXrecord
280
     1
  1
ｄ
  1
ｄ*
  1
*
  1
*
 70
     0
  1
*
  1
*
  0
XRECORD
  5
4495
102
{ACAD_REACTORS
330
4467
102
}
330
4467
100
AcDbXrecord
280
     1
  1
D
  1
T_*$0$WALL*
  1
*
  1
*
 70
     0
  1
*
  1
*
  0
XRECORD
  5
4496
102
{ACAD_REACTORS
330
4467
102
}
330
4467
100
AcDbXrecord
280
     1
  1
dim尺寸
  1
dim*
  1
*
  1
*
 70
     0
  1
*
  1
*
  0
XRECORD
  5
4497
102
{ACAD_REACTORS
330
4467
102
}
330
4467
100
AcDbXrecord
280
     1
  1
dnf
  1
dnf*
  1
*
  1
*
 70
     0
  1
*
  1
*
  0
XRECORD
  5
4498
102
{ACAD_REACTORS
330
4467
102
}
330
4467
100
AcDbXrecord
280
     1
  1
drain
  1
ar-dr*
  1
*
  1
*
 70
     0
  1
*
  1
*
  0
XRECORD
  5
4499
102
{ACAD_REACTORS
330
4467
102
}
330
4467
100
AcDbXrecord
280
     1
  1
DT
  1
*DOOR*,*TEXT*
  1
*
  1
*
 70
     0
  1
*
  1
*
  0
XRECORD
  5
449A
102
{ACAD_REACTORS
330
4467
102
}
330
4467
100
AcDbXrecord
280
     1
  1
DW-GRID
  1
*DW-GRID
  1
*
  1
*
 70
     0
  1
*
  1
*
  0
XRECORD
  5
449B
102
{ACAD_REACTORS
330
4467
102
}
330
4467
100
AcDbXrecord
280
     1
  1
electrical
  1
elec*
  1
*
  1
*
 70
     0
  1
*
  1
*
  0
XRECORD
  5
449C
102
{ACAD_REACTORS
330
4467
102
}
330
4467
100
AcDbXrecord
280
     1
  1
ELEV
  1
EL_*
  1
*
  1
*
 70
    61
  1
*
  1
*
  0
XRECORD
  5
449D
102
{ACAD_REACTORS
330
4467
102
}
330
4467
100
AcDbXrecord
280
     1
  1
es立剖面
  1
es*
  1
*
  1
*
 70
     0
  1
*
  1
*
  0
XRECORD
  5
449E
102
{ACAD_REACTORS
330
4467
102
}
330
4467
100
AcDbXrecord
280
     1
  1
extg
  1
*extg*
  1
*
  1
*
 70
     0
  1
*
  1
*
  0
XRECORD
  5
449F
102
{ACAD_REACTORS
330
4467
102
}
330
4467
100
AcDbXrecord
280
     1
  1
EXTG-~
  1
*
  1
*
  1
*
 70
   256
  1
*
  1
*
  0
XRECORD
  5
44A0
102
{ACAD_REACTORS
330
4467
102
}
330
4467
100
AcDbXrecord
280
     1
  1
F.S.
  1
3-*
  1
*
  1
*
 70
     0
  1
*
  1
*
  0
XRECORD
  5
44A1
102
{ACAD_REACTORS
330
4467
102
}
330
4467
100
AcDbXrecord
280
     1
  1
fire
  1
*fire*
  1
*
  1
*
 70
     0
  1
*
  1
*
  0
XRECORD
  5
44A2
102
{ACAD_REACTORS
330
4467
102
}
330
4467
100
AcDbXrecord
280
     1
  1
fireline
  1
fire*
  1
*
  1
*
 70
     0
  1
*
  1
*
  0
XRECORD
  5
44A3
102
{ACAD_REACTORS
330
4467
102
}
330
4467
100
AcDbXrecord
280
     1
  1
floor layout
  1
*
  1
*
  1
*
 70
     0
  1
*
  1
*
  0
XRECORD
  5
44A4
102
{ACAD_REACTORS
330
4467
102
}
330
4467
100
AcDbXrecord
280
     1
  1
Freeze
  1
*
  1
*
  1
*
 70
     4
  1
*
  1
*
  0
XRECORD
  5
44A5
102
{ACAD_REACTORS
330
4467
102
}
330
4467
100
AcDbXrecord
280
     1
  1
Frez
  1
*Frez
  1
*
  1
*
 70
     0
  1
*
  1
*
  0
XRECORD
  5
44A6
102
{ACAD_REACTORS
330
4467
102
}
330
4467
100
AcDbXrecord
280
     1
  1
FROOZEN
  1
*
  1
*
  1
*
 70
     4
  1
*
  1
*
  0
XRECORD
  5
44A7
102
{ACAD_REACTORS
330
4467
102
}
330
4467
100
AcDbXrecord
280
     1
  1
FROZEN
  1
*
  1
*
  1
*
 70
     4
  1
*
  1
*
  0
XRECORD
  5
44A8
102
{ACAD_REACTORS
330
4467
102
}
330
4467
100
AcDbXrecord
280
     1
  1
FS
  1
3-*
  1
*
  1
*
 70
     0
  1
*
  1
*
  0
XRECORD
  5
44A9
102
{ACAD_REACTORS
330
4467
102
}
330
4467
100
AcDbXrecord
280
     1
  1
FUR
  1
*FUR*
  1
*
  1
*
 70
     0
  1
*
  1
*
  0
XRECORD
  5
44AA
102
{ACAD_REACTORS
330
4467
102
}
330
4467
100
AcDbXrecord
280
     1
  1
furn\U+50A2\U+4FF1
  1
furn*
  1
*
  1
*
 70
     0
  1
*
  1
*
  0
XRECORD
  5
44AB
102
{ACAD_REACTORS
330
4467
102
}
330
4467
100
AcDbXrecord
280
     1
  1
furniture
  1
fur*
  1
*
  1
*
 70
     0
  1
*
  1
*
  0
XRECORD
  5
44AC
102
{ACAD_REACTORS
330
4467
102
}
330
4467
100
AcDbXrecord
280
     1
  1
GREEN
  1
*
  1
GREEN
  1
*
 70
     0
  1
*
  1
*
  0
XRECORD
  5
44AD
102
{ACAD_REACTORS
330
4467
102
}
330
4467
100
AcDbXrecord
280
     1
  1
Grid
  1
Grid*
  1
*
  1
*
 70
     0
  1
*
  1
*
  0
XRECORD
  5
44AE
102
{ACAD_REACTORS
330
4467
102
}
330
4467
100
AcDbXrecord
280
     1
  1
Grid and Fireline
  1
grid*
  1
*
  1
*
 70
     0
  1
*
  1
*
  0
XRECORD
  5
44AF
102
{ACAD_REACTORS
330
4467
102
}
330
4467
100
AcDbXrecord
280
     1
  1
hatches
  1
*h*
  1
*
  1
*
 70
     0
  1
*
  1
*
  0
XRECORD
  5
44B0
102
{ACAD_REACTORS
330
4467
102
}
330
4467
100
AcDbXrecord
280
     1
  1
hat鋪面質感
  1
hat*
  1
*
  1
*
 70
     0
  1
*
  1
*
  0
XRECORD
  5
44B1
102
{ACAD_REACTORS
330
4467
102
}
330
4467
100
AcDbXrecord
280
     1
  1
hd
  1
hd*
  1
*
  1
*
 70
     0
  1
*
  1
*
  0
XRECORD
  5
44B2
102
{ACAD_REACTORS
330
4467
102
}
330
4467
100
AcDbXrecord
280
     1
  1
ian1
  1
*door
  1
*
  1
*
 70
     0
  1
*
  1
*
  0
XRECORD
  5
44B3
102
{ACAD_REACTORS
330
4467
102
}
330
4467
100
AcDbXrecord
280
     1
  1
ian2
  1
*w*d*
  1
*
  1
*
 70
     0
  1
*
  1
*
  0
XRECORD
  5
44B4
102
{ACAD_REACTORS
330
4467
102
}
330
4467
100
AcDbXrecord
280
     1
  1
ian3
  1
*wall*
  1
*
  1
*
 70
     0
  1
*
  1
*
  0
XRECORD
  5
44B5
102
{ACAD_REACTORS
330
4467
102
}
330
4467
100
AcDbXrecord
280
     1
  1
idx索引圖
  1
idx*
  1
*
  1
*
 70
     0
  1
*
  1
*
  0
XRECORD
  5
44B6
102
{ACAD_REACTORS
330
4467
102
}
330
4467
100
AcDbXrecord
280
     1
  1
ims
  1
ims*
  1
*
  1
*
 70
     0
  1
*
  1
*
  0
XRECORD
  5
44B7
102
{ACAD_REACTORS
330
4467
102
}
330
4467
100
AcDbXrecord
280
     1
  1
Karsten
  1
k-*
  1
*
  1
*
 70
     0
  1
*
  1
*
  0
XRECORD
  5
44B8
102
{ACAD_REACTORS
330
4467
102
}
330
4467
100
AcDbXrecord
280
     1
  1
L-TEMP
  1
*L-TEMP
  1
*
  1
*
 70
     0
  1
*
  1
*
  0
XRECORD
  5
44B9
102
{ACAD_REACTORS
330
4467
102
}
330
4467
100
AcDbXrecord
280
     1
  1
LANDSCAP
  1
L-*
  1
*
  1
*
 70
     0
  1
*
  1
*
  0
XRECORD
  5
44BA
102
{ACAD_REACTORS
330
4467
102
}
330
4467
100
AcDbXrecord
280
     1
  1
LANDSCAPE
  1
L-*
  1
*
  1
*
 70
     0
  1
*
  1
*
  0
XRECORD
  5
44BB
102
{ACAD_REACTORS
330
4467
102
}
330
4467
100
AcDbXrecord
280
     1
  1
law法規檢討
  1
law*
  1
*
  1
*
 70
     0
  1
*
  1
*
  0
XRECORD
  5
44BC
102
{ACAD_REACTORS
330
4467
102
}
330
4467
100
AcDbXrecord
280
     1
  1
lea
  1
*lea*
  1
*
  1
*
 70
     0
  1
*
  1
*
  0
XRECORD
  5
44BD
102
{ACAD_REACTORS
330
4467
102
}
330
4467
100
AcDbXrecord
280
     1
  1
list表格
  1
list*
  1
*
  1
*
 70
     0
  1
*
  1
*
  0
XRECORD
  5
44BE
102
{ACAD_REACTORS
330
4467
102
}
330
4467
100
AcDbXrecord
280
     1
  1
MAGENTA
  1
*
  1
MAGENTA
  1
*
 70
     0
  1
*
  1
*
  0
XRECORD
  5
44BF
102
{ACAD_REACTORS
330
4467
102
}
330
4467
100
AcDbXrecord
280
     1
  1
move
  1
*
  1
*
  1
*
 70
     0
  1
*
  1
*
  0
XRECORD
  5
44C0
102
{ACAD_REACTORS
330
4467
102
}
330
4467
100
AcDbXrecord
280
     1
  1
N
  1
*NON-*
  1
*
  1
*
 70
     0
  1
*
  1
*
  0
XRECORD
  5
44C1
102
{ACAD_REACTORS
330
4467
102
}
330
4467
100
AcDbXrecord
280
     1
  1
Off
  1
*
  1
*
  1
*
 70
     3
  1
*
  1
*
  0
XRECORD
  5
44C2
102
{ACAD_REACTORS
330
4467
102
}
330
4467
100
AcDbXrecord
280
     1
  1
P
  1
*PAR*,*WIN*,*CURB*
  1
*
  1
*
 70
     0
  1
*
  1
*
  0
XRECORD
  5
44C3
102
{ACAD_REACTORS
330
4467
102
}
330
4467
100
AcDbXrecord
280
     1
  1
Pen weight
  1
*
  1
*
  1
*
 70
     0
  1
*
  1
*
  0
XRECORD
  5
44C4
102
{ACAD_REACTORS
330
4467
102
}
330
4467
100
AcDbXrecord
280
     1
  1
PHA
  1
*PHA*
  1
*
  1
*
 70
     0
  1
*
  1
*
  0
XRECORD
  5
44C5
102
{ACAD_REACTORS
330
4467
102
}
330
4467
100
AcDbXrecord
280
     1
  1
poche
  1
*poch*
  1
*
  1
*
 70
     0
  1
*
  1
*
  0
XRECORD
  5
44C6
102
{ACAD_REACTORS
330
4467
102
}
330
4467
100
AcDbXrecord
280
     1
  1
PORT
  1
*PORT
  1
*
  1
*
 70
     0
  1
*
  1
*
  0
XRECORD
  5
44C7
102
{ACAD_REACTORS
330
4467
102
}
330
4467
100
AcDbXrecord
280
     1
  1
R
  1
*RAIL*,*VOID*
  1
*
  1
*
 70
     0
  1
*
  1
*
  0
XRECORD
  5
44C8
102
{ACAD_REACTORS
330
4467
102
}
330
4467
100
AcDbXrecord
280
     1
  1
RAIL
  1
*RAIL
  1
*
  1
*
 70
     0
  1
*
  1
*
  0
XRECORD
  5
44C9
102
{ACAD_REACTORS
330
4467
102
}
330
4467
100
AcDbXrecord
280
     1
  1
RED
  1
*
  1
RED
  1
*
 70
     0
  1
*
  1
*
  0
XRECORD
  5
44CA
102
{ACAD_REACTORS
330
4467
102
}
330
4467
100
AcDbXrecord
280
     1
  1
S
  1
*SOLID*
  1
*
  1
*
 70
     0
  1
*
  1
*
  0
XRECORD
  5
44CB
102
{ACAD_REACTORS
330
4467
102
}
330
4467
100
AcDbXrecord
280
     1
  1
search
  1
*comments*
  1
red
  1
*
 70
     0
  1
*
  1
*
  0
XRECORD
  5
44CC
102
{ACAD_REACTORS
330
4467
102
}
330
4467
100
AcDbXrecord
280
     1
  1
sec
  1
*sec*
  1
*
  1
*
 70
     0
  1
*
  1
*
  0
XRECORD
  5
44CD
102
{ACAD_REACTORS
330
4467
102
}
330
4467
100
AcDbXrecord
280
     1
  1
section
  1
*
  1
*
  1
*
 70
     0
  1
*
  1
*
  0
XRECORD
  5
44CE
102
{ACAD_REACTORS
330
4467
102
}
330
4467
100
AcDbXrecord
280
     1
  1
Show all thawed Layers
  1
*
  1
*
  1
*
 70
    12
  1
*
  1
*
  0
XRECORD
  5
44CF
102
{ACAD_REACTORS
330
4467
102
}
330
4467
100
AcDbXrecord
280
     1
  1
show all thawed no xref
  1
~###*
  1
*
  1
*
 70
    12
  1
*
  1
*
  0
XRECORD
  5
44D0
102
{ACAD_REACTORS
330
4467
102
}
330
4467
100
AcDbXrecord
280
     1
  1
Show No xref layers
  1
~####*
  1
*
  1
*
 70
     0
  1
*
  1
*
  0
XRECORD
  5
44D1
102
{ACAD_REACTORS
330
4467
102
}
330
4467
100
AcDbXrecord
280
     1
  1
ｓｉｔｅ
  1
*
  1
*
  1
*
 70
     0
  1
*
  1
*
  0
XRECORD
  5
4792
102
{ACAD_REACTORS
330
4467
102
}
330
4467
100
AcDbXrecord
280
     1
  1
Site
  1
*S-*
  1
*
  1
*
 70
     0
  1
*
  1
*
  0
XRECORD
  5
44D3
102
{ACAD_REACTORS
330
4467
102
}
330
4467
100
AcDbXrecord
280
     1
  1
ST-UG-OL
  1
*ST-UG-OL
  1
*
  1
*
 70
     0
  1
*
  1
*
  0
XRECORD
  5
44D4
102
{ACAD_REACTORS
330
4467
102
}
330
4467
100
AcDbXrecord
280
     1
  1
stair
  1
*stair*
  1
*
  1
*
 70
     0
  1
*
  1
*
  0
XRECORD
  5
44D5
102
{ACAD_REACTORS
330
4467
102
}
330
4467
100
AcDbXrecord
280
     1
  1
sta樓梯
  1
sta*
  1
*
  1
*
 70
     0
  1
*
  1
*
  0
XRECORD
  5
44D6
102
{ACAD_REACTORS
330
4467
102
}
330
4467
100
AcDbXrecord
280
     1
  1
sym符號
  1
sym*
  1
*
  1
*
 70
     0
  1
*
  1
*
  0
XRECORD
  5
44D7
102
{ACAD_REACTORS
330
4467
102
}
330
4467
100
AcDbXrecord
280
     1
  1
t
  1
*
  1
*
  1
*
 70
     4
  1
*
  1
*
  0
XRECORD
  5
44D8
102
{ACAD_REACTORS
330
4467
102
}
330
4467
100
AcDbXrecord
280
     1
  1
test
  1
*
  1
*
  1
*
 70
     4
  1
*
  1
*
  0
XRECORD
  5
44D9
102
{ACAD_REACTORS
330
4467
102
}
330
4467
100
AcDbXrecord
280
     1
  1
TEXT
  1
*text*
  1
*
  1
*
 70
     0
  1
*
  1
*
  0
XRECORD
  5
44DA
102
{ACAD_REACTORS
330
4467
102
}
330
4467
100
AcDbXrecord
280
     1
  1
TEXT-0NLY
  1
*TXT*
  1
*
  1
*
 70
     0
  1
*
  1
*
  0
XRECORD
  5
44DB
102
{ACAD_REACTORS
330
4467
102
}
330
4467
100
AcDbXrecord
280
     1
  1
TEXT-ONLY
  1
*TXT*
  1
*
  1
*
 70
     0
  1
*
  1
*
  0
XRECORD
  5
44DC
102
{ACAD_REACTORS
330
4467
102
}
330
4467
100
AcDbXrecord
280
     1
  1
text文字
  1
text*
  1
*
  1
*
 70
     0
  1
*
  1
*
  0
XRECORD
  5
44DD
102
{ACAD_REACTORS
330
4467
102
}
330
4467
100
AcDbXrecord
280
     1
  1
TL
  1
*tl*
  1
*
  1
*
 70
     0
  1
*
  1
*
  0
XRECORD
  5
44DE
102
{ACAD_REACTORS
330
4467
102
}
330
4467
100
AcDbXrecord
280
     1
  1
toil衛浴
  1
toil*
  1
*
  1
*
 70
     0
  1
*
  1
*
  0
XRECORD
  5
44DF
102
{ACAD_REACTORS
330
4467
102
}
330
4467
100
AcDbXrecord
280
     1
  1
txt
  1
*txt*
  1
*
  1
*
 70
     0
  1
*
  1
*
  0
XRECORD
  5
44E0
102
{ACAD_REACTORS
330
4467
102
}
330
4467
100
AcDbXrecord
280
     1
  1
TXT-BW
  1
*-TXT-BW
  1
*
  1
*
 70
     0
  1
*
  1
*
  0
XRECORD
  5
44E1
102
{ACAD_REACTORS
330
4467
102
}
330
4467
100
AcDbXrecord
280
     1
  1
unlock all layers
  1
*
  1
*
  1
*
 70
     0
  1
*
  1
*
  0
XRECORD
  5
44E2
102
{ACAD_REACTORS
330
4467
102
}
330
4467
100
AcDbXrecord
280
     1
  1
VP THAW
  1
*
  1
*
  1
*
 70
    61
  1
*
  1
*
  0
XRECORD
  5
44E3
102
{ACAD_REACTORS
330
4467
102
}
330
4467
100
AcDbXrecord
280
     1
  1
vsit景觀環境
  1
vsit*
  1
*
  1
*
 70
     0
  1
*
  1
*
  0
XRECORD
  5
44E4
102
{ACAD_REACTORS
330
4467
102
}
330
4467
100
AcDbXrecord
280
     1
  1
W
  1
*WALL*
  1
*
  1
*
 70
     0
  1
*
  1
*
  0
XRECORD
  5
44E5
102
{ACAD_REACTORS
330
4467
102
}
330
4467
100
AcDbXrecord
280
     1
  1
WA
  1
*
  1
*
  1
*
 70
     0
  1
*
  1
*
  0
XRECORD
  5
44E6
102
{ACAD_REACTORS
330
4467
102
}
330
4467
100
AcDbXrecord
280
     1
  1
walk-distance
  1
*walk-distance*
  1
*
  1
*
 70
     0
  1
*
  1
*
  0
XRECORD
  5
44E7
102
{ACAD_REACTORS
330
4467
102
}
330
4467
100
AcDbXrecord
280
     1
  1
WALL
  1
*WALL
  1
*
  1
*
 70
     0
  1
*
  1
*
  0
XRECORD
  5
44E8
102
{ACAD_REACTORS
330
4467
102
}
330
4467
100
AcDbXrecord
280
     1
  1
WALL-90
  1
*WALL*
  1
*
  1
*
 70
     0
  1
*
  1
*
  0
XRECORD
  5
44E9
102
{ACAD_REACTORS
330
4467
102
}
330
4467
100
AcDbXrecord
280
     1
  1
wd門窗
  1
wd*
  1
*
  1
*
 70
     0
  1
*
  1
*
  0
XRECORD
  5
44EA
102
{ACAD_REACTORS
330
4467
102
}
330
4467
100
AcDbXrecord
280
     1
  1
WHITE
  1
*
  1
WHITE
  1
*
 70
     0
  1
*
  1
*
  0
XRECORD
  5
44EB
102
{ACAD_REACTORS
330
4467
102
}
330
4467
100
AcDbXrecord
280
     1
  1
WIN
  1
*WIN*
  1
*
  1
*
 70
     0
  1
*
  1
*
  0
XRECORD
  5
44EC
102
{ACAD_REACTORS
330
4467
102
}
330
4467
100
AcDbXrecord
280
     1
  1
YELLOW
  1
*
  1
YELLOW
  1
*
 70
     0
  1
*
  1
*
  0
XRECORD
  5
44ED
102
{ACAD_REACTORS
330
4467
102
}
330
4467
100
AcDbXrecord
280
     1
  1
ｚｚｚ
  1
*
  1
*
  1
*
 70
     1
  1
*
  1
*
  0
XRECORD
  5
4793
102
{ACAD_REACTORS
330
4467
102
}
330
4467
100
AcDbXrecord
280
     1
  1
ZZZ
  1
*
  1
254
  1
*
 70
     0
  1
*
  1
*
  0
XRECORD
  5
44EF
102
{ACAD_REACTORS
330
4467
102
}
330
4467
100
AcDbXrecord
280
     1
  1
紅色
  1
*
  1
red*
  1
*
 70
     0
  1
*
  1
*
  0
XRECORD
  5
44F0
102
{ACAD_REACTORS
330
4467
102
}
330
4467
100
AcDbXrecord
280
     1
  1
青色
  1
*
  1
cyan*
  1
*
 70
     0
  1
*
  1
*
  0
XRECORD
  5
44F1
102
{ACAD_REACTORS
330
4467
102
}
330
4467
100
AcDbXrecord
280
     1
  1
白色
  1
*
  1
white*
  1
*
 70
     0
  1
*
  1
*
  0
ENDSEC
  0
EOF
