  0
SECTION
  2
HEADER
  9
$ACADVER
  1
AC1015
  9
$ACADMAINTVER
 70
     6
  9
$DWGCODEPAGE
  3
ANSI_932
  9
$INSBASE
 10
0.0
 20
0.0
 30
0.0
  9
$EXTMIN
 10
1081.456208276484
 20
888.3756462350318
 30
0.0
  9
$EXTMAX
 10
4263.089371271756
 20
2385.452306481664
 30
0.0
  9
$LIMMIN
 10
0.0
 20
0.0
  9
$LIMMAX
 10
4200.0
 20
2970.0
  9
$ORTHOMODE
 70
     1
  9
$REGENMODE
 70
     1
  9
$FILLMODE
 70
     1
  9
$QTEXTMODE
 70
     0
  9
$MIRRTEXT
 70
     1
  9
$LTSCALE
 40
0.5
  9
$ATTMODE
 70
     2
  9
$TEXTSIZE
 40
5.0
  9
$TRACEWID
 40
1.0
  9
$TEXTSTYLE
  7
MSP明朝1
  9
$CLAYER
  8
0
  9
$CELTYPE
  6
BYLAYER
  9
$CECOLOR
 62
   256
  9
$CELTSCALE
 40
1.0
  9
$DISPSILH
 70
     0
  9
$DIMSCALE
 40
1.0
  9
$DIMASZ
 40
2.0
  9
$DIMEXO
 40
1.0
  9
$DIMDLI
 40
3.0
  9
$DIMRND
 40
0.0
  9
$DIMDLE
 40
0.0
  9
$DIMEXE
 40
0.7
  9
$DIMTP
 40
0.0
  9
$DIMTM
 40
0.0
  9
$DIMTXT
 40
2.5
  9
$DIMCEN
 40
0.001
  9
$DIMTSZ
 40
0.0
  9
$DIMTOL
 70
     0
  9
$DIMLIM
 70
     0
  9
$DIMTIH
 70
     0
  9
$DIMTOH
 70
     0
  9
$DIMSE1
 70
     0
  9
$DIMSE2
 70
     0
  9
$DIMTAD
 70
     1
  9
$DIMZIN
 70
     8
  9
$DIMBLK
  1

  9
$DIMASO
 70
     1
  9
$DIMSHO
 70
     1
  9
$DIMPOST
  1

  9
$DIMAPOST
  1

  9
$DIMALT
 70
     0
  9
$DIMALTD
 70
     4
  9
$DIMALTF
 40
0.0394
  9
$DIMLFAC
 40
1.0
  9
$DIMTOFL
 70
     1
  9
$DIMTVP
 40
0.0
  9
$DIMTIX
 70
     0
  9
$DIMSOXD
 70
     0
  9
$DIMSAH
 70
     1
  9
$DIMBLK1
  1
OPEN30
  9
$DIMBLK2
  1
OPEN30
  9
$DIMSTYLE
  2
MSP明朝寸法1
  9
$DIMCLRD
 70
     3
  9
$DIMCLRE
 70
     3
  9
$DIMCLRT
 70
     3
  9
$DIMTFAC
 40
1.0
  9
$DIMGAP
 40
1.0
  9
$DIMJUST
 70
     0
  9
$DIMSD1
 70
     0
  9
$DIMSD2
 70
     0
  9
$DIMTOLJ
 70
     1
  9
$DIMTZIN
 70
     0
  9
$DIMALTZ
 70
     0
  9
$DIMALTTZ
 70
     0
  9
$DIMUPT
 70
     0
  9
$DIMDEC
 70
     2
  9
$DIMTDEC
 70
     2
  9
$DIMALTU
 70
     8
  9
$DIMALTTD
 70
     4
  9
$DIMTXSTY
  7
MSP明朝W1
  9
$DIMAUNIT
 70
     0
  9
$DIMADEC
 70
     0
  9
$DIMALTRND
 40
0.0
  9
$DIMAZIN
 70
     0
  9
$DIMDSEP
 70
    46
  9
$DIMATFIT
 70
     3
  9
$DIMFRAC
 70
     0
  9
$DIMLDRBLK
  1
OPEN30
  9
$DIMLUNIT
 70
     2
  9
$DIMLWD
 70
    -2
  9
$DIMLWE
 70
    -2
  9
$DIMTMOVE
 70
     0
  9
$LUNITS
 70
     2
  9
$LUPREC
 70
     3
  9
$SKETCHINC
 40
1.0
  9
$FILLETRAD
 40
9.0
  9
$AUNITS
 70
     0
  9
$AUPREC
 70
     3
  9
$MENU
  1
acad
  9
$ELEVATION
 40
0.0
  9
$PELEVATION
 40
0.0
  9
$THICKNESS
 40
0.0
  9
$LIMCHECK
 70
     0
  9
$CHAMFERA
 40
100.0
  9
$CHAMFERB
 40
100.0
  9
$CHAMFERC
 40
200.0
  9
$CHAMFERD
 40
0.0
  9
$SKPOLY
 70
     0
  9
$TDCREATE
 40
2451337.667237268
  9
$TDUCREATE
 40
2451337.292237268
  9
$TDUPDATE
 40
2456127.689596354
  9
$TDUUPDATE
 40
2456127.314596354
  9
$TDINDWG
 40
0.8082912153
  9
$TDUSRTIMER
 40
0.8082912153
  9
$USRTIMER
 70
     1
  9
$ANGBASE
 50
0.0
  9
$ANGDIR
 70
     0
  9
$PDMODE
 70
     0
  9
$PDSIZE
 40
0.0
  9
$PLINEWID
 40
0.0
  9
$SPLFRAME
 70
     0
  9
$SPLINETYPE
 70
     6
  9
$SPLINESEGS
 70
     8
  9
$HANDSEED
  5
5D20
  9
$SURFTAB1
 70
     6
  9
$SURFTAB2
 70
     6
  9
$SURFTYPE
 70
     6
  9
$SURFU
 70
     6
  9
$SURFV
 70
     6
  9
$UCSBASE
  2

  9
$UCSNAME
  2

  9
$UCSORG
 10
1000.0
 20
1000.0
 30
0.0
  9
$UCSXDIR
 10
1.0
 20
0.0
 30
0.0
  9
$UCSYDIR
 10
0.0
 20
1.0
 30
0.0
  9
$UCSORTHOREF
  2

  9
$UCSORTHOVIEW
 70
     0
  9
$UCSORGTOP
 10
0.0
 20
0.0
 30
0.0
  9
$UCSORGBOTTOM
 10
0.0
 20
0.0
 30
0.0
  9
$UCSORGLEFT
 10
0.0
 20
0.0
 30
0.0
  9
$UCSORGRIGHT
 10
0.0
 20
0.0
 30
0.0
  9
$UCSORGFRONT
 10
0.0
 20
0.0
 30
0.0
  9
$UCSORGBACK
 10
0.0
 20
0.0
 30
0.0
  9
$PUCSBASE
  2

  9
$PUCSNAME
  2

  9
$PUCSORG
 10
0.0
 20
0.0
 30
0.0
  9
$PUCSXDIR
 10
1.0
 20
0.0
 30
0.0
  9
$PUCSYDIR
 10
0.0
 20
1.0
 30
0.0
  9
$PUCSORTHOREF
  2

  9
$PUCSORTHOVIEW
 70
     0
  9
$PUCSORGTOP
 10
0.0
 20
0.0
 30
0.0
  9
$PUCSORGBOTTOM
 10
0.0
 20
0.0
 30
0.0
  9
$PUCSORGLEFT
 10
0.0
 20
0.0
 30
0.0
  9
$PUCSORGRIGHT
 10
0.0
 20
0.0
 30
0.0
  9
$PUCSORGFRONT
 10
0.0
 20
0.0
 30
0.0
  9
$PUCSORGBACK
 10
0.0
 20
0.0
 30
0.0
  9
$USERI1
 70
     0
  9
$USERI2
 70
     0
  9
$USERI3
 70
     0
  9
$USERI4
 70
     0
  9
$USERI5
 70
     0
  9
$USERR1
 40
0.0
  9
$USERR2
 40
0.0
  9
$USERR3
 40
0.0
  9
$USERR4
 40
0.0
  9
$USERR5
 40
0.0
  9
$WORLDVIEW
 70
     1
  9
$SHADEDGE
 70
     3
  9
$SHADEDIF
 70
    70
  9
$TILEMODE
 70
     0
  9
$MAXACTVP
 70
    48
  9
$PINSBASE
 10
0.0
 20
0.0
 30
0.0
  9
$PLIMCHECK
 70
     0
  9
$PEXTMIN
 10
21.8287006091889
 20
5.222733852692044
 30
0.0
  9
$PEXTMAX
 10
407.8287006091889
 20
285.222733852692
 30
0.0
  9
$PLIMMIN
 10
-3.17498779296875
 20
-3.174999952316284
  9
$PLIMMAX
 10
416.9833374023437
 20
293.856829881668
  9
$UNITMODE
 70
     0
  9
$VISRETAIN
 70
     1
  9
$PLINEGEN
 70
     0
  9
$PSLTSCALE
 70
     1
  9
$TREEDEPTH
 70
  3020
  9
$CMLSTYLE
  2
STANDARD
  9
$CMLJUST
 70
     0
  9
$CMLSCALE
 40
20.0
  9
$PROXYGRAPHICS
 70
     1
  9
$MEASUREMENT
 70
     1
  9
$CELWEIGHT
370
    -1
  9
$ENDCAPS
280
     0
  9
$JOINSTYLE
280
     0
  9
$LWDISPLAY
290
     0
  9
$INSUNITS
 70
     0
  9
$HYPERLINKBASE
  1

  9
$STYLESHEET
  1

  9
$XEDIT
290
     1
  9
$CEPSNTYPE
380
     0
  9
$PSTYLEMODE
290
     1
  9
$FINGERPRINTGUID
  2
{DA56F698-4D96-44D3-BB4C-31B7C08E0CFA}
  9
$VERSIONGUID
  2
{98ACC81F-B67E-46A1-AB4E-4934DF29371C}
  9
$EXTNAMES
290
     1
  9
$PSVPSCALE
 40
0.0
  9
$OLESTARTUP
290
     0
  0
ENDSEC
  0
SECTION
  2
CLASSES
  0
CLASS
  1
DICTIONARYVAR
  2
AcDbDictionaryVar
  3
AutoCAD 2000
 90
        0
280
     0
281
     0
  0
CLASS
  1
HATCH
  2
AcDbHatch
  3
AutoCAD 2000
 90
    32768
280
     0
281
     1
  0
CLASS
  1
ACDBDICTIONARYWDFLT
  2
AcDbDictionaryWithDefault
  3
AutoCAD 2000
 90
        0
280
     0
281
     0
  0
CLASS
  1
ACDBPLACEHOLDER
  2
AcDbPlaceHolder
  3
AutoCAD 2000
 90
        0
280
     0
281
     0
  0
CLASS
  1
LAYOUT
  2
AcDbLayout
  3
AutoCAD 2000
 90
        0
280
     0
281
     0
  0
CLASS
  1
LONG_TRANSACTION
  2
AcDbLongTransaction
  3
AutoCAD 2000
 90
    32768
280
     0
281
     0
  0
CLASS
  1
LWPOLYLINE
  2
AcDbPolyline
  3
AutoCAD 2000
 90
    32768
280
     0
281
     1
  0
CLASS
  1
HATCH
  2
AcDbHatch
  3
AutoCAD 2000
 90
    32768
280
     0
281
     1
  0
CLASS
  1
XRECORD
  2
AcDbXrecord
  3
AutoCAD 2000
 90
    32768
280
     0
281
     0
  0
CLASS
  1
LONG_TRANSACTION
  2
AcDbLongTransaction
  3
AutoCAD 2000
 90
    32768
280
     0
281
     0
  0
CLASS
  1
LWPOLYLINE
  2
AcDbPolyline
  3
AutoCAD 2000
 90
    32768
280
     0
281
     1
  0
CLASS
  1
HATCH
  2
AcDbHatch
  3
AutoCAD 2000
 90
    32768
280
     0
281
     1
  0
CLASS
  1
XRECORD
  2
AcDbXrecord
  3
AutoCAD 2000
 90
    32768
280
     0
281
     0
  0
ENDSEC
  0
SECTION
  2
TABLES
  0
TABLE
  2
VPORT
  5
8
330
0
100
AcDbSymbolTable
 70
     1
  0
VPORT
  5
5D19
330
8
100
AcDbSymbolTableRecord
100
AcDbViewportTableRecord
  2
*Active
 70
     0
 10
0.0
 20
0.0
 11
1.0
 21
1.0
 12
2576.999569353846
 22
1407.772400152469
 13
0.0
 23
0.0
 14
10.0
 24
10.0
 15
10.0
 25
10.0
 16
0.0
 26
0.0
 36
1.0
 17
0.0
 27
0.0
 37
0.0
 40
2521.756920865581
 41
2.024813895781637
 42
50.0
 43
0.0
 44
0.0
 50
0.0
 51
0.0
 71
     0
 72
   100
 73
     1
 74
     1
 75
     0
 76
     0
 77
     0
 78
     0
281
     0
 65
     1
110
1000.0
120
1000.0
130
0.0
111
1.0
121
0.0
131
0.0
112
0.0
122
1.0
132
0.0
 79
     0
146
0.0
  0
ENDTAB
  0
TABLE
  2
LTYPE
  5
5
330
0
100
AcDbSymbolTable
 70
     3
  0
LTYPE
  5
12
330
5
100
AcDbSymbolTableRecord
100
AcDbLinetypeTableRecord
  2
BYBLOCK
 70
     0
  3

 72
    65
 73
     0
 40
0.0
  0
LTYPE
  5
13
330
5
100
AcDbSymbolTableRecord
100
AcDbLinetypeTableRecord
  2
BYLAYER
 70
     0
  3

 72
    65
 73
     0
 40
0.0
  0
LTYPE
  5
14
330
5
100
AcDbSymbolTableRecord
100
AcDbLinetypeTableRecord
  2
CONTINUOUS
 70
     0
  3
Solid line
 72
    65
 73
     0
 40
0.0
  0
LTYPE
  5
262E
330
5
100
AcDbSymbolTableRecord
100
AcDbLinetypeTableRecord
  2
HIDDEN2
 70
     0
  3
Hidden (.5x) _ _ _ _ _ _ _ _ _ _ _ _ _ _ _ _ _
 72
    65
 73
     2
 40
4.762499999999999
 49
3.174999999999999
 74
     0
 49
-1.587499999999999
 74
     0
  0
LTYPE
  5
5D10
330
5
100
AcDbSymbolTableRecord
100
AcDbLinetypeTableRecord
  2
HIDDEN
 70
     0
  3
Hidden __ __ __ __ __ __ __ __ __ __ __ __ __ _
 72
    65
 73
     2
 40
9.524999999999998
 49
6.349999999999999
 74
     0
 49
-3.174999999999999
 74
     0
  0
ENDTAB
  0
TABLE
  2
LAYER
  5
2
102
{ACAD_XDICTIONARY
360
4AD3
102
}
330
0
100
AcDbSymbolTable
 70
     8
  0
LAYER
  5
E
330
2
100
AcDbSymbolTableRecord
100
AcDbLayerTableRecord
  2
0
 70
     0
 62
     7
  6
CONTINUOUS
370
    -3
390
231F
  0
LAYER
  5
176
330
2
100
AcDbSymbolTableRecord
100
AcDbLayerTableRecord
  2
ﾃｷｽﾄ
 70
     0
 62
     3
  6
CONTINUOUS
370
    -3
390
231F
  0
LAYER
  5
177
330
2
100
AcDbSymbolTableRecord
100
AcDbLayerTableRecord
  2
ﾀｲﾄﾙ枠
 70
     0
 62
     5
  6
CONTINUOUS
370
    -3
390
231F
  0
LAYER
  5
7B2
330
2
100
AcDbSymbolTableRecord
100
AcDbLayerTableRecord
  2
DEFPOINTS
 70
     0
 62
     7
  6
CONTINUOUS
290
     0
370
    -3
390
231F
  0
LAYER
  5
136E
330
2
100
AcDbSymbolTableRecord
100
AcDbLayerTableRecord
  2
view1
 70
     0
 62
    -9
  6
CONTINUOUS
370
    -3
390
231F
  0
LAYER
  5
136F
330
2
100
AcDbSymbolTableRecord
100
AcDbLayerTableRecord
  2
view2
 70
     0
 62
    -9
  6
CONTINUOUS
370
    -3
390
231F
  0
LAYER
  5
263E
330
2
100
AcDbSymbolTableRecord
100
AcDbLayerTableRecord
  2
sunpo
 70
     0
 62
     3
  6
CONTINUOUS
370
     9
390
231F
  0
LAYER
  5
5D11
330
2
100
AcDbSymbolTableRecord
100
AcDbLayerTableRecord
  2
sen-h
 70
     0
 62
     6
  6
HIDDEN
370
    15
390
231F
  0
ENDTAB
  0
TABLE
  2
STYLE
  5
3
330
0
100
AcDbSymbolTable
 70
     6
  0
STYLE
  5
F
330
3
100
AcDbSymbolTableRecord
100
AcDbTextStyleTableRecord
  2
STANDARD
 70
     0
 40
0.0
 41
1.0
 50
0.0
 71
     0
 42
25.0
  3
txt
  4

  0
STYLE
  5
179
330
3
100
AcDbSymbolTableRecord
100
AcDbTextStyleTableRecord
  2
BIGFONT
 70
     0
 40
1.0
 41
1.0
 50
0.0
 71
     0
 42
1.0
  3
txt.shx
  4
bigfont
  0
STYLE
  5
84E
330
3
100
AcDbSymbolTableRecord
100
AcDbTextStyleTableRecord
  2
TYPE1
 70
     0
 40
0.0
 41
0.7
 50
0.0
 71
     0
 42
25.0
  3
txt.shx
  4

  0
STYLE
  5
105B
330
3
100
AcDbSymbolTableRecord
100
AcDbTextStyleTableRecord
  2
MSP明朝1
 70
     0
 40
0.0
 41
0.7
 50
0.0
 71
     0
 42
5.0
  3
MS PMincho.ttf
  4

1001
ACAD
1000
MS PMincho
1071
    32786
  0
STYLE
  5
105D
330
3
100
AcDbSymbolTableRecord
100
AcDbTextStyleTableRecord
  2
MSP明朝W1
 70
     0
 40
0.0
 41
1.0
 50
0.0
 71
     0
 42
25.0
  3
MS PMincho.ttf
  4

1001
ACAD
1000
MS PMincho
1071
    32786
  0
STYLE
  5
2328
330
3
100
AcDbSymbolTableRecord
100
AcDbTextStyleTableRecord
  2
明朝TATE
 70
     0
 40
0.0
 41
1.0
 50
0.0
 71
     0
 42
2.5
  3
@MS PMincho.ttf
  4

1001
ACAD
1000
@MS PMincho
1071
    32786
  0
ENDTAB
  0
TABLE
  2
VIEW
  5
6
330
0
100
AcDbSymbolTable
 70
     0
  0
ENDTAB
  0
TABLE
  2
UCS
  5
7
330
0
100
AcDbSymbolTable
 70
     0
  0
ENDTAB
  0
TABLE
  2
APPID
  5
9
330
0
100
AcDbSymbolTable
 70
     5
  0
APPID
  5
10
330
9
100
AcDbSymbolTableRecord
100
AcDbRegAppTableRecord
  2
ACAD
 70
     0
  0
APPID
  5
24
330
9
100
AcDbSymbolTableRecord
100
AcDbRegAppTableRecord
  2
CONTENTTABDATA
 70
     0
  0
APPID
  5
25
330
9
100
AcDbSymbolTableRecord
100
AcDbRegAppTableRecord
  2
CONTENTCURRENTTAB
 70
     0
  0
APPID
  5
17B
330
9
100
AcDbSymbolTableRecord
100
AcDbRegAppTableRecord
  2
CONTENTBLOCKDESCRIPTION
 70
     0
  0
APPID
  5
17C
330
9
100
AcDbSymbolTableRecord
100
AcDbRegAppTableRecord
  2
CONTENTBLOCKICON
 70
     0
  0
ENDTAB
  0
TABLE
  2
DIMSTYLE
  5
A
330
0
100
AcDbSymbolTable
 70
     5
100
AcDbDimStyleTable
 71
     1
340
10C0
  0
DIMSTYLE
105
1D
330
A
100
AcDbSymbolTableRecord
100
AcDbDimStyleTableRecord
  2
STANDARD
 70
     0
340
F
  0
DIMSTYLE
105
10C0
102
{ACAD_REACTORS
330
2723
330
275E
330
285F
330
28B2
330
28C8
330
2A1C
330
2A18
330
2A13
330
2D12
330
2D63
330
2D70
330
2D1F
330
2850
330
2A33
330
2840
330
2A34
102
}
330
A
100
AcDbSymbolTableRecord
100
AcDbDimStyleTableRecord
  2
MSP明朝寸法1
 70
     0
 41
2.0
 42
1.0
 43
3.0
 44
0.7
 73
     0
 74
     0
 77
     1
 78
     8
140
2.5
141
0.001
143
0.0394
147
1.0
171
     4
172
     1
173
     1
176
     3
177
     3
178
     3
271
     2
272
     2
273
     8
274
     4
340
105D
341
33A
343
33A
344
33A
  0
DIMSTYLE
105
2611
102
{ACAD_REACTORS
330
268A
330
2CC3
102
}
330
A
100
AcDbSymbolTableRecord
100
AcDbDimStyleTableRecord
  2
MSP明朝寸法10
 70
     0
 40
10.0
 41
2.0
 42
0.0
 43
3.0
 44
0.7
 73
     0
 74
     0
 77
     1
 78
     8
140
2.5
141
1.5
143
0.0394
147
1.0
171
     4
172
     1
173
     1
176
     3
177
     3
178
     3
271
     2
272
     2
273
     8
274
     4
340
105D
341
33A
343
33A
344
33A
  0
DIMSTYLE
105
5858
330
A
100
AcDbSymbolTableRecord
100
AcDbDimStyleTableRecord
  2
MSP明朝寸法2_1
 70
     0
 40
0.5
 41
2.0
 42
0.0
 43
3.0
 44
0.7
 73
     0
 74
     0
 77
     1
 78
     8
140
2.5
141
1.5
143
0.0394
147
1.0
171
     4
172
     1
173
     1
176
     3
177
     3
178
     3
271
     2
272
     2
273
     8
274
     4
340
105D
341
33A
343
33A
344
33A
  0
DIMSTYLE
105
5D12
330
A
100
AcDbSymbolTableRecord
100
AcDbDimStyleTableRecord
  2
MSP明朝寸法5
 70
     0
 40
5.0
 41
2.299999999999999
 42
0.625
 43
3.75
 44
0.625
 73
     0
 74
     0
 77
     1
 78
     8
140
2.299999999999999
141
0.0
143
0.03937007874016
147
0.625
171
     3
172
     1
176
   256
177
   256
178
   256
271
     2
272
     2
274
     3
283
     0
284
     8
340
105D
341
33A
342
33A
371
    -1
372
    -1
  0
ENDTAB
  0
TABLE
  2
BLOCK_RECORD
  5
1
330
0
100
AcDbSymbolTable
 70
    19
  0
BLOCK_RECORD
  5
18
102
{ACAD_XDICTIONARY
360
3B7F
102
}
330
1
100
AcDbSymbolTableRecord
100
AcDbBlockTableRecord
  2
*MODEL_SPACE
340
2322
  0
BLOCK_RECORD
  5
4DD6
102
{ACAD_XDICTIONARY
360
4F46
102
}
330
1
100
AcDbSymbolTableRecord
100
AcDbBlockTableRecord
  2
*PAPER_SPACE
340
4F4A
  0
BLOCK_RECORD
  5
33A
330
1
100
AcDbSymbolTableRecord
100
AcDbBlockTableRecord
  2
_OPEN30
340
0
102
{BLKREFS
331
2D58
331
2DB1
331
2DB2
331
2DB8
331
2DB9
331
2F33
331
2F34
331
4081
331
4082
331
40A0
331
40A1
331
40C4
331
40C5
331
40DE
331
40DF
331
40E6
331
40E7
331
40F2
331
40F3
331
40FA
331
40FB
331
4105
331
4106
331
4237
331
4238
331
476F
331
4770
331
4778
331
4779
331
4782
331
4783
331
47C3
331
47C4
331
47CD
331
47CE
331
47D5
331
47D6
331
5CD0
331
5CD1
331
5CE2
331
5CE3
102
}
  0
BLOCK_RECORD
  5
268B
330
1
100
AcDbSymbolTableRecord
100
AcDbBlockTableRecord
  2
*D1
340
0
  0
BLOCK_RECORD
  5
2724
330
1
100
AcDbSymbolTableRecord
100
AcDbBlockTableRecord
  2
*D2
340
0
  0
BLOCK_RECORD
  5
275F
330
1
100
AcDbSymbolTableRecord
100
AcDbBlockTableRecord
  2
*D3
340
0
  0
BLOCK_RECORD
  5
2841
330
1
100
AcDbSymbolTableRecord
100
AcDbBlockTableRecord
  2
*D4
340
0
  0
BLOCK_RECORD
  5
2851
330
1
100
AcDbSymbolTableRecord
100
AcDbBlockTableRecord
  2
*D5
340
0
  0
BLOCK_RECORD
  5
2860
330
1
100
AcDbSymbolTableRecord
100
AcDbBlockTableRecord
  2
*D6
340
0
  0
BLOCK_RECORD
  5
28B3
330
1
100
AcDbSymbolTableRecord
100
AcDbBlockTableRecord
  2
*D7
340
0
  0
BLOCK_RECORD
  5
28D7
330
1
100
AcDbSymbolTableRecord
100
AcDbBlockTableRecord
  2
*D8
340
0
  0
BLOCK_RECORD
  5
2A3E
330
1
100
AcDbSymbolTableRecord
100
AcDbBlockTableRecord
  2
*D9
340
0
  0
BLOCK_RECORD
  5
2A4C
330
1
100
AcDbSymbolTableRecord
100
AcDbBlockTableRecord
  2
*D10
340
0
  0
BLOCK_RECORD
  5
2A7A
330
1
100
AcDbSymbolTableRecord
100
AcDbBlockTableRecord
  2
*D11
340
0
  0
BLOCK_RECORD
  5
2A88
330
1
100
AcDbSymbolTableRecord
100
AcDbBlockTableRecord
  2
*D12
340
0
  0
BLOCK_RECORD
  5
2A94
330
1
100
AcDbSymbolTableRecord
100
AcDbBlockTableRecord
  2
*D13
340
0
  0
BLOCK_RECORD
  5
2CC4
330
1
100
AcDbSymbolTableRecord
100
AcDbBlockTableRecord
  2
*D14
340
0
  0
BLOCK_RECORD
  5
2D13
330
1
100
AcDbSymbolTableRecord
100
AcDbBlockTableRecord
  2
*D15
340
0
  0
BLOCK_RECORD
  5
2D20
330
1
100
AcDbSymbolTableRecord
100
AcDbBlockTableRecord
  2
*D16
340
0
  0
BLOCK_RECORD
  5
2D64
330
1
100
AcDbSymbolTableRecord
100
AcDbBlockTableRecord
  2
*D17
340
0
  0
BLOCK_RECORD
  5
2D71
330
1
100
AcDbSymbolTableRecord
100
AcDbBlockTableRecord
  2
*D18
340
0
  0
ENDTAB
  0
ENDSEC
  0
SECTION
  2
BLOCKS
  0
BLOCK
  5
19
330
18
100
AcDbEntity
  8
0
100
AcDbBlockBegin
  2
*MODEL_SPACE
 70
     0
 10
0.0
 20
0.0
 30
0.0
  3
*MODEL_SPACE
  1

  0
ENDBLK
  5
1A
330
18
100
AcDbEntity
  8
0
100
AcDbBlockEnd
  0
BLOCK
  5
4F48
330
4DD6
100
AcDbEntity
 67
     1
  8
0
100
AcDbBlockBegin
  2
*PAPER_SPACE
 70
     0
 10
0.0
 20
0.0
 30
0.0
  3
*PAPER_SPACE
  1

  0
ENDBLK
  5
4F49
330
4DD6
100
AcDbEntity
 67
     1
  8
0
100
AcDbBlockEnd
  0
BLOCK
  5
33B
330
33A
100
AcDbEntity
  8
0
100
AcDbBlockBegin
  2
_OPEN30
 70
     0
 10
0.0
 20
0.0
 30
0.0
  3
_OPEN30
  1

  0
LINE
  5
33C
330
33A
100
AcDbEntity
  8
0
  6
ByBlock
 62
     0
100
AcDbLine
 10
-1.0
 20
0.26794919
 30
0.0
 11
0.0
 21
0.0
 31
0.0
  0
LINE
  5
33D
330
33A
100
AcDbEntity
  8
0
  6
ByBlock
 62
     0
100
AcDbLine
 10
0.0
 20
0.0
 30
0.0
 11
-1.0
 21
-0.26794919
 31
0.0
  0
LINE
  5
33E
330
33A
100
AcDbEntity
  8
0
  6
ByBlock
 62
     0
100
AcDbLine
 10
0.0
 20
0.0
 30
0.0
 11
-1.0
 21
0.0
 31
0.0
  0
ENDBLK
  5
33F
330
33A
100
AcDbEntity
  8
0
100
AcDbBlockEnd
  0
BLOCK
  5
2695
330
268B
100
AcDbEntity
  8
0
 62
     3
100
AcDbBlockBegin
  2
*D1
 70
     1
 10
0.0
 20
0.0
 30
0.0
  3
*D1
  1

  0
LINE
  5
2F30
330
268B
100
AcDbEntity
  8
sunpo
 62
     3
370
    -2
100
AcDbLine
 10
1211.890641387371
 20
2281.691266540527
 30
0.0
 11
1118.969260296643
 21
2281.691266540527
 31
0.0
  0
LINE
  5
2F31
330
268B
100
AcDbEntity
  8
sunpo
 62
     3
370
    -2
100
AcDbLine
 10
1211.890641387371
 20
1311.691266540527
 30
0.0
 11
1118.969260296643
 21
1311.691266540527
 31
0.0
  0
LINE
  5
2F32
330
268B
100
AcDbEntity
  8
sunpo
 62
     3
370
    -2
100
AcDbLine
 10
1125.969260296643
 20
2261.691266540527
 30
0.0
 11
1125.969260296643
 21
1331.691266540527
 31
0.0
  0
INSERT
  5
2F33
330
268B
100
AcDbEntity
  8
sunpo
 62
     3
370
    -2
100
AcDbBlockReference
  2
_OPEN30
 10
1125.969260296643
 20
2281.691266540527
 30
0.0
 41
20.0
 42
20.0
 43
20.0
 50
90.0
  0
INSERT
  5
2F34
330
268B
100
AcDbEntity
  8
sunpo
 62
     3
370
    -2
100
AcDbBlockReference
  2
_OPEN30
 10
1125.969260296643
 20
1311.691266540527
 30
0.0
 41
20.0
 42
20.0
 43
20.0
 50
270.0
  0
MTEXT
  5
2F35
330
268B
100
AcDbEntity
  8
sunpo
 62
     3
100
AcDbMText
 10
1103.469260296642
 20
1796.691266540527
 30
0.0
 40
25.0
 41
0.0
 71
     5
 72
     1
  1
\A1;970
  7
MSP明朝W1
 11
0.0000000000000001
 21
1.0
 31
0.0
 73
     1
 44
1.0
1001
ACAD
1000
MTEXTBEGIN
1070
    73
1070
     1
1070
    44
1040
1.0
1070
    74
1070
     0
1000
MTEXTEND
1000
MTEXTBEGIN
1070
    73
1070
     1
1070
    44
1040
1.0
1070
    74
1070
     0
1000
MTEXTEND
  0
POINT
  5
2F36
330
268B
100
AcDbEntity
  8
DEFPOINTS
 62
     0
100
AcDbPoint
 10
1211.890641387371
 20
2281.691266540527
 30
0.0
  0
POINT
  5
2F37
330
268B
100
AcDbEntity
  8
DEFPOINTS
 62
     0
100
AcDbPoint
 10
1211.890641387371
 20
1311.691266540527
 30
0.0
  0
POINT
  5
2F38
330
268B
100
AcDbEntity
  8
DEFPOINTS
 62
     0
100
AcDbPoint
 10
1125.969260296643
 20
1311.691266540527
 30
0.0
  0
ENDBLK
  5
2696
330
268B
100
AcDbEntity
  8
0
 62
     3
100
AcDbBlockEnd
  0
BLOCK
  5
2730
330
2724
100
AcDbEntity
  8
0
100
AcDbBlockBegin
  2
*D2
 70
     1
 10
0.0
 20
0.0
 30
0.0
  3
*D2
  1

  0
LINE
  5
409B
330
2724
100
AcDbEntity
  8
sunpo
 62
     3
370
    -2
100
AcDbLine
 10
2439.54211887933
 20
907.982241266025
 30
0.0
 11
2439.54211887933
 21
898.3340427374994
 31
0.0
  0
LINE
  5
409C
330
2724
100
AcDbEntity
  8
sunpo
 62
     3
370
    -2
100
AcDbLine
 10
2445.54211887933
 20
907.9822412660252
 30
0.0
 11
2445.54211887933
 21
898.3340427374994
 31
0.0
  0
LINE
  5
409D
330
2724
100
AcDbEntity
  8
sunpo
 62
     3
370
    -2
100
AcDbLine
 10
2437.54211887933
 20
899.0340427374995
 30
0.0
 11
2435.542118879329
 21
899.0340427374995
 31
0.0
  0
LINE
  5
409E
330
2724
100
AcDbEntity
  8
sunpo
 62
     3
370
    -2
100
AcDbLine
 10
2447.542118879329
 20
899.0340427374995
 30
0.0
 11
2449.54211887933
 21
899.0340427374995
 31
0.0
  0
LINE
  5
409F
330
2724
100
AcDbEntity
  8
sunpo
 62
     3
370
    -2
100
AcDbLine
 10
2439.54211887933
 20
899.0340427374995
 30
0.0
 11
2445.54211887933
 21
899.0340427374995
 31
0.0
  0
INSERT
  5
40A0
330
2724
100
AcDbEntity
  8
sunpo
 62
     3
370
    -2
100
AcDbBlockReference
  2
_OPEN30
 10
2439.54211887933
 20
899.0340427374995
 30
0.0
 41
2.0
 42
2.0
 43
2.0
  0
INSERT
  5
40A1
330
2724
100
AcDbEntity
  8
sunpo
 62
     3
370
    -2
100
AcDbBlockReference
  2
_OPEN30
 10
2445.54211887933
 20
899.0340427374995
 30
0.0
 41
2.0
 42
2.0
 43
2.0
 50
180.0
  0
MTEXT
  5
40A2
330
2724
100
AcDbEntity
  8
sunpo
 62
     3
100
AcDbMText
 10
2442.542118879329
 20
901.2840427374994
 30
0.0
 40
2.5
 41
0.0
 71
     5
 72
     1
  1
\A1;6
  7
MSP明朝W1
 73
     1
 44
1.0
  0
POINT
  5
40A3
330
2724
100
AcDbEntity
  8
DEFPOINTS
 62
     0
100
AcDbPoint
 10
2439.54211887933
 20
908.982241266025
 30
0.0
  0
POINT
  5
40A4
330
2724
100
AcDbEntity
  8
DEFPOINTS
 62
     0
100
AcDbPoint
 10
2445.54211887933
 20
908.9822412660252
 30
0.0
  0
POINT
  5
40A5
330
2724
100
AcDbEntity
  8
DEFPOINTS
 62
     0
100
AcDbPoint
 10
2445.54211887933
 20
899.0340427374995
 30
0.0
  0
ENDBLK
  5
2731
330
2724
100
AcDbEntity
  8
0
100
AcDbBlockEnd
  0
BLOCK
  5
2769
330
275F
100
AcDbEntity
  8
0
100
AcDbBlockBegin
  2
*D3
 70
     1
 10
0.0
 20
0.0
 30
0.0
  3
*D3
  1

  0
LINE
  5
5CCD
330
275F
100
AcDbEntity
  8
sunpo
 62
     3
370
    -2
100
AcDbLine
 10
2439.54211887933
 20
951.9822412660255
 30
0.0
 11
2439.54211887933
 21
961.7124763720797
 31
0.0
  0
LINE
  5
5CCE
330
275F
100
AcDbEntity
  8
sunpo
 62
     3
370
    -2
100
AcDbLine
 10
2459.54211887933
 20
950.9822412660254
 30
0.0
 11
2459.54211887933
 21
961.7124763720797
 31
0.0
  0
LINE
  5
5CCF
330
275F
100
AcDbEntity
  8
sunpo
 62
     3
370
    -2
100
AcDbLine
 10
2441.54211887933
 20
961.0124763720795
 30
0.0
 11
2457.54211887933
 21
961.0124763720795
 31
0.0
  0
INSERT
  5
5CD0
330
275F
100
AcDbEntity
  8
sunpo
 62
     3
370
    -2
100
AcDbBlockReference
  2
_OPEN30
 10
2439.54211887933
 20
961.0124763720795
 30
0.0
 41
2.0
 42
2.0
 43
2.0
 50
180.0
  0
INSERT
  5
5CD1
330
275F
100
AcDbEntity
  8
sunpo
 62
     3
370
    -2
100
AcDbBlockReference
  2
_OPEN30
 10
2459.54211887933
 20
961.0124763720795
 30
0.0
 41
2.0
 42
2.0
 43
2.0
  0
MTEXT
  5
5CD2
330
275F
100
AcDbEntity
  8
sunpo
 62
     3
100
AcDbMText
 10
2449.54211887933
 20
963.2624763720796
 30
0.0
 40
2.5
 41
0.0
 71
     5
 72
     1
  1
\A1;20
  7
MSP明朝W1
 73
     1
 44
1.0
  0
POINT
  5
5CD3
330
275F
100
AcDbEntity
  8
DEFPOINTS
 62
     0
100
AcDbPoint
 10
2439.54211887933
 20
950.9822412660255
 30
0.0
  0
POINT
  5
5CD4
330
275F
100
AcDbEntity
  8
DEFPOINTS
 62
     0
100
AcDbPoint
 10
2459.54211887933
 20
949.9822412660252
 30
0.0
  0
POINT
  5
5CD5
330
275F
100
AcDbEntity
  8
DEFPOINTS
 62
     0
100
AcDbPoint
 10
2459.54211887933
 20
961.0124763720795
 30
0.0
  0
ENDBLK
  5
276A
330
275F
100
AcDbEntity
  8
0
100
AcDbBlockEnd
  0
BLOCK
  5
284D
330
2841
100
AcDbEntity
  8
0
100
AcDbBlockBegin
  2
*D4
 70
     1
 10
0.0
 20
0.0
 30
0.0
  3
*D4
  1

  0
LINE
  5
476A
330
2841
100
AcDbEntity
  8
sunpo
 62
     3
370
    -2
100
AcDbLine
 10
2471.81090320527
 20
948.9822412660252
 30
0.0
 11
2472.11090320527
 21
948.9822412660252
 31
0.0
  0
LINE
  5
476B
330
2841
100
AcDbEntity
  8
sunpo
 62
     3
370
    -2
100
AcDbLine
 10
2457.54211887933
 20
950.9822412660255
 30
0.0
 11
2473.510903205269
 21
950.9822412660255
 31
0.0
  0
LINE
  5
476C
330
2841
100
AcDbEntity
  8
sunpo
 62
     3
370
    -2
100
AcDbLine
 10
2472.81090320527
 20
946.9822412660253
 30
0.0
 11
2472.81090320527
 21
944.9822412660253
 31
0.0
  0
LINE
  5
476D
330
2841
100
AcDbEntity
  8
sunpo
 62
     3
370
    -2
100
AcDbLine
 10
2472.81090320527
 20
952.9822412660255
 30
0.0
 11
2472.81090320527
 21
958.3726907042278
 31
0.0
  0
LINE
  5
476E
330
2841
100
AcDbEntity
  8
sunpo
 62
     3
370
    -2
100
AcDbLine
 10
2472.81090320527
 20
948.9822412660252
 30
0.0
 11
2472.81090320527
 21
950.9822412660255
 31
0.0
  0
INSERT
  5
476F
330
2841
100
AcDbEntity
  8
sunpo
 62
     3
370
    -2
100
AcDbBlockReference
  2
_OPEN30
 10
2472.81090320527
 20
948.9822412660252
 30
0.0
 41
2.0
 42
2.0
 43
2.0
 50
90.0
  0
INSERT
  5
4770
330
2841
100
AcDbEntity
  8
sunpo
 62
     3
370
    -2
100
AcDbBlockReference
  2
_OPEN30
 10
2472.81090320527
 20
950.9822412660255
 30
0.0
 41
2.0
 42
2.0
 43
2.0
 50
270.0
  0
MTEXT
  5
4771
330
2841
100
AcDbEntity
  8
sunpo
 62
     3
100
AcDbMText
 10
2470.560903205269
 20
956.6774659851271
 30
0.0
 40
2.5
 41
0.0
 71
     5
 72
     1
  1
\A1;2
  7
MSP明朝W1
 11
0.0000000000000001
 21
1.0
 31
0.0
 73
     1
 44
1.0
  0
POINT
  5
4772
330
2841
100
AcDbEntity
  8
DEFPOINTS
 62
     0
100
AcDbPoint
 10
2472.81090320527
 20
948.9822412660252
 30
0.0
  0
POINT
  5
4773
330
2841
100
AcDbEntity
  8
DEFPOINTS
 62
     0
100
AcDbPoint
 10
2456.54211887933
 20
950.9822412660255
 30
0.0
  0
POINT
  5
4774
330
2841
100
AcDbEntity
  8
DEFPOINTS
 62
     0
100
AcDbPoint
 10
2472.81090320527
 20
950.9822412660255
 30
0.0
  0
ENDBLK
  5
284E
330
2841
100
AcDbEntity
  8
0
100
AcDbBlockEnd
  0
BLOCK
  5
285D
330
2851
100
AcDbEntity
  8
0
100
AcDbBlockBegin
  2
*D5
 70
     1
 10
0.0
 20
0.0
 30
0.0
  3
*D5
  1

  0
LINE
  5
477E
330
2851
100
AcDbEntity
  8
sunpo
 62
     3
370
    -2
100
AcDbLine
 10
2471.81090320527
 20
948.9822412660252
 30
0.0
 11
2472.11090320527
 21
948.9822412660252
 31
0.0
  0
LINE
  5
477F
330
2851
100
AcDbEntity
  8
sunpo
 62
     3
370
    -2
100
AcDbLine
 10
2471.81090320527
 20
942.9822412660254
 30
0.0
 11
2472.11090320527
 21
942.9822412660254
 31
0.0
  0
LINE
  5
4780
330
2851
100
AcDbEntity
  8
sunpo
 62
     3
370
    -2
100
AcDbLine
 10
2472.81090320527
 20
946.9822412660253
 30
0.0
 11
2472.81090320527
 21
944.9822412660253
 31
0.0
  0
MTEXT
  5
4781
330
2851
100
AcDbEntity
  8
sunpo
 62
     3
100
AcDbMText
 10
2470.166926511319
 20
946.1617006340658
 30
0.0
 40
2.5
 41
0.0
 71
     5
 72
     1
  1
\A1;6
  7
MSP明朝W1
 11
0.0000000000000001
 21
1.0
 31
0.0
 73
     1
 44
1.0
  0
INSERT
  5
4782
330
2851
100
AcDbEntity
  8
sunpo
 62
     3
370
    -2
100
AcDbBlockReference
  2
_OPEN30
 10
2472.81090320527
 20
948.9822412660252
 30
0.0
 41
2.0
 42
2.0
 43
2.0
 50
90.0
  0
INSERT
  5
4783
330
2851
100
AcDbEntity
  8
sunpo
 62
     3
370
    -2
100
AcDbBlockReference
  2
_OPEN30
 10
2472.81090320527
 20
942.9822412660254
 30
0.0
 41
2.0
 42
2.0
 43
2.0
 50
270.0
  0
POINT
  5
4784
330
2851
100
AcDbEntity
  8
DEFPOINTS
 62
     0
100
AcDbPoint
 10
2472.81090320527
 20
948.9822412660252
 30
0.0
  0
POINT
  5
4785
330
2851
100
AcDbEntity
  8
DEFPOINTS
 62
     0
100
AcDbPoint
 10
2472.81090320527
 20
942.9822412660254
 30
0.0
  0
POINT
  5
4786
330
2851
100
AcDbEntity
  8
DEFPOINTS
 62
     0
100
AcDbPoint
 10
2472.81090320527
 20
942.9822412660254
 30
0.0
  0
ENDBLK
  5
285E
330
2851
100
AcDbEntity
  8
0
100
AcDbBlockEnd
  0
BLOCK
  5
286A
330
2860
100
AcDbEntity
  8
0
100
AcDbBlockBegin
  2
*D6
 70
     1
 10
0.0
 20
0.0
 30
0.0
  3
*D6
  1

  0
LINE
  5
4775
330
2860
100
AcDbEntity
  8
sunpo
 62
     3
370
    -2
100
AcDbLine
 10
2471.81090320527
 20
942.9822412660254
 30
0.0
 11
2472.11090320527
 21
942.9822412660254
 31
0.0
  0
LINE
  5
4776
330
2860
100
AcDbEntity
  8
sunpo
 62
     3
370
    -2
100
AcDbLine
 10
2446.54211887933
 20
908.9822412660252
 30
0.0
 11
2473.510903205269
 21
908.9822412660252
 31
0.0
  0
LINE
  5
4777
330
2860
100
AcDbEntity
  8
sunpo
 62
     3
370
    -2
100
AcDbLine
 10
2472.81090320527
 20
940.9822412660252
 30
0.0
 11
2472.81090320527
 21
910.9822412660253
 31
0.0
  0
INSERT
  5
4778
330
2860
100
AcDbEntity
  8
sunpo
 62
     3
370
    -2
100
AcDbBlockReference
  2
_OPEN30
 10
2472.81090320527
 20
942.9822412660254
 30
0.0
 41
2.0
 42
2.0
 43
2.0
 50
90.0
  0
INSERT
  5
4779
330
2860
100
AcDbEntity
  8
sunpo
 62
     3
370
    -2
100
AcDbBlockReference
  2
_OPEN30
 10
2472.81090320527
 20
908.9822412660252
 30
0.0
 41
2.0
 42
2.0
 43
2.0
 50
270.0
  0
MTEXT
  5
477A
330
2860
100
AcDbEntity
  8
sunpo
 62
     3
100
AcDbMText
 10
2470.209779609764
 20
925.9822412660257
 30
0.0
 40
2.5
 41
0.0
 71
     5
 72
     1
  1
\A1;(34)
  7
MSP明朝W1
 11
0.0000000000000001
 21
1.0
 31
0.0
 73
     1
 44
1.0
  0
POINT
  5
477B
330
2860
100
AcDbEntity
  8
DEFPOINTS
 62
     0
100
AcDbPoint
 10
2472.81090320527
 20
942.9822412660254
 30
0.0
  0
POINT
  5
477C
330
2860
100
AcDbEntity
  8
DEFPOINTS
 62
     0
100
AcDbPoint
 10
2445.54211887933
 20
908.9822412660252
 30
0.0
  0
POINT
  5
477D
330
2860
100
AcDbEntity
  8
DEFPOINTS
 62
     0
100
AcDbPoint
 10
2472.81090320527
 20
908.9822412660252
 30
0.0
  0
ENDBLK
  5
286B
330
2860
100
AcDbEntity
  8
0
100
AcDbBlockEnd
  0
BLOCK
  5
28BD
330
28B3
100
AcDbEntity
  8
0
100
AcDbBlockBegin
  2
*D7
 70
     1
 10
0.0
 20
0.0
 30
0.0
  3
*D7
  1

  0
LINE
  5
407E
330
28B3
100
AcDbEntity
  8
sunpo
 62
     3
370
    -2
100
AcDbLine
 10
2439.54211887933
 20
907.982241266025
 30
0.0
 11
2439.54211887933
 21
888.3756462350318
 31
0.0
  0
LINE
  5
407F
330
28B3
100
AcDbEntity
  8
sunpo
 62
     3
370
    -2
100
AcDbLine
 10
2530.580311621458
 20
907.982241266025
 30
0.0
 11
2530.580311621458
 21
888.3756462350318
 31
0.0
  0
LINE
  5
4080
330
28B3
100
AcDbEntity
  8
sunpo
 62
     3
370
    -2
100
AcDbLine
 10
2441.54211887933
 20
889.0756462350319
 30
0.0
 11
2528.580311621457
 21
889.0756462350319
 31
0.0
  0
INSERT
  5
4081
330
28B3
100
AcDbEntity
  8
sunpo
 62
     3
370
    -2
100
AcDbBlockReference
  2
_OPEN30
 10
2439.54211887933
 20
889.0756462350319
 30
0.0
 41
2.0
 42
2.0
 43
2.0
 50
180.0
  0
INSERT
  5
4082
330
28B3
100
AcDbEntity
  8
sunpo
 62
     3
370
    -2
100
AcDbBlockReference
  2
_OPEN30
 10
2530.580311621458
 20
889.0756462350319
 30
0.0
 41
2.0
 42
2.0
 43
2.0
  0
MTEXT
  5
4083
330
28B3
100
AcDbEntity
  8
sunpo
 62
     3
100
AcDbMText
 10
2485.061215250393
 20
891.3256462350318
 30
0.0
 40
2.5
 41
0.0
 71
     5
 72
     1
  1
\A1;970
  7
MSP明朝W1
 73
     1
 44
1.0
  0
POINT
  5
4084
330
28B3
100
AcDbEntity
  8
DEFPOINTS
 62
     0
100
AcDbPoint
 10
2439.54211887933
 20
908.982241266025
 30
0.0
  0
POINT
  5
4085
330
28B3
100
AcDbEntity
  8
DEFPOINTS
 62
     0
100
AcDbPoint
 10
2530.580311621458
 20
908.982241266025
 30
0.0
  0
POINT
  5
4086
330
28B3
100
AcDbEntity
  8
DEFPOINTS
 62
     0
100
AcDbPoint
 10
2530.580311621458
 20
889.0756462350319
 30
0.0
  0
ENDBLK
  5
28BE
330
28B3
100
AcDbEntity
  8
0
100
AcDbBlockEnd
  0
BLOCK
  5
28E3
330
28D7
100
AcDbEntity
  8
0
100
AcDbBlockBegin
  2
*D8
 70
     1
 10
0.0
 20
0.0
 30
0.0
  3
*D8
  1

  0
LINE
  5
40BF
330
28D7
100
AcDbEntity
  8
sunpo
 62
     3
370
    -2
100
AcDbLine
 10
2530.580311621458
 20
907.982241266025
 30
0.0
 11
2530.580311621458
 21
898.3340427374994
 31
0.0
  0
LINE
  5
40C0
330
28D7
100
AcDbEntity
  8
sunpo
 62
     3
370
    -2
100
AcDbLine
 10
2524.580311621457
 20
907.9822412660252
 30
0.0
 11
2524.580311621457
 21
898.3340427374994
 31
0.0
  0
LINE
  5
40C1
330
28D7
100
AcDbEntity
  8
sunpo
 62
     3
370
    -2
100
AcDbLine
 10
2532.580311621457
 20
899.0340427374995
 30
0.0
 11
2534.580311621457
 21
899.0340427374995
 31
0.0
  0
LINE
  5
40C2
330
28D7
100
AcDbEntity
  8
sunpo
 62
     3
370
    -2
100
AcDbLine
 10
2522.580311621457
 20
899.0340427374995
 30
0.0
 11
2520.580311621457
 21
899.0340427374995
 31
0.0
  0
LINE
  5
40C3
330
28D7
100
AcDbEntity
  8
sunpo
 62
     3
370
    -2
100
AcDbLine
 10
2530.580311621458
 20
899.0340427374995
 30
0.0
 11
2524.580311621457
 21
899.0340427374995
 31
0.0
  0
INSERT
  5
40C4
330
28D7
100
AcDbEntity
  8
sunpo
 62
     3
370
    -2
100
AcDbBlockReference
  2
_OPEN30
 10
2530.580311621458
 20
899.0340427374995
 30
0.0
 41
2.0
 42
2.0
 43
2.0
 50
180.0
  0
INSERT
  5
40C5
330
28D7
100
AcDbEntity
  8
sunpo
 62
     3
370
    -2
100
AcDbBlockReference
  2
_OPEN30
 10
2524.580311621457
 20
899.0340427374995
 30
0.0
 41
2.0
 42
2.0
 43
2.0
  0
MTEXT
  5
40C6
330
28D7
100
AcDbEntity
  8
sunpo
 62
     3
100
AcDbMText
 10
2527.580311621457
 20
901.2840427374994
 30
0.0
 40
2.5
 41
0.0
 71
     5
 72
     1
  1
\A1;6
  7
MSP明朝W1
 73
     1
 44
1.0
  0
POINT
  5
40C7
330
28D7
100
AcDbEntity
  8
DEFPOINTS
 62
     0
100
AcDbPoint
 10
2530.580311621458
 20
908.982241266025
 30
0.0
  0
POINT
  5
40C8
330
28D7
100
AcDbEntity
  8
DEFPOINTS
 62
     0
100
AcDbPoint
 10
2524.580311621457
 20
908.9822412660252
 30
0.0
  0
POINT
  5
40C9
330
28D7
100
AcDbEntity
  8
DEFPOINTS
 62
     0
100
AcDbPoint
 10
2524.580311621457
 20
899.0340427374995
 30
0.0
  0
ENDBLK
  5
28E4
330
28D7
100
AcDbEntity
  8
0
100
AcDbBlockEnd
  0
BLOCK
  5
2A4A
330
2A3E
100
AcDbEntity
  8
0
100
AcDbBlockBegin
  2
*D9
 70
     1
 10
0.0
 20
0.0
 30
0.0
  3
*D9
  1

  0
LINE
  5
4100
330
2A3E
100
AcDbEntity
  8
sunpo
 62
     3
370
    -2
100
AcDbLine
 10
2619.397142348948
 20
907.982241266025
 30
0.0
 11
2619.397142348948
 21
898.3340427374994
 31
0.0
  0
LINE
  5
4101
330
2A3E
100
AcDbEntity
  8
sunpo
 62
     3
370
    -2
100
AcDbLine
 10
2613.397142348948
 20
907.9822412660252
 30
0.0
 11
2613.397142348948
 21
898.3340427374994
 31
0.0
  0
LINE
  5
4102
330
2A3E
100
AcDbEntity
  8
sunpo
 62
     3
370
    -2
100
AcDbLine
 10
2621.397142348948
 20
899.0340427374995
 30
0.0
 11
2623.397142348948
 21
899.0340427374995
 31
0.0
  0
LINE
  5
4103
330
2A3E
100
AcDbEntity
  8
sunpo
 62
     3
370
    -2
100
AcDbLine
 10
2611.397142348948
 20
899.0340427374995
 30
0.0
 11
2609.397142348948
 21
899.0340427374995
 31
0.0
  0
LINE
  5
4104
330
2A3E
100
AcDbEntity
  8
sunpo
 62
     3
370
    -2
100
AcDbLine
 10
2619.397142348948
 20
899.0340427374995
 30
0.0
 11
2613.397142348948
 21
899.0340427374995
 31
0.0
  0
INSERT
  5
4105
330
2A3E
100
AcDbEntity
  8
sunpo
 62
     3
370
    -2
100
AcDbBlockReference
  2
_OPEN30
 10
2619.397142348948
 20
899.0340427374995
 30
0.0
 41
2.0
 42
2.0
 43
2.0
 50
180.0
  0
INSERT
  5
4106
330
2A3E
100
AcDbEntity
  8
sunpo
 62
     3
370
    -2
100
AcDbBlockReference
  2
_OPEN30
 10
2613.397142348948
 20
899.0340427374995
 30
0.0
 41
2.0
 42
2.0
 43
2.0
  0
MTEXT
  5
4107
330
2A3E
100
AcDbEntity
  8
sunpo
 62
     3
100
AcDbMText
 10
2616.397142348948
 20
901.2840427374994
 30
0.0
 40
2.5
 41
0.0
 71
     5
 72
     1
  1
\A1;6
  7
MSP明朝W1
 73
     1
 44
1.0
  0
POINT
  5
4108
330
2A3E
100
AcDbEntity
  8
DEFPOINTS
 62
     0
100
AcDbPoint
 10
2619.397142348948
 20
908.982241266025
 30
0.0
  0
POINT
  5
4109
330
2A3E
100
AcDbEntity
  8
DEFPOINTS
 62
     0
100
AcDbPoint
 10
2613.397142348948
 20
908.9822412660252
 30
0.0
  0
POINT
  5
410A
330
2A3E
100
AcDbEntity
  8
DEFPOINTS
 62
     0
100
AcDbPoint
 10
2613.397142348948
 20
899.0340427374995
 30
0.0
  0
ENDBLK
  5
2A4B
330
2A3E
100
AcDbEntity
  8
0
100
AcDbBlockEnd
  0
BLOCK
  5
2A56
330
2A4C
100
AcDbEntity
  8
0
100
AcDbBlockBegin
  2
*D10
 70
     1
 10
0.0
 20
0.0
 30
0.0
  3
*D10
  1

  0
LINE
  5
5CDF
330
2A4C
100
AcDbEntity
  8
sunpo
 62
     3
370
    -2
100
AcDbLine
 10
2619.397142348948
 20
951.9822412660255
 30
0.0
 11
2619.397142348948
 21
959.7805010294635
 31
0.0
  0
LINE
  5
5CE0
330
2A4C
100
AcDbEntity
  8
sunpo
 62
     3
370
    -2
100
AcDbLine
 10
2599.397142348948
 20
950.9822412660254
 30
0.0
 11
2599.397142348948
 21
959.7805010294635
 31
0.0
  0
LINE
  5
5CE1
330
2A4C
100
AcDbEntity
  8
sunpo
 62
     3
370
    -2
100
AcDbLine
 10
2617.397142348948
 20
959.0805010294634
 30
0.0
 11
2601.397142348948
 21
959.0805010294634
 31
0.0
  0
INSERT
  5
5CE2
330
2A4C
100
AcDbEntity
  8
sunpo
 62
     3
370
    -2
100
AcDbBlockReference
  2
_OPEN30
 10
2619.397142348948
 20
959.0805010294634
 30
0.0
 41
2.0
 42
2.0
 43
2.0
  0
INSERT
  5
5CE3
330
2A4C
100
AcDbEntity
  8
sunpo
 62
     3
370
    -2
100
AcDbBlockReference
  2
_OPEN30
 10
2599.397142348948
 20
959.0805010294634
 30
0.0
 41
2.0
 42
2.0
 43
2.0
 50
180.0
  0
MTEXT
  5
5CE4
330
2A4C
100
AcDbEntity
  8
sunpo
 62
     3
100
AcDbMText
 10
2609.397142348948
 20
961.3305010294634
 30
0.0
 40
2.5
 41
0.0
 71
     5
 72
     1
  1
\A1;20
  7
MSP明朝W1
 73
     1
 44
1.0
  0
POINT
  5
5CE5
330
2A4C
100
AcDbEntity
  8
DEFPOINTS
 62
     0
100
AcDbPoint
 10
2619.397142348948
 20
950.9822412660255
 30
0.0
  0
POINT
  5
5CE6
330
2A4C
100
AcDbEntity
  8
DEFPOINTS
 62
     0
100
AcDbPoint
 10
2599.397142348948
 20
949.9822412660252
 30
0.0
  0
POINT
  5
5CE7
330
2A4C
100
AcDbEntity
  8
DEFPOINTS
 62
     0
100
AcDbPoint
 10
2599.397142348948
 20
959.0805010294634
 30
0.0
  0
ENDBLK
  5
2A57
330
2A4C
100
AcDbEntity
  8
0
100
AcDbBlockEnd
  0
BLOCK
  5
2A86
330
2A7A
100
AcDbEntity
  8
0
100
AcDbBlockBegin
  2
*D11
 70
     1
 10
0.0
 20
0.0
 30
0.0
  3
*D11
  1

  0
LINE
  5
47BE
330
2A7A
100
AcDbEntity
  8
sunpo
 62
     3
370
    -2
100
AcDbLine
 10
2584.124966449917
 20
948.9822412660252
 30
0.0
 11
2584.424966449917
 21
948.9822412660252
 31
0.0
  0
LINE
  5
47BF
330
2A7A
100
AcDbEntity
  8
sunpo
 62
     3
370
    -2
100
AcDbLine
 10
2601.397142348948
 20
950.9822412660255
 30
0.0
 11
2584.424966449917
 21
950.9822412660255
 31
0.0
  0
LINE
  5
47C0
330
2A7A
100
AcDbEntity
  8
sunpo
 62
     3
370
    -2
100
AcDbLine
 10
2585.124966449917
 20
946.9822412660253
 30
0.0
 11
2585.124966449917
 21
944.9822412660253
 31
0.0
  0
LINE
  5
47C1
330
2A7A
100
AcDbEntity
  8
sunpo
 62
     3
370
    -2
100
AcDbLine
 10
2585.124966449917
 20
952.9822412660255
 30
0.0
 11
2585.124966449917
 21
958.3726907042278
 31
0.0
  0
LINE
  5
47C2
330
2A7A
100
AcDbEntity
  8
sunpo
 62
     3
370
    -2
100
AcDbLine
 10
2585.124966449917
 20
948.9822412660252
 30
0.0
 11
2585.124966449917
 21
950.9822412660255
 31
0.0
  0
INSERT
  5
47C3
330
2A7A
100
AcDbEntity
  8
sunpo
 62
     3
370
    -2
100
AcDbBlockReference
  2
_OPEN30
 10
2585.124966449917
 20
948.9822412660252
 30
0.0
 41
2.0
 42
2.0
 43
2.0
 50
90.0
  0
INSERT
  5
47C4
330
2A7A
100
AcDbEntity
  8
sunpo
 62
     3
370
    -2
100
AcDbBlockReference
  2
_OPEN30
 10
2585.124966449917
 20
950.9822412660255
 30
0.0
 41
2.0
 42
2.0
 43
2.0
 50
270.0
  0
MTEXT
  5
47C5
330
2A7A
100
AcDbEntity
  8
sunpo
 62
     3
100
AcDbMText
 10
2582.874966449917
 20
956.6774659851271
 30
0.0
 40
2.5
 41
0.0
 71
     5
 72
     1
  1
\A1;2
  7
MSP明朝W1
 11
0.0000000000000001
 21
1.0
 31
0.0
 73
     1
 44
1.0
  0
POINT
  5
47C6
330
2A7A
100
AcDbEntity
  8
DEFPOINTS
 62
     0
100
AcDbPoint
 10
2585.124966449917
 20
948.9822412660252
 30
0.0
  0
POINT
  5
47C7
330
2A7A
100
AcDbEntity
  8
DEFPOINTS
 62
     0
100
AcDbPoint
 10
2602.397142348948
 20
950.9822412660255
 30
0.0
  0
POINT
  5
47C8
330
2A7A
100
AcDbEntity
  8
DEFPOINTS
 62
     0
100
AcDbPoint
 10
2585.124966449917
 20
950.9822412660255
 30
0.0
  0
ENDBLK
  5
2A87
330
2A7A
100
AcDbEntity
  8
0
100
AcDbBlockEnd
  0
BLOCK
  5
2A92
330
2A88
100
AcDbEntity
  8
0
100
AcDbBlockBegin
  2
*D12
 70
     1
 10
0.0
 20
0.0
 30
0.0
  3
*D12
  1

  0
LINE
  5
47C9
330
2A88
100
AcDbEntity
  8
sunpo
 62
     3
370
    -2
100
AcDbLine
 10
2584.124966449917
 20
948.9822412660252
 30
0.0
 11
2584.424966449917
 21
948.9822412660252
 31
0.0
  0
LINE
  5
47CA
330
2A88
100
AcDbEntity
  8
sunpo
 62
     3
370
    -2
100
AcDbLine
 10
2584.124966449917
 20
942.9822412660254
 30
0.0
 11
2584.424966449917
 21
942.9822412660254
 31
0.0
  0
LINE
  5
47CB
330
2A88
100
AcDbEntity
  8
sunpo
 62
     3
370
    -2
100
AcDbLine
 10
2585.124966449917
 20
946.9822412660253
 30
0.0
 11
2585.124966449917
 21
944.9822412660253
 31
0.0
  0
MTEXT
  5
47CC
330
2A88
100
AcDbEntity
  8
sunpo
 62
     3
100
AcDbMText
 10
2582.075681453918
 20
945.4993291556474
 30
0.0
 40
2.5
 41
0.0
 71
     5
 72
     1
  1
\A1;6
  7
MSP明朝W1
 11
0.0000000000000001
 21
1.0
 31
0.0
 73
     1
 44
1.0
  0
INSERT
  5
47CD
330
2A88
100
AcDbEntity
  8
sunpo
 62
     3
370
    -2
100
AcDbBlockReference
  2
_OPEN30
 10
2585.124966449917
 20
948.9822412660252
 30
0.0
 41
2.0
 42
2.0
 43
2.0
 50
90.0
  0
INSERT
  5
47CE
330
2A88
100
AcDbEntity
  8
sunpo
 62
     3
370
    -2
100
AcDbBlockReference
  2
_OPEN30
 10
2585.124966449917
 20
942.9822412660254
 30
0.0
 41
2.0
 42
2.0
 43
2.0
 50
270.0
  0
POINT
  5
47CF
330
2A88
100
AcDbEntity
  8
DEFPOINTS
 62
     0
100
AcDbPoint
 10
2585.124966449917
 20
948.9822412660252
 30
0.0
  0
POINT
  5
47D0
330
2A88
100
AcDbEntity
  8
DEFPOINTS
 62
     0
100
AcDbPoint
 10
2585.124966449917
 20
942.9822412660254
 30
0.0
  0
POINT
  5
47D1
330
2A88
100
AcDbEntity
  8
DEFPOINTS
 62
     0
100
AcDbPoint
 10
2585.124966449917
 20
942.9822412660254
 30
0.0
  0
ENDBLK
  5
2A93
330
2A88
100
AcDbEntity
  8
0
100
AcDbBlockEnd
  0
BLOCK
  5
2A9E
330
2A94
100
AcDbEntity
  8
0
100
AcDbBlockBegin
  2
*D13
 70
     1
 10
0.0
 20
0.0
 30
0.0
  3
*D13
  1

  0
LINE
  5
47D2
330
2A94
100
AcDbEntity
  8
sunpo
 62
     3
370
    -2
100
AcDbLine
 10
2584.124966449917
 20
942.9822412660254
 30
0.0
 11
2584.424966449917
 21
942.9822412660254
 31
0.0
  0
LINE
  5
47D3
330
2A94
100
AcDbEntity
  8
sunpo
 62
     3
370
    -2
100
AcDbLine
 10
2612.397142348948
 20
908.9822412660252
 30
0.0
 11
2584.424966449917
 21
908.9822412660252
 31
0.0
  0
LINE
  5
47D4
330
2A94
100
AcDbEntity
  8
sunpo
 62
     3
370
    -2
100
AcDbLine
 10
2585.124966449917
 20
940.9822412660252
 30
0.0
 11
2585.124966449917
 21
910.9822412660253
 31
0.0
  0
INSERT
  5
47D5
330
2A94
100
AcDbEntity
  8
sunpo
 62
     3
370
    -2
100
AcDbBlockReference
  2
_OPEN30
 10
2585.124966449917
 20
942.9822412660254
 30
0.0
 41
2.0
 42
2.0
 43
2.0
 50
90.0
  0
INSERT
  5
47D6
330
2A94
100
AcDbEntity
  8
sunpo
 62
     3
370
    -2
100
AcDbBlockReference
  2
_OPEN30
 10
2585.124966449917
 20
908.9822412660252
 30
0.0
 41
2.0
 42
2.0
 43
2.0
 50
270.0
  0
MTEXT
  5
47D7
330
2A94
100
AcDbEntity
  8
sunpo
 62
     3
100
AcDbMText
 10
2582.523842854412
 20
925.9822412660257
 30
0.0
 40
2.5
 41
0.0
 71
     5
 72
     1
  1
\A1;(34)
  7
MSP明朝W1
 11
0.0000000000000001
 21
1.0
 31
0.0
 73
     1
 44
1.0
  0
POINT
  5
47D8
330
2A94
100
AcDbEntity
  8
DEFPOINTS
 62
     0
100
AcDbPoint
 10
2585.124966449917
 20
942.9822412660254
 30
0.0
  0
POINT
  5
47D9
330
2A94
100
AcDbEntity
  8
DEFPOINTS
 62
     0
100
AcDbPoint
 10
2613.397142348948
 20
908.9822412660252
 30
0.0
  0
POINT
  5
47DA
330
2A94
100
AcDbEntity
  8
DEFPOINTS
 62
     0
100
AcDbPoint
 10
2585.124966449917
 20
908.9822412660252
 30
0.0
  0
ENDBLK
  5
2A9F
330
2A94
100
AcDbEntity
  8
0
100
AcDbBlockEnd
  0
BLOCK
  5
2CCE
330
2CC4
100
AcDbEntity
  8
0
100
AcDbBlockBegin
  2
*D14
 70
     1
 10
0.0
 20
0.0
 30
0.0
  3
*D14
  1

  0
LINE
  5
4234
330
2CC4
100
AcDbEntity
  8
sunpo
 62
     3
370
    -2
100
AcDbLine
 10
1211.890641387371
 20
1311.691266540527
 30
0.0
 11
1211.890641387371
 21
1206.796921136545
 31
0.0
  0
LINE
  5
4235
330
2CC4
100
AcDbEntity
  8
sunpo
 62
     3
370
    -2
100
AcDbLine
 10
4061.89064138737
 20
1320.691266540527
 30
0.0
 11
4061.89064138737
 21
1206.796921136545
 31
0.0
  0
LINE
  5
4236
330
2CC4
100
AcDbEntity
  8
sunpo
 62
     3
370
    -2
100
AcDbLine
 10
1231.890641387371
 20
1213.796921136545
 30
0.0
 11
4041.890641387371
 21
1213.796921136545
 31
0.0
  0
INSERT
  5
4237
330
2CC4
100
AcDbEntity
  8
sunpo
 62
     3
370
    -2
100
AcDbBlockReference
  2
_OPEN30
 10
1211.890641387371
 20
1213.796921136545
 30
0.0
 41
20.0
 42
20.0
 43
20.0
 50
180.0
  0
INSERT
  5
4238
330
2CC4
100
AcDbEntity
  8
sunpo
 62
     3
370
    -2
100
AcDbBlockReference
  2
_OPEN30
 10
4061.89064138737
 20
1213.796921136545
 30
0.0
 41
20.0
 42
20.0
 43
20.0
  0
MTEXT
  5
4239
330
2CC4
100
AcDbEntity
  8
sunpo
 62
     3
100
AcDbMText
 10
2636.89064138737
 20
1236.296921136545
 30
0.0
 40
25.0
 41
0.0
 71
     5
 72
     1
  1
\A1;2850
  7
MSP明朝W1
 73
     1
 44
1.0
  0
POINT
  5
423A
330
2CC4
100
AcDbEntity
  8
DEFPOINTS
 62
     0
100
AcDbPoint
 10
1211.890641387371
 20
1311.691266540527
 30
0.0
  0
POINT
  5
423B
330
2CC4
100
AcDbEntity
  8
DEFPOINTS
 62
     0
100
AcDbPoint
 10
4061.89064138737
 20
1320.691266540527
 30
0.0
  0
POINT
  5
423C
330
2CC4
100
AcDbEntity
  8
DEFPOINTS
 62
     0
100
AcDbPoint
 10
4061.89064138737
 20
1213.796921136545
 30
0.0
  0
ENDBLK
  5
2CCF
330
2CC4
100
AcDbEntity
  8
0
100
AcDbBlockEnd
  0
BLOCK
  5
2D1D
330
2D13
100
AcDbEntity
  8
0
100
AcDbBlockBegin
  2
*D15
 70
     1
 10
0.0
 20
0.0
 30
0.0
  3
*D15
  1

  0
LINE
  5
40E3
330
2D13
100
AcDbEntity
  8
sunpo
 62
     3
370
    -2
100
AcDbLine
 10
2726.789173721434
 20
969.8037665124575
 30
0.0
 11
2726.789173721434
 21
969.5037665124575
 31
0.0
  0
LINE
  5
40E4
330
2D13
100
AcDbEntity
  8
sunpo
 62
     3
370
    -2
100
AcDbLine
 10
2709.789173721434
 20
967.8037665124579
 30
0.0
 11
2709.789173721434
 21
968.1037665124575
 31
0.0
  0
LINE
  5
40E5
330
2D13
100
AcDbEntity
  8
sunpo
 62
     3
370
    -2
100
AcDbLine
 10
2724.789173721434
 20
968.8037665124575
 30
0.0
 11
2711.789173721434
 21
968.8037665124575
 31
0.0
  0
INSERT
  5
40E6
330
2D13
100
AcDbEntity
  8
sunpo
 62
     3
370
    -2
100
AcDbBlockReference
  2
_OPEN30
 10
2726.789173721434
 20
968.8037665124575
 30
0.0
 41
2.0
 42
2.0
 43
2.0
  0
INSERT
  5
40E7
330
2D13
100
AcDbEntity
  8
sunpo
 62
     3
370
    -2
100
AcDbBlockReference
  2
_OPEN30
 10
2709.789173721434
 20
968.8037665124575
 30
0.0
 41
2.0
 42
2.0
 43
2.0
 50
180.0
  0
MTEXT
  5
40E8
330
2D13
100
AcDbEntity
  8
sunpo
 62
     3
100
AcDbMText
 10
2718.289173721434
 20
971.0537665124574
 30
0.0
 40
2.5
 41
0.0
 71
     5
 72
     1
  1
\A1;17
  7
MSP明朝W1
 73
     1
 44
1.0
  0
POINT
  5
40E9
330
2D13
100
AcDbEntity
  8
DEFPOINTS
 62
     0
100
AcDbPoint
 10
2726.789173721434
 20
968.8037665124575
 30
0.0
  0
POINT
  5
40EA
330
2D13
100
AcDbEntity
  8
DEFPOINTS
 62
     0
100
AcDbPoint
 10
2709.789173721434
 20
968.803766512458
 30
0.0
  0
POINT
  5
40EB
330
2D13
100
AcDbEntity
  8
DEFPOINTS
 62
     0
100
AcDbPoint
 10
2709.789173721434
 20
968.8037665124575
 30
0.0
  0
ENDBLK
  5
2D1E
330
2D13
100
AcDbEntity
  8
0
100
AcDbBlockEnd
  0
BLOCK
  5
2D2F
330
2D20
100
AcDbEntity
  8
0
100
AcDbBlockBegin
  2
*D16
 70
     1
 10
0.0
 20
0.0
 30
0.0
  3
*D16
  1

  0
LINE
  5
40D8
330
2D20
100
AcDbEntity
  8
sunpo
 62
     3
370
    -2
100
AcDbLine
 10
2709.789173721434
 20
967.8037665124579
 30
0.0
 11
2709.789173721434
 21
968.1037665124575
 31
0.0
  0
LINE
  5
40D9
330
2D20
100
AcDbEntity
  8
sunpo
 62
     3
370
    -2
100
AcDbLine
 10
2706.789173721434
 20
969.8037665124575
 30
0.0
 11
2706.789173721434
 21
969.5037665124575
 31
0.0
  0
LINE
  5
40DA
330
2D20
100
AcDbEntity
  8
sunpo
 62
     3
370
    -2
100
AcDbLine
 10
2711.789173721434
 20
968.8037665124575
 30
0.0
 11
2713.789173721434
 21
968.8037665124575
 31
0.0
  0
LINE
  5
40DB
330
2D20
100
AcDbEntity
  8
sunpo
 62
     3
370
    -2
100
AcDbLine
 10
2704.789173721434
 20
968.8037665124575
 30
0.0
 11
2702.789173721434
 21
968.8037665124575
 31
0.0
  0
MTEXT
  5
40DC
330
2D20
100
AcDbEntity
  8
sunpo
 62
     3
100
AcDbMText
 10
2708.294742285891
 20
971.1987804602676
 30
0.0
 40
2.5
 41
0.0
 71
     5
 72
     1
  1
\A1;3
  7
MSP明朝W1
 73
     1
 44
1.0
  0
LINE
  5
40DD
330
2D20
100
AcDbEntity
  8
sunpo
 62
     3
370
    -2
100
AcDbLine
 10
2709.789173721434
 20
968.8037665124575
 30
0.0
 11
2706.789173721434
 21
968.8037665124575
 31
0.0
  0
INSERT
  5
40DE
330
2D20
100
AcDbEntity
  8
sunpo
 62
     3
370
    -2
100
AcDbBlockReference
  2
_OPEN30
 10
2709.789173721434
 20
968.8037665124575
 30
0.0
 41
2.0
 42
2.0
 43
2.0
 50
180.0
  0
INSERT
  5
40DF
330
2D20
100
AcDbEntity
  8
sunpo
 62
     3
370
    -2
100
AcDbBlockReference
  2
_OPEN30
 10
2706.789173721434
 20
968.8037665124575
 30
0.0
 41
2.0
 42
2.0
 43
2.0
  0
POINT
  5
40E0
330
2D20
100
AcDbEntity
  8
DEFPOINTS
 62
     0
100
AcDbPoint
 10
2709.789173721434
 20
968.803766512458
 30
0.0
  0
POINT
  5
40E1
330
2D20
100
AcDbEntity
  8
DEFPOINTS
 62
     0
100
AcDbPoint
 10
2706.789173721434
 20
968.8037665124575
 30
0.0
  0
POINT
  5
40E2
330
2D20
100
AcDbEntity
  8
DEFPOINTS
 62
     0
100
AcDbPoint
 10
2706.789173721434
 20
968.8037665124575
 30
0.0
  0
ENDBLK
  5
2D30
330
2D20
100
AcDbEntity
  8
0
100
AcDbBlockEnd
  0
BLOCK
  5
2D6E
330
2D64
100
AcDbEntity
  8
0
100
AcDbBlockBegin
  2
*D17
 70
     1
 10
0.0
 20
0.0
 30
0.0
  3
*D17
  1

  0
LINE
  5
40F7
330
2D64
100
AcDbEntity
  8
sunpo
 62
     3
370
    -2
100
AcDbLine
 10
2687.723881238516
 20
932.3260473190968
 30
0.0
 11
2688.023881238516
 21
932.3260473190968
 31
0.0
  0
LINE
  5
40F8
330
2D64
100
AcDbEntity
  8
sunpo
 62
     3
370
    -2
100
AcDbLine
 10
2687.723881238516
 20
949.326047319097
 30
0.0
 11
2688.023881238516
 21
949.326047319097
 31
0.0
  0
LINE
  5
40F9
330
2D64
100
AcDbEntity
  8
sunpo
 62
     3
370
    -2
100
AcDbLine
 10
2688.723881238516
 20
934.3260473190969
 30
0.0
 11
2688.723881238516
 21
947.3260473190968
 31
0.0
  0
INSERT
  5
40FA
330
2D64
100
AcDbEntity
  8
sunpo
 62
     3
370
    -2
100
AcDbBlockReference
  2
_OPEN30
 10
2688.723881238516
 20
932.3260473190968
 30
0.0
 41
2.0
 42
2.0
 43
2.0
 50
270.0
  0
INSERT
  5
40FB
330
2D64
100
AcDbEntity
  8
sunpo
 62
     3
370
    -2
100
AcDbBlockReference
  2
_OPEN30
 10
2688.723881238516
 20
949.326047319097
 30
0.0
 41
2.0
 42
2.0
 43
2.0
 50
90.0
  0
MTEXT
  5
40FC
330
2D64
100
AcDbEntity
  8
sunpo
 62
     3
100
AcDbMText
 10
2686.473881238516
 20
940.8260473190974
 30
0.0
 40
2.5
 41
0.0
 71
     5
 72
     1
  1
\A1;17
  7
MSP明朝W1
 11
0.0000000000000001
 21
1.0
 31
0.0
 73
     1
 44
1.0
  0
POINT
  5
40FD
330
2D64
100
AcDbEntity
  8
DEFPOINTS
 62
     0
100
AcDbPoint
 10
2688.723881238516
 20
932.3260473190968
 30
0.0
  0
POINT
  5
40FE
330
2D64
100
AcDbEntity
  8
DEFPOINTS
 62
     0
100
AcDbPoint
 10
2688.723881238516
 20
949.326047319097
 30
0.0
  0
POINT
  5
40FF
330
2D64
100
AcDbEntity
  8
DEFPOINTS
 62
     0
100
AcDbPoint
 10
2688.723881238516
 20
949.326047319097
 30
0.0
  0
ENDBLK
  5
2D6F
330
2D64
100
AcDbEntity
  8
0
100
AcDbBlockEnd
  0
BLOCK
  5
2D80
330
2D71
100
AcDbEntity
  8
0
100
AcDbBlockBegin
  2
*D18
 70
     1
 10
0.0
 20
0.0
 30
0.0
  3
*D18
  1

  0
LINE
  5
40EC
330
2D71
100
AcDbEntity
  8
sunpo
 62
     3
370
    -2
100
AcDbLine
 10
2687.723881238516
 20
949.326047319097
 30
0.0
 11
2688.023881238516
 21
949.326047319097
 31
0.0
  0
LINE
  5
40ED
330
2D71
100
AcDbEntity
  8
sunpo
 62
     3
370
    -2
100
AcDbLine
 10
2687.723881238516
 20
952.3260473190971
 30
0.0
 11
2688.023881238516
 21
952.3260473190971
 31
0.0
  0
LINE
  5
40EE
330
2D71
100
AcDbEntity
  8
sunpo
 62
     3
370
    -2
100
AcDbLine
 10
2688.723881238516
 20
947.3260473190968
 30
0.0
 11
2688.723881238516
 21
945.3260473190969
 31
0.0
  0
LINE
  5
40EF
330
2D71
100
AcDbEntity
  8
sunpo
 62
     3
370
    -2
100
AcDbLine
 10
2688.723881238516
 20
954.326047319097
 30
0.0
 11
2688.723881238516
 21
956.3260473190972
 31
0.0
  0
MTEXT
  5
40F0
330
2D71
100
AcDbEntity
  8
sunpo
 62
     3
100
AcDbMText
 10
2686.666591716933
 20
950.8565411599839
 30
0.0
 40
2.5
 41
0.0
 71
     5
 72
     1
  1
\A1;3
  7
MSP明朝W1
 11
0.0000000000000001
 21
1.0
 31
0.0
 73
     1
 44
1.0
  0
LINE
  5
40F1
330
2D71
100
AcDbEntity
  8
sunpo
 62
     3
370
    -2
100
AcDbLine
 10
2688.723881238516
 20
949.326047319097
 30
0.0
 11
2688.723881238516
 21
952.3260473190971
 31
0.0
  0
INSERT
  5
40F2
330
2D71
100
AcDbEntity
  8
sunpo
 62
     3
370
    -2
100
AcDbBlockReference
  2
_OPEN30
 10
2688.723881238516
 20
949.326047319097
 30
0.0
 41
2.0
 42
2.0
 43
2.0
 50
90.0
  0
INSERT
  5
40F3
330
2D71
100
AcDbEntity
  8
sunpo
 62
     3
370
    -2
100
AcDbBlockReference
  2
_OPEN30
 10
2688.723881238516
 20
952.3260473190971
 30
0.0
 41
2.0
 42
2.0
 43
2.0
 50
270.0
  0
POINT
  5
40F4
330
2D71
100
AcDbEntity
  8
DEFPOINTS
 62
     0
100
AcDbPoint
 10
2688.723881238516
 20
949.326047319097
 30
0.0
  0
POINT
  5
40F5
330
2D71
100
AcDbEntity
  8
DEFPOINTS
 62
     0
100
AcDbPoint
 10
2688.723881238516
 20
952.3260473190971
 30
0.0
  0
POINT
  5
40F6
330
2D71
100
AcDbEntity
  8
DEFPOINTS
 62
     0
100
AcDbPoint
 10
2688.723881238516
 20
952.3260473190971
 30
0.0
  0
ENDBLK
  5
2D81
330
2D71
100
AcDbEntity
  8
0
100
AcDbBlockEnd
  0
ENDSEC
  0
SECTION
  2
ENTITIES
  0
MTEXT
  5
1422
330
18
100
AcDbEntity
  8
0
 62
     3
100
AcDbMText
 10
2255.387085609579
 20
2104.565198799706
 30
0.0
 40
2.5
 41
0.0
 71
     6
 72
     1
  1
 
  7
TYPE1
 73
     1
 44
1.0
1001
ACAD
1000
MTEXTBEGIN
1070
    73
1070
     1
1070
    44
1040
1.0
1070
    74
1070
     0
1000
MTEXTEND
1000
MTEXTBEGIN
1070
    73
1070
     1
1070
    44
1040
1.0
1070
    74
1070
     0
1000
MTEXTEND
  0
MTEXT
  5
1426
330
18
100
AcDbEntity
  8
0
 62
     3
100
AcDbMText
 10
2283.286084648451
 20
2105.815198799706
 30
0.0
 40
2.5
 41
0.0
 71
     4
 72
     1
  1
 
  7
TYPE1
 73
     1
 44
1.0
1001
ACAD
1000
MTEXTBEGIN
1070
    73
1070
     1
1070
    44
1040
1.0
1070
    74
1070
     0
1000
MTEXTEND
1000
MTEXTBEGIN
1070
    73
1070
     1
1070
    44
1040
1.0
1070
    74
1070
     0
1000
MTEXTEND
  0
MTEXT
  5
1B6A
330
18
100
AcDbEntity
  8
0
 62
     3
100
AcDbMText
 10
2255.387085609579
 20
2104.565198799706
 30
0.0
 40
2.5
 41
0.0
 71
     6
 72
     1
  1
 
  7
TYPE1
 73
     1
 44
1.0
1001
ACAD
1000
MTEXTBEGIN
1070
    73
1070
     1
1070
    44
1040
1.0
1070
    74
1070
     0
1000
MTEXTEND
1000
MTEXTBEGIN
1070
    73
1070
     1
1070
    44
1040
1.0
1070
    74
1070
     0
1000
MTEXTEND
  0
MTEXT
  5
1B6B
330
18
100
AcDbEntity
  8
0
 62
     3
100
AcDbMText
 10
2283.286084648451
 20
2105.815198799706
 30
0.0
 40
2.5
 41
0.0
 71
     4
 72
     1
  1
 
  7
TYPE1
 73
     1
 44
1.0
1001
ACAD
1000
MTEXTBEGIN
1070
    73
1070
     1
1070
    44
1040
1.0
1070
    74
1070
     0
1000
MTEXTEND
1000
MTEXTBEGIN
1070
    73
1070
     1
1070
    44
1040
1.0
1070
    74
1070
     0
1000
MTEXTEND
  0
MTEXT
  5
1B76
330
18
100
AcDbEntity
  8
0
 62
     3
100
AcDbMText
 10
2289.603684719001
 20
2105.815198799706
 30
0.0
 40
2.5
 41
0.0
 71
     4
 72
     1
  1
 
  7
TYPE1
 73
     1
 44
1.0
1001
ACAD
1000
MTEXTBEGIN
1070
    73
1070
     1
1070
    44
1040
1.0
1070
    74
1070
     0
1000
MTEXTEND
1000
MTEXTBEGIN
1070
    73
1070
     1
1070
    44
1040
1.0
1070
    74
1070
     0
1000
MTEXTEND
  0
LINE
  5
2062
330
18
100
AcDbEntity
  8
0
100
AcDbLine
 10
1211.890641387371
 20
1311.691266540527
 30
0.0
 11
1211.890641387371
 21
2281.691266540527
 31
0.0
  0
MTEXT
  5
2064
330
18
100
AcDbEntity
  8
0
 62
     3
100
AcDbMText
 10
2026.280695250808
 20
235.038877818257
 30
0.0
 40
2.5
 41
0.0
 71
     6
 72
     1
  1
 
  7
TYPE1
 73
     1
 44
1.0
1001
ACAD
1000
MTEXTBEGIN
1070
    73
1070
     1
1070
    44
1040
1.0
1070
    74
1070
     0
1000
MTEXTEND
1000
MTEXTBEGIN
1070
    73
1070
     1
1070
    44
1040
1.0
1070
    74
1070
     0
1000
MTEXTEND
  0
MTEXT
  5
2065
330
18
100
AcDbEntity
  8
0
 62
     3
100
AcDbMText
 10
2054.179694289679
 20
236.2888778182571
 30
0.0
 40
2.5
 41
0.0
 71
     4
 72
     1
  1
 
  7
TYPE1
 73
     1
 44
1.0
1001
ACAD
1000
MTEXTBEGIN
1070
    73
1070
     1
1070
    44
1040
1.0
1070
    74
1070
     0
1000
MTEXTEND
1000
MTEXTBEGIN
1070
    73
1070
     1
1070
    44
1040
1.0
1070
    74
1070
     0
1000
MTEXTEND
  0
LINE
  5
206A
330
18
100
AcDbEntity
  8
0
100
AcDbLine
 10
4061.89064138737
 20
1320.691266540527
 30
0.0
 11
4061.89064138737
 21
2272.691266540527
 31
0.0
  0
LINE
  5
2075
330
18
100
AcDbEntity
  8
0
100
AcDbLine
 10
1211.890641387371
 20
2281.691266540527
 30
0.0
 11
4052.89064138737
 21
2281.691266540527
 31
0.0
  0
LINE
  5
2078
330
18
100
AcDbEntity
  8
0
100
AcDbLine
 10
1211.890641387371
 20
1311.691266540527
 30
0.0
 11
4052.89064138737
 21
1311.691266540527
 31
0.0
  0
LINE
  5
2079
330
18
100
AcDbEntity
  8
sunpo
100
AcDbLine
 10
1905.804477233063
 20
2331.691266540527
 30
0.0
 11
1905.804477233063
 21
1234.771623776032
 31
0.0
  0
LINE
  5
207A
330
18
100
AcDbEntity
  8
sunpo
100
AcDbLine
 10
1905.804477233063
 20
2312.762433768403
 30
0.0
 11
1971.48018438172
 21
2312.762433768403
 31
0.0
  0
LINE
  5
207B
330
18
100
AcDbEntity
  8
sunpo
100
AcDbLine
 10
1905.804477233063
 20
2312.762433768403
 30
0.0
 11
1933.324751463402
 21
2321.360168649594
 31
0.0
  0
LINE
  5
207C
330
18
100
AcDbEntity
  8
sunpo
100
AcDbLine
 10
1933.324751463402
 20
2321.360168649594
 30
0.0
 11
1933.324751463402
 21
2307.155217772869
 31
0.0
  0
LINE
  5
207E
330
18
100
AcDbEntity
  8
sunpo
100
AcDbLine
 10
1905.804477233063
 20
1247.839398562705
 30
0.0
 11
1971.48018438172
 21
1247.839398562705
 31
0.0
  0
LINE
  5
207F
330
18
100
AcDbEntity
  8
sunpo
100
AcDbLine
 10
1905.804477233063
 20
1247.839398562705
 30
0.0
 11
1933.324751463402
 21
1256.437133443895
 31
0.0
  0
LINE
  5
2080
330
18
100
AcDbEntity
  8
sunpo
100
AcDbLine
 10
1933.324751463402
 20
1256.437133443895
 30
0.0
 11
1933.324751463402
 21
1242.23218256717
 31
0.0
  0
LINE
  5
2083
330
18
100
AcDbEntity
  8
sunpo
 62
     3
100
AcDbLine
 10
3946.190633210992
 20
1554.191266540527
 30
0.0
 11
4156.985104778783
 21
1554.191266540527
 31
0.0
  0
LINE
  5
2085
330
18
100
AcDbEntity
  8
sunpo
 62
     3
100
AcDbLine
 10
4135.428802637817
 20
1554.191266540527
 30
0.0
 11
4135.428802637817
 21
1488.51555939187
 31
0.0
  0
LINE
  5
2086
330
18
100
AcDbEntity
  8
sunpo
 62
     3
100
AcDbLine
 10
4135.428802637817
 20
1554.191266540527
 30
0.0
 11
4144.026537519009
 21
1526.670992310188
 31
0.0
  0
LINE
  5
2087
330
18
100
AcDbEntity
  8
sunpo
 62
     3
100
AcDbLine
 10
4144.026537519009
 20
1526.670992310188
 30
0.0
 11
4129.821586642283
 21
1526.670992310188
 31
0.0
  0
LINE
  5
2089
330
18
100
AcDbEntity
  8
sunpo
 62
     3
100
AcDbLine
 10
3958.483864495237
 20
1554.191266540527
 30
0.0
 11
3958.483864495237
 21
1488.51555939187
 31
0.0
  0
LINE
  5
208A
330
18
100
AcDbEntity
  8
sunpo
 62
     3
100
AcDbLine
 10
3958.483864495237
 20
1554.191266540527
 30
0.0
 11
3967.081599376427
 21
1526.670992310188
 31
0.0
  0
LINE
  5
208B
330
18
100
AcDbEntity
  8
sunpo
 62
     3
100
AcDbLine
 10
3967.081599376427
 20
1526.670992310188
 30
0.0
 11
3952.876648499703
 21
1526.670992310188
 31
0.0
  0
LINE
  5
262F
330
18
100
AcDbEntity
  8
sen-h
100
AcDbLine
 10
1211.890641387371
 20
2275.691266540528
 30
0.0
 11
4052.890641387371
 21
2275.691266540527
 31
0.0
  0
LINE
  5
2630
330
18
100
AcDbEntity
  8
sen-h
100
AcDbLine
 10
4055.890641387371
 20
1320.691266540528
 30
0.0
 11
4055.890641387371
 21
2272.691266540527
 31
0.0
  0
LINE
  5
2631
330
18
100
AcDbEntity
  8
sen-h
100
AcDbLine
 10
1211.890641387371
 20
1317.691266540527
 30
0.0
 11
4052.890641387371
 21
1317.691266540528
 31
0.0
  0
ARC
  5
2632
330
18
100
AcDbEntity
  8
sen-h
100
AcDbCircle
 10
4052.890641387371
 20
1320.691266540528
 30
0.0
 40
3.0
100
AcDbArc
 50
270.0
 51
0.0000000000000254
  0
ARC
  5
2633
330
18
100
AcDbEntity
  8
sen-h
100
AcDbCircle
 10
4052.890641387371
 20
2272.691266540527
 30
0.0
 40
3.0
100
AcDbArc
 50
0.0
 51
90.0
  0
ARC
  5
2634
330
18
100
AcDbEntity
  8
0
100
AcDbCircle
 10
4052.89064138737
 20
2272.691266540527
 30
0.0
 40
9.0
100
AcDbArc
 50
0.0
 51
90.0
  0
ARC
  5
2635
330
18
100
AcDbEntity
  8
0
100
AcDbCircle
 10
4052.89064138737
 20
1320.691266540527
 30
0.0
 40
9.0
100
AcDbArc
 50
270.0
 51
0.0
  0
LINE
  5
2636
330
18
100
AcDbEntity
  8
0
370
    18
100
AcDbLine
 10
1211.890641387371
 20
1328.691266540527
 30
0.0
 11
4044.890641387371
 21
1328.691266540527
 31
0.0
  0
LINE
  5
2637
330
18
100
AcDbEntity
  8
0
370
    18
100
AcDbLine
 10
1211.890641387371
 20
2264.691266540527
 30
0.0
 11
4044.89064138737
 21
2264.691266540527
 31
0.0
  0
LINE
  5
2638
330
18
100
AcDbEntity
  8
0
370
    18
100
AcDbLine
 10
4044.89064138737
 20
1328.691266540527
 30
0.0
 11
4044.89064138737
 21
2264.691266540527
 31
0.0
  0
LINE
  5
263C
330
18
100
AcDbEntity
  8
0
370
    18
100
AcDbLine
 10
4041.890641387372
 20
1331.691266540527
 30
0.0
 11
4044.89064138737
 21
1328.691266540527
 31
0.0
  0
LINE
  5
263D
330
18
100
AcDbEntity
  8
0
370
    18
100
AcDbLine
 10
4041.89064138737
 20
2261.691266540527
 30
0.0
 11
4044.89064138737
 21
2264.691266540527
 31
0.0
  0
DIMENSION
  5
268A
330
18
100
AcDbEntity
  8
sunpo
100
AcDbDimension
  2
*D1
 10
1125.969260296643
 20
1311.691266540527
 30
0.0
 11
1103.469260296642
 21
1796.691266540527
 31
0.0
 70
    32
 71
     5
 42
-1.0
  3
MSP明朝寸法10
100
AcDbAlignedDimension
 13
1211.890641387371
 23
2281.691266540527
 33
0.0
 14
1211.890641387371
 24
1311.691266540527
 34
0.0
 50
90.0
100
AcDbRotatedDimension
  0
LINE
  5
26F0
330
18
100
AcDbEntity
  8
0
100
AcDbLine
 10
2456.390731060464
 20
950.9822412660255
 30
0.0
 11
2449.119506974356
 21
950.9822412660255
 31
0.0
  0
LINE
  5
26F1
330
18
100
AcDbEntity
  8
0
100
AcDbLine
 10
2440.120877717948
 20
942.1393129239611
 30
0.0
 11
2439.54211887933
 21
908.982241266025
 31
0.0
  0
LINE
  5
26F2
330
18
100
AcDbEntity
  8
0
100
AcDbLine
 10
2445.54211887933
 20
908.982241266025
 30
0.0
 11
2439.54211887933
 21
908.982241266025
 31
0.0
  0
LINE
  5
26F4
330
18
100
AcDbEntity
  8
0
100
AcDbLine
 10
2445.54211887933
 20
908.9822412660252
 30
0.0
 11
2447.174988470834
 21
940.1392491347541
 31
0.0
  0
LINE
  5
26F5
330
18
100
AcDbEntity
  8
0
100
AcDbLine
 10
2486.727056254764
 20
942.9822412660254
 30
0.0
 11
2450.170877075098
 21
942.9822412660254
 31
0.0
  0
LINE
  5
26F6
330
18
100
AcDbEntity
  8
0
100
AcDbLine
 10
2487.041502930463
 20
948.9822412660252
 30
0.0
 11
2459.693506698195
 21
948.9822412660252
 31
0.0
  0
LINE
  5
26FA
330
18
100
AcDbEntity
  8
0
100
AcDbLine
 10
2456.668081158576
 20
950.8982664131945
 30
0.0
 11
2459.416156600083
 21
949.0662161188563
 31
0.0
  0
ARC
  5
26FB
330
18
100
AcDbEntity
  8
0
100
AcDbCircle
 10
2449.119506974356
 20
941.9822412660256
 30
0.0
 40
9.0
100
AcDbArc
 50
90.0
 51
178.9999999999999
  0
ARC
  5
26FC
330
18
100
AcDbEntity
  8
0
100
AcDbCircle
 10
2450.170877075098
 20
939.9822412660252
 30
0.0
 40
3.0
100
AcDbArc
 50
90.0
 51
176.9999999999998
  0
LINE
  5
2707
330
18
100
AcDbEntity
  8
0
100
AcDbLine
 10
2490.732545638756
 20
942.982241266025
 30
0.0
 11
2519.951553425689
 21
942.9822412660254
 31
0.0
  0
LINE
  5
2708
330
18
100
AcDbEntity
  8
0
100
AcDbLine
 10
2513.731699440323
 20
950.9822412660254
 30
0.0
 11
2521.002923526431
 21
950.9822412660255
 31
0.0
  0
LINE
  5
2709
330
18
100
AcDbEntity
  8
0
100
AcDbLine
 10
2524.580311621457
 20
908.9822412660252
 30
0.0
 11
2522.947442029953
 21
940.1392491347541
 31
0.0
  0
LINE
  5
270A
330
18
100
AcDbEntity
  8
0
100
AcDbLine
 10
2530.001552782838
 20
942.1393129239611
 30
0.0
 11
2530.580311621458
 21
908.982241266025
 31
0.0
  0
LINE
  5
270B
330
18
100
AcDbEntity
  8
0
100
AcDbLine
 10
2524.580311621457
 20
908.982241266025
 30
0.0
 11
2530.580311621458
 21
908.982241266025
 31
0.0
  0
ARC
  5
270C
330
18
100
AcDbEntity
  8
0
100
AcDbCircle
 10
2519.951553425689
 20
939.9822412660252
 30
0.0
 40
3.0
100
AcDbArc
 50
3.000000000000176
 51
90.0
  0
ARC
  5
270D
330
18
100
AcDbEntity
  8
0
100
AcDbCircle
 10
2521.002923526431
 20
941.9822412660256
 30
0.0
 40
9.0
100
AcDbArc
 50
1.000000000000021
 51
90.0
  0
LINE
  5
270E
330
18
100
AcDbEntity
  8
0
100
AcDbLine
 10
2491.046992314454
 20
948.9822412660252
 30
0.0
 11
2510.428923802591
 21
948.9822412660252
 31
0.0
  0
LINE
  5
270F
330
18
100
AcDbEntity
  8
0
100
AcDbLine
 10
2513.454349342211
 20
950.8982664131943
 30
0.0
 11
2510.706273900704
 21
949.0662161188563
 31
0.0
  0
LINE
  5
2710
330
18
100
AcDbEntity
  8
0
100
AcDbLine
 10
2487.522990838195
 20
958.1695778469484
 30
0.0
 11
2486.255062219965
 21
933.9760585722396
 31
0.0
  0
LINE
  5
2711
330
18
100
AcDbEntity
  8
0
100
AcDbLine
 10
2491.528480222187
 20
958.1695778469484
 30
0.0
 11
2490.260551603957
 21
933.9760585722396
 31
0.0
  0
DIMENSION
  5
2723
330
18
100
AcDbEntity
  8
sunpo
100
AcDbDimension
  2
*D2
 10
2445.54211887933
 20
899.0340427374995
 30
0.0
 11
2442.542118879329
 21
901.2840427374994
 31
0.0
 70
    32
 71
     5
 42
6.0
  3
MSP明朝寸法1
100
AcDbAlignedDimension
 13
2439.54211887933
 23
908.982241266025
 33
0.0
 14
2445.54211887933
 24
908.9822412660252
 34
0.0
100
AcDbRotatedDimension
  0
DIMENSION
  5
275E
330
18
100
AcDbEntity
  8
sunpo
100
AcDbDimension
  2
*D3
 10
2459.54211887933
 20
961.0124763720795
 30
0.0
 11
2449.54211887933
 21
963.2624763720796
 31
0.0
 70
    32
 71
     5
 42
20.0
  3
MSP明朝寸法1
100
AcDbAlignedDimension
 13
2439.54211887933
 23
950.9822412660255
 33
0.0
 14
2459.54211887933
 24
949.9822412660252
 34
0.0
100
AcDbRotatedDimension
  0
DIMENSION
  5
2840
330
18
100
AcDbEntity
  8
sunpo
100
AcDbDimension
  2
*D4
 10
2472.81090320527
 20
950.9822412660255
 30
0.0
 11
2472.81090320527
 21
956.6774659851271
 31
0.0
 70
   160
 71
     5
 42
2.000000000000227
  3
MSP明朝寸法1
100
AcDbAlignedDimension
 13
2472.81090320527
 23
948.9822412660252
 33
0.0
 14
2456.54211887933
 24
950.9822412660255
 34
0.0
 50
90.0
100
AcDbRotatedDimension
  0
DIMENSION
  5
2850
330
18
100
AcDbEntity
  8
sunpo
100
AcDbDimension
  2
*D5
 10
2472.81090320527
 20
942.9822412660254
 30
0.0
 11
2470.166926511319
 21
946.1617006340658
 31
0.0
 70
   160
  1
6
 71
     5
 42
6.0
  3
MSP明朝寸法1
100
AcDbAlignedDimension
 13
2472.81090320527
 23
948.9822412660252
 33
0.0
 14
2472.81090320527
 24
942.9822412660254
 34
0.0
 50
90.0
100
AcDbRotatedDimension
1001
ACAD
1000
DSTYLE
1002
{
1070
   287
1070
     5
1070
   287
1070
     5
1070
   279
1070
     2
1002
}
  0
DIMENSION
  5
285F
330
18
100
AcDbEntity
  8
sunpo
100
AcDbDimension
  2
*D6
 10
2472.81090320527
 20
908.9822412660252
 30
0.0
 11
2470.209779609764
 21
925.9822412660257
 31
0.0
 70
    32
  1
(<>)
 71
     5
 42
34.0
  3
MSP明朝寸法1
100
AcDbAlignedDimension
 13
2472.81090320527
 23
942.9822412660254
 33
0.0
 14
2445.54211887933
 24
908.9822412660252
 34
0.0
 50
90.0
100
AcDbRotatedDimension
1001
ACAD
1000
DSTYLE
1002
{
1070
   287
1070
     4
1070
   287
1070
     4
1070
   279
1070
     1
1002
}
  0
DIMENSION
  5
28B2
330
18
100
AcDbEntity
  8
sunpo
100
AcDbDimension
  2
*D7
 10
2530.580311621458
 20
889.0756462350319
 30
0.0
 11
2485.061215250393
 21
891.3256462350318
 31
0.0
 70
    32
  1
970
 71
     5
 42
91.03819274212765
  3
MSP明朝寸法1
100
AcDbAlignedDimension
 13
2439.54211887933
 23
908.982241266025
 33
0.0
 14
2530.580311621458
 24
908.982241266025
 34
0.0
100
AcDbRotatedDimension
  0
DIMENSION
  5
28C8
330
18
100
AcDbEntity
  8
sunpo
100
AcDbDimension
  2
*D8
 10
2524.580311621457
 20
899.0340427374995
 30
0.0
 11
2527.580311621457
 21
901.2840427374994
 31
0.0
 70
    32
 71
     5
 42
6.0
  3
MSP明朝寸法1
100
AcDbAlignedDimension
 13
2530.580311621458
 23
908.982241266025
 33
0.0
 14
2524.580311621457
 24
908.9822412660252
 34
0.0
 50
180.0
100
AcDbRotatedDimension
  0
LINE
  5
2A12
330
18
100
AcDbEntity
  8
0
100
AcDbLine
 10
2570.501940075021
 20
942.9822412660255
 30
0.0
 11
2608.768384153179
 21
942.9822412660254
 31
0.0
  0
DIMENSION
  5
2A13
330
18
100
AcDbEntity
  8
sunpo
100
AcDbDimension
  2
*D13
 10
2585.124966449917
 20
908.9822412660252
 30
0.0
 11
2582.523842854412
 21
925.9822412660257
 31
0.0
 70
    32
  1
(<>)
 71
     5
 42
34.0
  3
MSP明朝寸法1
100
AcDbAlignedDimension
 13
2585.124966449917
 23
942.9822412660254
 33
0.0
 14
2613.397142348948
 24
908.9822412660252
 34
0.0
 50
90.0
100
AcDbRotatedDimension
1001
ACAD
1000
DSTYLE
1002
{
1070
   287
1070
     4
1070
   287
1070
     4
1070
   279
1070
     1
1002
}
  0
LINE
  5
2A16
330
18
100
AcDbEntity
  8
0
100
AcDbLine
 10
2602.548530167814
 20
950.9822412660255
 30
0.0
 11
2609.819754253922
 21
950.9822412660255
 31
0.0
  0
DIMENSION
  5
2A18
330
18
100
AcDbEntity
  8
sunpo
100
AcDbDimension
  2
*D10
 10
2599.397142348948
 20
959.0805010294634
 30
0.0
 11
2609.397142348948
 21
961.3305010294634
 31
0.0
 70
    32
 71
     5
 42
20.00000000000045
  3
MSP明朝寸法1
100
AcDbAlignedDimension
 13
2619.397142348948
 23
950.9822412660255
 33
0.0
 14
2599.397142348948
 24
949.9822412660252
 34
0.0
 50
180.0
100
AcDbRotatedDimension
  0
LINE
  5
2A1A
330
18
100
AcDbEntity
  8
0
100
AcDbLine
 10
2618.818383510329
 20
942.1393129239611
 30
0.0
 11
2619.397142348948
 21
908.982241266025
 31
0.0
  0
LINE
  5
2A1B
330
18
100
AcDbEntity
  8
0
100
AcDbLine
 10
2613.397142348948
 20
908.9822412660252
 30
0.0
 11
2611.764272757444
 21
940.1392491347541
 31
0.0
  0
DIMENSION
  5
2A1C
330
18
100
AcDbEntity
  8
sunpo
100
AcDbDimension
  2
*D9
 10
2613.397142348948
 20
899.0340427374995
 30
0.0
 11
2616.397142348948
 21
901.2840427374994
 31
0.0
 70
    32
 71
     5
 42
6.0
  3
MSP明朝寸法1
100
AcDbAlignedDimension
 13
2619.397142348948
 23
908.982241266025
 33
0.0
 14
2613.397142348948
 24
908.9822412660252
 34
0.0
 50
180.0
100
AcDbRotatedDimension
  0
LINE
  5
2A1D
330
18
100
AcDbEntity
  8
0
100
AcDbLine
 10
2613.397142348948
 20
908.982241266025
 30
0.0
 11
2619.397142348948
 21
908.982241266025
 31
0.0
  0
ARC
  5
2A26
330
18
100
AcDbEntity
  8
0
100
AcDbCircle
 10
2608.768384153179
 20
939.9822412660252
 30
0.0
 40
3.0
100
AcDbArc
 50
3.000000000000176
 51
90.0
  0
ARC
  5
2A27
330
18
100
AcDbEntity
  8
0
100
AcDbCircle
 10
2609.819754253922
 20
941.9822412660256
 30
0.0
 40
9.0
100
AcDbArc
 50
1.000000000000021
 51
90.0
  0
LINE
  5
2A2F
330
18
100
AcDbEntity
  8
0
100
AcDbLine
 10
2568.068831474514
 20
948.9822412660252
 30
0.0
 11
2599.245754530082
 21
948.9822412660252
 31
0.0
  0
DIMENSION
  5
2A33
330
18
100
AcDbEntity
  8
sunpo
100
AcDbDimension
  2
*D12
 10
2585.124966449917
 20
942.9822412660254
 30
0.0
 11
2582.075681453918
 21
945.4993291556474
 31
0.0
 70
   160
  1
6
 71
     5
 42
6.0
  3
MSP明朝寸法1
100
AcDbAlignedDimension
 13
2585.124966449917
 23
948.9822412660252
 33
0.0
 14
2585.124966449917
 24
942.9822412660254
 34
0.0
 50
90.0
100
AcDbRotatedDimension
1001
ACAD
1000
DSTYLE
1002
{
1070
   287
1070
     5
1070
   287
1070
     5
1070
   279
1070
     2
1002
}
  0
DIMENSION
  5
2A34
330
18
100
AcDbEntity
  8
sunpo
100
AcDbDimension
  2
*D11
 10
2585.124966449917
 20
950.9822412660255
 30
0.0
 11
2585.124966449917
 21
956.6774659851271
 31
0.0
 70
   160
 71
     5
 42
2.000000000000227
  3
MSP明朝寸法1
100
AcDbAlignedDimension
 13
2585.124966449917
 23
948.9822412660252
 33
0.0
 14
2602.397142348948
 24
950.9822412660255
 34
0.0
 50
90.0
100
AcDbRotatedDimension
  0
LINE
  5
2A35
330
18
100
AcDbEntity
  8
0
100
AcDbLine
 10
2602.271180069701
 20
950.8982664131945
 30
0.0
 11
2599.523104628195
 21
949.0662161188563
 31
0.0
  0
LINE
  5
2B89
330
18
100
AcDbEntity
  8
sunpo
100
AcDbLine
 10
2569.411411761162
 20
955.1397288285006
 30
0.0
 11
2567.535703241917
 21
946.5371506490537
 31
0.0
  0
LINE
  5
2B8A
330
18
100
AcDbEntity
  8
sunpo
100
AcDbLine
 10
2567.535703241917
 20
946.5371506490537
 30
0.0
 11
2571.287120280408
 21
946.5371506490537
 31
0.0
  0
LINE
  5
2B8B
330
18
100
AcDbEntity
  8
sunpo
100
AcDbLine
 10
2571.287120280408
 20
946.5371506490537
 30
0.0
 11
2569.411411761162
 21
938.0448659873326
 31
0.0
  0
LINE
  5
2CAB
330
18
100
AcDbEntity
  8
0
370
    18
100
AcDbLine
 10
2682.53061121327
 20
952.3260473190971
 30
0.0
 11
2706.289173721434
 21
952.3260473190973
 31
0.0
  0
LINE
  5
2CAC
330
18
100
AcDbEntity
  8
0
370
    18
100
AcDbLine
 10
2682.530611213271
 20
949.326047319097
 30
0.0
 11
2709.289173721433
 21
949.326047319097
 31
0.0
  0
LINE
  5
2CAD
330
18
100
AcDbEntity
  8
0
100
AcDbLine
 10
2682.530611213271
 20
932.3260473190968
 30
0.0
 11
2717.789173721434
 21
932.3260473190968
 31
0.0
  0
LINE
  5
2CAE
330
18
100
AcDbEntity
  8
0
  6
HIDDEN2
 62
     6
370
    18
100
AcDbLine
 10
2682.530611213271
 20
938.3260473190974
 30
0.0
 11
2717.789173721434
 21
938.3260473190974
 31
0.0
  0
ARC
  5
2CAF
330
18
100
AcDbEntity
  8
0
100
AcDbCircle
 10
2717.789173721434
 20
941.326047319097
 30
0.0
 40
9.0
100
AcDbArc
 50
270.0
 51
0.0
  0
LINE
  5
2CB1
330
18
100
AcDbEntity
  8
0
370
    18
100
AcDbLine
 10
2706.789173721434
 20
952.8260473190973
 30
0.0
 11
2706.789173721434
 21
977.3445925766811
 31
0.0
  0
LINE
  5
2CB2
330
18
100
AcDbEntity
  8
0
370
    18
100
AcDbLine
 10
2709.789173721433
 20
949.8260473190969
 30
0.0
 11
2709.789173721434
 21
977.3445925766811
 31
0.0
  0
LINE
  5
2CB3
330
18
100
AcDbEntity
  8
0
100
AcDbLine
 10
2726.789173721434
 20
941.326047319097
 30
0.0
 11
2726.789173721434
 21
977.3445925766811
 31
0.0
  0
LINE
  5
2CB4
330
18
100
AcDbEntity
  8
0
  6
HIDDEN2
 62
     6
370
    18
100
AcDbLine
 10
2720.789173721434
 20
941.3260473190973
 30
0.0
 11
2720.789173721434
 21
977.3445925766811
 31
0.0
  0
LINE
  5
2CB7
330
18
100
AcDbEntity
  8
0
370
    18
100
AcDbLine
 10
2706.642727112027
 20
952.4724939285039
 30
0.0
 11
2709.642727112026
 21
949.4724939285038
 31
0.0
  0
ARC
  5
2CB8
330
18
100
AcDbEntity
  8
0
  6
HIDDEN2
 62
     6
370
    18
100
AcDbCircle
 10
2717.789173721434
 20
941.3260473190973
 30
0.0
 40
3.0
100
AcDbArc
 50
270.0
 51
0.0000000000000254
  0
DIMENSION
  5
2CC3
330
18
100
AcDbEntity
  8
sunpo
100
AcDbDimension
  2
*D14
 10
4061.89064138737
 20
1213.796921136545
 30
0.0
 11
2636.89064138737
 21
1236.296921136545
 31
0.0
 70
    32
 71
     5
 42
2849.999999999999
  3
MSP明朝寸法10
100
AcDbAlignedDimension
 13
1211.890641387371
 23
1311.691266540527
 33
0.0
 14
4061.89064138737
 24
1320.691266540527
 34
0.0
100
AcDbRotatedDimension
  0
TEXT
  5
2CED
330
18
100
AcDbEntity
  8
sunpo
100
AcDbText
 10
1950.296185696236
 20
2327.15123430159
 30
0.0
 40
25.0
  1
A
  7
MSP明朝W1
100
AcDbText
  0
TEXT
  5
2CEE
330
18
100
AcDbEntity
  8
sunpo
100
AcDbText
 10
1950.296185696236
 20
1265.812001920529
 30
0.0
 40
25.0
  1
A
  7
MSP明朝W1
100
AcDbText
  0
TEXT
  5
2CEF
330
18
100
AcDbEntity
  8
sunpo
 62
     3
100
AcDbText
 10
4148.932345332148
 20
1516.932929708463
 30
0.0
 40
25.0
  1
B
 50
270.0
  7
MSP明朝W1
100
AcDbText
  0
TEXT
  5
2CF0
330
18
100
AcDbEntity
  8
sunpo
 62
     3
100
AcDbText
 10
3973.3895704989
 20
1516.932929708463
 30
0.0
 40
25.0
  1
B
 50
270.0
  7
MSP明朝W1
100
AcDbText
  0
TEXT
  5
2CF1
330
18
100
AcDbEntity
  8
sunpo
 62
     3
100
AcDbText
 10
4188.546940434583
 20
1254.18790724792
 30
0.0
 40
25.0
  1
C部
  7
MSP明朝W1
100
AcDbText
  0
CIRCLE
  5
2CF2
330
18
100
AcDbEntity
  8
sunpo
100
AcDbCircle
 10
4044.89064138737
 20
1328.691266540527
 30
0.0
 40
93.1369248322793
  0
TEXT
  5
2CF4
330
18
100
AcDbEntity
  8
sunpo
 62
     3
100
AcDbText
 10
4137.453967381268
 20
2354.55343007717
 30
0.0
 40
25.0
  1
2-R9
  7
MSP明朝W1
100
AcDbText
  0
LEADER
  5
2CF5
330
18
100
AcDbEntity
  8
sunpo
100
AcDbLeader
  3
MSP明朝寸法10
 76
     2
 10
4059.254602418049
 20
2279.055227571206
 30
0.0
 10
4093.823367502159
 20
2340.823691604398
 30
0.0
1001
ACAD
1000
DSTYLE
1002
{
1070
     6
1000
OPEN30
1070
    77
1070
     0
1070
   147
1040
1.0
1070
   343
1005
33A
1002
}
  0
TEXT
  5
2D01
330
18
100
AcDbEntity
  8
sunpo
100
AcDbText
 10
1112.355084680979
 20
1876.67385703129
 30
0.0
 40
25.0
  1
(下)
 50
90.0
  7
MSP明朝W1
100
AcDbText
  0
ARC
  5
2D02
330
18
100
AcDbEntity
  8
0
370
    18
100
AcDbCircle
 10
2706.289173721434
 20
952.8260473190973
 30
0.0
 40
0.5
100
AcDbArc
 50
270.0
 51
0.0
  0
DIMENSION
  5
2D12
330
18
100
AcDbEntity
  8
sunpo
100
AcDbDimension
  2
*D15
 10
2709.789173721434
 20
968.8037665124575
 30
0.0
 11
2718.289173721434
 21
971.0537665124574
 31
0.0
 70
    32
 71
     5
 42
17.0
  3
MSP明朝寸法1
100
AcDbAlignedDimension
 13
2726.789173721434
 23
968.8037665124575
 33
0.0
 14
2709.789173721434
 24
968.803766512458
 34
0.0
100
AcDbRotatedDimension
  0
DIMENSION
  5
2D1F
330
18
100
AcDbEntity
  8
sunpo
100
AcDbDimension
  2
*D16
 10
2706.789173721434
 20
968.8037665124575
 30
0.0
 11
2708.294742285891
 21
971.1987804602676
 31
0.0
 70
   160
 71
     5
 42
3.0
  3
MSP明朝寸法1
100
AcDbAlignedDimension
 13
2709.789173721434
 23
968.803766512458
 33
0.0
 14
2706.789173721434
 24
968.8037665124575
 34
0.0
100
AcDbRotatedDimension
1001
ACAD
1000
DSTYLE
1002
{
1070
   287
1070
     5
1070
   287
1070
     5
1070
   279
1070
     2
1002
}
  0
LINE
  5
2D55
330
18
100
AcDbEntity
  8
sunpo
 62
     3
100
AcDbLine
 10
2731.89655552958
 20
929.2109902533047
 30
0.0
 11
2726.134265437551
 21
934.1594969460384
 31
0.0
  0
MTEXT
  5
2D56
330
18
100
AcDbEntity
  8
sunpo
 62
     3
100
AcDbMText
 10
2731.239940488611
 20
932.7406895985998
 30
0.0
 40
2.5
 41
0.0
 71
     5
 72
     1
  1
\A1;R9
  7
MSP明朝W1
 11
0.758644701465392
 21
-0.6515045793687764
 31
0.0
 73
     1
 44
1.0
1001
ACAD
1000
MTEXTBEGIN
1070
    73
1070
     1
1070
    44
1040
1.0
1070
    74
1070
     0
1000
MTEXTEND
1000
MTEXTBEGIN
1070
    73
1070
     1
1070
    44
1040
1.0
1070
    74
1070
     0
1000
MTEXTEND
  0
INSERT
  5
2D58
330
18
100
AcDbEntity
  8
sunpo
 62
     3
100
AcDbBlockReference
  2
_OPEN30
 10
2724.616976034621
 20
935.4625061047759
 30
0.0
 41
2.0
 42
2.0
 43
2.0
 50
139.344863006198
  0
DIMENSION
  5
2D63
330
18
100
AcDbEntity
  8
sunpo
100
AcDbDimension
  2
*D17
 10
2688.723881238516
 20
949.326047319097
 30
0.0
 11
2686.473881238516
 21
940.8260473190974
 31
0.0
 70
    32
 71
     5
 42
17.0
  3
MSP明朝寸法1
100
AcDbAlignedDimension
 13
2688.723881238516
 23
932.3260473190968
 33
0.0
 14
2688.723881238516
 24
949.326047319097
 34
0.0
 50
90.0
100
AcDbRotatedDimension
  0
DIMENSION
  5
2D70
330
18
100
AcDbEntity
  8
sunpo
100
AcDbDimension
  2
*D18
 10
2688.723881238516
 20
952.3260473190971
 30
0.0
 11
2686.666591716933
 21
950.8565411599839
 31
0.0
 70
   160
 71
     5
 42
3.000000000000227
  3
MSP明朝寸法1
100
AcDbAlignedDimension
 13
2688.723881238516
 23
949.326047319097
 33
0.0
 14
2688.723881238516
 24
952.3260473190971
 34
0.0
 50
90.0
100
AcDbRotatedDimension
1001
ACAD
1000
DSTYLE
1002
{
1070
   287
1070
     5
1070
   287
1070
     5
1070
   279
1070
     2
1002
}
  0
LEADER
  5
2D8E
330
18
100
AcDbEntity
  8
sunpo
100
AcDbLeader
  3
MSP明朝寸法10
 76
     2
 10
4128.607443418198
 20
1288.453573277841
 30
0.0
 10
4167.48610656312
 20
1244.494576783733
 30
0.0
1001
ACAD
1000
DSTYLE
1002
{
1070
     6
1000
OPEN30
1070
    77
1070
     0
1070
   147
1040
1.0
1070
   343
1005
33A
1002
}
  0
LINE
  5
2D8F
330
18
100
AcDbEntity
  8
sunpo
100
AcDbLine
 10
4167.48610656312
 20
1244.494576783733
 30
0.0
 11
4263.089371271756
 21
1244.494576783733
 31
0.0
  0
LINE
  5
2DAE
330
18
100
AcDbEntity
  8
sunpo
 62
     3
100
AcDbLine
 10
2439.54211887933
 20
908.982241266025
 30
0.0
 11
2428.806782289935
 21
908.982241266025
 31
0.0
  0
LINE
  5
2DAF
330
18
100
AcDbEntity
  8
sunpo
 62
     3
100
AcDbLine
 10
2449.119506974356
 20
950.9822412660255
 30
0.0
 11
2428.806782289935
 21
950.9822412660255
 31
0.0
  0
LINE
  5
2DB0
330
18
100
AcDbEntity
  8
sunpo
 62
     3
100
AcDbLine
 10
2429.506782289935
 20
910.982241266025
 30
0.0
 11
2429.506782289935
 21
948.9822412660256
 31
0.0
  0
INSERT
  5
2DB1
330
18
100
AcDbEntity
  8
sunpo
 62
     3
100
AcDbBlockReference
  2
_OPEN30
 10
2429.506782289935
 20
908.982241266025
 30
0.0
 41
2.0
 42
2.0
 43
2.0
 50
270.0
  0
INSERT
  5
2DB2
330
18
100
AcDbEntity
  8
sunpo
 62
     3
100
AcDbBlockReference
  2
_OPEN30
 10
2429.506782289935
 20
950.9822412660255
 30
0.0
 41
2.0
 42
2.0
 43
2.0
 50
90.0
  0
TEXT
  5
2DB4
330
18
100
AcDbEntity
  8
sunpo
 62
     3
100
AcDbText
 10
2428.506782289935
 20
925.2691805205618
 30
0.0
 40
2.5
  1
42
 50
90.0
  7
MSP明朝W1
100
AcDbText
  0
LINE
  5
2DB5
330
18
100
AcDbEntity
  8
sunpo
 62
     3
100
AcDbLine
 10
2619.397142348948
 20
908.982241266025
 30
0.0
 11
2634.656252447769
 21
908.982241266025
 31
0.0
  0
LINE
  5
2DB6
330
18
100
AcDbEntity
  8
sunpo
 62
     3
100
AcDbLine
 10
2609.819754253922
 20
950.9822412660255
 30
0.0
 11
2634.656252447769
 21
950.9822412660255
 31
0.0
  0
LINE
  5
2DB7
330
18
100
AcDbEntity
  8
sunpo
 62
     3
100
AcDbLine
 10
2633.956252447769
 20
910.982241266025
 30
0.0
 11
2633.956252447769
 21
948.9822412660256
 31
0.0
  0
INSERT
  5
2DB8
330
18
100
AcDbEntity
  8
sunpo
 62
     3
100
AcDbBlockReference
  2
_OPEN30
 10
2633.956252447769
 20
908.982241266025
 30
0.0
 41
2.0
 42
2.0
 43
2.0
 50
270.0
  0
INSERT
  5
2DB9
330
18
100
AcDbEntity
  8
sunpo
 62
     3
100
AcDbBlockReference
  2
_OPEN30
 10
2633.956252447769
 20
950.9822412660255
 30
0.0
 41
2.0
 42
2.0
 43
2.0
 50
90.0
  0
TEXT
  5
2DBC
330
18
100
AcDbEntity
  8
sunpo
 62
     3
100
AcDbText
 10
2632.661488060307
 20
928.5810158567697
 30
0.0
 40
2.5
  1
42
 50
90.0
  7
MSP明朝W1
100
AcDbText
  0
LINE
  5
2E52
330
18
100
AcDbEntity
  8
sunpo
100
AcDbLine
 10
2439.54211887933
 20
908.982241266025
 30
0.0
 11
2439.54211887933
 21
950.9822412660255
 31
0.0
  0
LINE
  5
2E95
330
18
100
AcDbEntity
  8
sunpo
100
AcDbLine
 10
2619.397142348948
 20
950.9822412660255
 30
0.0
 11
2619.397142348948
 21
908.982241266025
 31
0.0
  0
ARC
  5
2E96
330
18
100
AcDbEntity
  8
0
100
AcDbCircle
 10
2456.390731060464
 20
950.4822412660255
 30
0.0
 40
0.5
100
AcDbArc
 50
56.30993247401718
 51
90.0
  0
ARC
  5
2E97
330
18
100
AcDbEntity
  8
0
100
AcDbCircle
 10
2459.693506698195
 20
949.4822412660253
 30
0.0
 40
0.5
100
AcDbArc
 50
236.3099324740149
 51
270.0
  0
ARC
  5
2E98
330
18
100
AcDbEntity
  8
0
100
AcDbCircle
 10
2510.428923802591
 20
949.4822412660253
 30
0.0
 40
0.5
100
AcDbArc
 50
270.0
 51
303.6900675259827
  0
ARC
  5
2E99
330
18
100
AcDbEntity
  8
0
100
AcDbCircle
 10
2513.731699440323
 20
950.4822412660253
 30
0.0
 40
0.5
100
AcDbArc
 50
90.0
 51
123.690067525985
  0
ARC
  5
2E9B
330
18
100
AcDbEntity
  8
0
100
AcDbCircle
 10
2602.548530167814
 20
950.4822412660255
 30
0.0
 40
0.5
100
AcDbArc
 50
90.0
 51
123.690067525985
  0
LINE
  5
2F11
330
18
100
AcDbEntity
  8
0
370
    18
100
AcDbLine
 10
1211.890641387371
 20
1331.691266540527
 30
0.0
 11
4041.89064138737
 21
1331.691266540527
 31
0.0
  0
LINE
  5
2F12
330
18
100
AcDbEntity
  8
0
370
    18
100
AcDbLine
 10
4041.89064138737
 20
1331.691266540527
 30
0.0
 11
4041.89064138737
 21
2261.691266540527
 31
0.0
  0
LINE
  5
2F13
330
18
100
AcDbEntity
  8
0
370
    18
100
AcDbLine
 10
1211.890641387371
 20
2261.691266540527
 30
0.0
 11
4041.89064138737
 21
2261.691266540527
 31
0.0
  0
ARC
  5
2F15
330
18
100
AcDbEntity
  8
0
370
    18
100
AcDbCircle
 10
2709.289173721433
 20
949.8260473190969
 30
0.0
 40
0.5
100
AcDbArc
 50
270.0
 51
359.999999999999
  0
LINE
  5
5CF3
330
18
100
AcDbEntity
  8
sunpo
100
AcDbLine
 10
4093.823367502159
 20
2340.823691604398
 30
0.0
 11
4238.473518861185
 21
2340.823691604398
 31
0.0
  0
VIEWPORT
  5
4DD7
330
4DD6
100
AcDbEntity
 67
     1
  8
0
100
AcDbViewport
 10
316.9793181470355
 20
143.8260712917437
 30
0.0
 40
685.4992450382122
 41
306.1310731046716
 68
     1
 69
     1
 12
316.9793181470355
 22
143.8260712917437
 13
0.0
 23
0.0
 14
1.0
 24
1.0
 15
5.0
 25
5.0
 16
0.0
 26
0.0
 36
1.0
 17
0.0
 27
0.0
 37
0.0
 42
50.0
 43
0.0
 44
0.0
 45
306.1310731046716
 50
0.0
 51
0.0
 72
   100
 90
    32800
  1

281
     0
 71
     1
 74
     0
110
0.0
120
0.0
130
0.0
111
1.0
121
0.0
131
0.0
112
0.0
122
1.0
132
0.0
 79
     0
146
0.0
  0
TEXT
  5
4DD8
330
4DD6
100
AcDbEntity
 67
     1
  8
ﾃｷｽﾄ
  6
Continuous
 62
     3
100
AcDbText
 10
258.35400390625
 20
22.69371541341133
 30
0.0
 40
5.0468565623
  1
   
 41
0.6466754489000001
  7
BIGFONT
100
AcDbText
  0
TEXT
  5
4DD9
330
4DD6
100
AcDbEntity
 67
     1
  8
ﾃｷｽﾄ
 62
     3
100
AcDbText
 10
1047.0
 20
69.0
 30
0.0
 40
9.0
  1
 
100
AcDbText
  0
TEXT
  5
4DDA
330
4DD6
100
AcDbEntity
 67
     1
  8
ﾃｷｽﾄ
 62
     3
100
AcDbText
 10
1141.800048828125
 20
111.0
 30
0.0
 40
15.0
  1
 
 41
1.6
100
AcDbText
  0
TEXT
  5
4DDB
330
4DD6
100
AcDbEntity
 67
     1
  8
ﾃｷｽﾄ
 62
     3
100
AcDbText
 10
1141.800048828125
 20
87.0
 30
0.0
 40
15.0
  1
 
 41
1.6
100
AcDbText
  0
TEXT
  5
4DDC
330
4DD6
100
AcDbEntity
 67
     1
  8
ﾃｷｽﾄ
 62
     3
100
AcDbText
 10
774.0
 20
69.0
 30
0.0
 40
15.0
  1
 
 41
0.8
100
AcDbText
  0
TEXT
  5
4DDD
330
4DD6
100
AcDbEntity
 67
     1
  8
ﾃｷｽﾄ
 62
     3
100
AcDbText
 10
957.0
 20
69.0
 30
0.0
 40
15.0
  1
 
 41
0.8
100
AcDbText
  0
TEXT
  5
4DDE
330
4DD6
100
AcDbEntity
 67
     1
  8
ﾃｷｽﾄ
 62
     3
100
AcDbText
 10
957.0
 20
84.0
 30
0.0
 40
15.0
  1
 
 41
0.8
100
AcDbText
  0
TEXT
  5
4DDF
330
4DD6
100
AcDbEntity
 67
     1
  8
ﾃｷｽﾄ
 62
     3
100
AcDbText
 10
774.0
 20
105.0
 30
0.0
 40
15.0
  1
 
 41
0.8
100
AcDbText
  0
TEXT
  5
4DE0
330
4DD6
100
AcDbEntity
 67
     1
  8
ﾃｷｽﾄ
 62
     5
100
AcDbText
 10
258.0
 20
35.0
 30
0.0
 40
5.0
  1
     
 41
0.7
100
AcDbText
  0
LINE
  5
4DE1
330
4DD6
100
AcDbEntity
 67
     1
  8
0
 62
     3
100
AcDbLine
 10
59.99257458748639
 20
135.1115408900925
 30
0.0
 11
101.9252770491348
 21
135.1115408900925
 31
0.0
  0
LINE
  5
4DE2
330
4DD6
100
AcDbEntity
 67
     1
  8
0
 62
     3
100
AcDbLine
 10
59.99257458748639
 20
134.6115408900925
 30
0.0
 11
101.9252770491348
 21
134.6115408900925
 31
0.0
  0
VIEWPORT
  5
4DE3
330
4DD6
100
AcDbEntity
 67
     1
  8
view1
100
AcDbViewport
 10
207.8533620629124
 20
208.2977339771635
 30
0.0
 40
360.0526765205243
 41
138.1500002489429
 68
     2
 69
     2
 12
2624.984554305802
 22
1752.103995850791
 13
0.0
 23
0.0
 14
10.0
 24
10.0
 15
10.0
 25
10.0
 16
0.0
 26
0.0
 36
1.0
 17
0.0
 27
0.0
 37
0.0
 42
50.0
 43
0.0
 44
0.0
 45
1381.500005486717
 50
0.0
 51
0.0
 72
   100
 90
    32800
  1

281
     0
 71
     1
 74
     0
110
1000.0
120
1000.0
130
0.0
111
1.0
121
0.0
131
0.0
112
0.0
122
1.0
132
0.0
 79
     0
146
0.0
  0
VIEWPORT
  5
4DE4
330
4DD6
100
AcDbEntity
 67
     1
  8
view2
100
AcDbViewport
 10
207.8533620629124
 20
77.22273385269204
 30
0.0
 40
360.0526765205243
 41
124.0
 68
     3
 69
     3
 12
2592.539320565242
 22
926.0647031557198
 13
0.0
 23
0.0
 14
10.0
 24
10.0
 15
10.0
 25
10.0
 16
0.0
 26
0.0
 36
1.0
 17
0.0
 27
0.0
 37
0.0
 42
50.0
 43
0.0
 44
0.0
 45
124.0000013487136
 50
0.0
 51
0.0
 72
   100
 90
    32800
  1

281
     0
 71
     1
 74
     0
110
1000.0
120
1000.0
130
0.0
111
1.0
121
0.0
131
0.0
112
0.0
122
1.0
132
0.0
 79
     0
146
0.0
  0
LINE
  5
4DE5
330
4DD6
100
AcDbEntity
 67
     1
  8
0
 62
     3
100
AcDbLine
 10
47.74220840816451
 20
25.92595581233479
 30
0.0
 11
98.75767982857247
 21
25.92595581233479
 31
0.0
  0
LINE
  5
4DE6
330
4DD6
100
AcDbEntity
 67
     1
  8
0
 62
     3
100
AcDbLine
 10
47.74220840816451
 20
25.42595581233479
 30
0.0
 11
98.75767982857247
 21
25.42595581233479
 31
0.0
  0
MTEXT
  5
4DE7
330
4DD6
100
AcDbEntity
 67
     1
  8
0
 62
     3
100
AcDbMText
 10
48.44586951697602
 20
31.43703972619937
 30
0.0
 40
3.5
 41
0.0
 71
     1
 72
     5
  1
Ａ－Ａ断面　Ｓ＝（１／１）
  7
MSP明朝W1
 73
     1
 44
1.0
1001
ACAD
1000
MTEXTBEGIN
1070
    73
1070
     1
1070
    44
1040
1.0
1070
    74
1070
     0
1000
MTEXTEND
1000
MTEXTBEGIN
1070
    73
1070
     1
1070
    44
1040
1.0
1070
    74
1070
     0
1000
MTEXTEND
  0
LINE
  5
4DE8
330
4DD6
100
AcDbEntity
 67
     1
  8
0
 62
     3
100
AcDbLine
 10
187.654122748811
 20
25.92595581233479
 30
0.0
 11
238.6695941692189
 21
25.92595581233479
 31
0.0
  0
LINE
  5
4DE9
330
4DD6
100
AcDbEntity
 67
     1
  8
0
 62
     3
100
AcDbLine
 10
187.654122748811
 20
25.42595581233479
 30
0.0
 11
238.6695941692189
 21
25.42595581233479
 31
0.0
  0
LINE
  5
4DEA
330
4DD6
100
AcDbEntity
 67
     1
  8
ﾀｲﾄﾙ枠
  6
Continuous
 62
     5
100
AcDbLine
 10
407.8287006091889
 20
5.222733852692044
 30
0.0
 11
21.8287006091889
 21
5.222733852692044
 31
0.0
  0
LINE
  5
4DEB
330
4DD6
100
AcDbEntity
 67
     1
  8
ﾀｲﾄﾙ枠
  6
Continuous
 62
     5
100
AcDbLine
 10
21.8287006091889
 20
285.222733852692
 30
0.0
 11
407.8287006091889
 21
285.222733852692
 31
0.0
  0
LINE
  5
4DEC
330
4DD6
100
AcDbEntity
 67
     1
  8
0
 62
     5
100
AcDbLine
 10
21.8287006091889
 20
285.222733852692
 30
0.0
 11
21.8287006091889
 21
5.222733852692044
 31
0.0
  0
LINE
  5
4DED
330
4DD6
100
AcDbEntity
 67
     1
  8
ﾀｲﾄﾙ枠
  6
Continuous
 62
     5
100
AcDbLine
 10
407.8287006091889
 20
285.222733852692
 30
0.0
 11
407.8287006091889
 21
5.222733852692044
 31
0.0
  0
TEXT
  5
4DF5
330
4DD6
100
AcDbEntity
 67
     1
  8
0
100
AcDbText
 10
335.4999999999999
 20
46.23430648127306
 30
0.0
 40
4.0
  1

  7
MSP明朝W1
 72
     4
 11
335.4999999999999
 21
46.23430648127306
 31
0.0
100
AcDbText
  0
TEXT
  5
4F40
330
4DD6
100
AcDbEntity
 67
     1
  8
0
 62
     3
100
AcDbText
 10
59.69623569629789
 20
136.493411320811
 30
0.0
 40
3.5
  1
平面図　Ｓ＝（１／10）
  7
MSP明朝W1
100
AcDbText
  0
LINE
  5
4F41
330
4DD6
100
AcDbEntity
 67
     1
  8
0
 62
     3
100
AcDbLine
 10
295.654122748811
 20
56.42595581233479
 30
0.0
 11
348.6695941692189
 21
56.42595581233479
 31
0.0
  0
LINE
  5
4F42
330
4DD6
100
AcDbEntity
 67
     1
  8
0
 62
     3
100
AcDbLine
 10
295.654122748811
 20
56.92595581233479
 30
0.0
 11
348.6695941692189
 21
56.92595581233479
 31
0.0
  0
TEXT
  5
4F43
330
4DD6
100
AcDbEntity
 67
     1
  8
0
 62
     3
100
AcDbText
 10
188.3577838576225
 20
27.30782624305328
 30
0.0
 40
3.5
  1
Ｂ－Ｂ断面　Ｓ＝（１／１）
  7
MSP明朝W1
100
AcDbText
  0
TEXT
  5
4F44
330
4DD6
100
AcDbEntity
 67
     1
  8
0
 62
     3
100
AcDbText
 10
296.3577838576225
 20
58.30782624305332
 30
0.0
 40
3.5
  1
C部詳細図　Ｓ＝（１／１）
  7
MSP明朝W1
100
AcDbText
  0
TEXT
  5
5BA8
330
4DD6
100
AcDbEntity
 67
     1
  8
0
100
AcDbText
 10
338.4025993379002
 20
21.09824042049553
 30
0.0
 40
3.5
  1
SFB970 ｶｳﾝﾀｰ
  7
MSP明朝W1
 72
     4
 11
354.8113072030687
 21
22.76958873510227
 31
0.0
100
AcDbText
  0
LINE
  5
5BA9
330
4DD6
100
AcDbEntity
 67
     1
  8
ﾀｲﾄﾙ枠
  6
Continuous
370
    40
100
AcDbLine
 10
342.3400364958603
 20
8.682381519636692
 30
0.0
 11
337.3800364958603
 21
8.682381519636692
 31
0.0
  0
LINE
  5
5BAA
330
4DD6
100
AcDbEntity
 67
     1
  8
ﾀｲﾄﾙ枠
  6
Continuous
370
    40
100
AcDbLine
 10
338.3100364958603
 20
8.832381519636669
 30
0.0
 11
341.4100364958602
 21
8.832381519636669
 31
0.0
  0
LINE
  5
5BAB
330
4DD6
100
AcDbEntity
 67
     1
  8
ﾀｲﾄﾙ枠
  6
Continuous
370
    40
100
AcDbLine
 10
337.3800364958603
 20
10.65238151963671
 30
0.0
 11
342.3400364958603
 21
10.65238151963671
 31
0.0
  0
LINE
  5
5BAC
330
4DD6
100
AcDbEntity
 67
     1
  8
ﾀｲﾄﾙ枠
  6
Continuous
370
    40
100
AcDbLine
 10
341.4100364958602
 20
10.50238151963668
 30
0.0
 11
338.3100364958603
 21
10.50238151963668
 31
0.0
  0
LINE
  5
5BAD
330
4DD6
100
AcDbEntity
 67
     1
  8
ﾀｲﾄﾙ枠
  6
Continuous
370
    40
100
AcDbLine
 10
342.3400364958603
 20
11.5423815196367
 30
0.0
 11
337.3800364958603
 21
11.5423815196367
 31
0.0
  0
LINE
  5
5BAE
330
4DD6
100
AcDbEntity
 67
     1
  8
ﾀｲﾄﾙ枠
  6
Continuous
370
    40
100
AcDbLine
 10
339.3950364958602
 20
13.77238151963672
 30
0.0
 11
340.3250364958602
 21
13.77238151963672
 31
0.0
  0
LINE
  5
5BAF
330
4DD6
100
AcDbEntity
 67
     1
  8
ﾀｲﾄﾙ枠
100
AcDbLine
 10
322.8287006091889
 20
17.22273385269204
 30
0.0
 11
407.8287006091889
 21
17.22273385269204
 31
0.0
  0
LINE
  5
5BB0
330
4DD6
100
AcDbEntity
 67
     1
  8
ﾀｲﾄﾙ枠
100
AcDbLine
 10
322.8287006091889
 20
29.22273385269204
 30
0.0
 11
407.8287006091889
 21
29.22273385269204
 31
0.0
  0
LINE
  5
5BB1
330
4DD6
100
AcDbEntity
 67
     1
  8
ﾀｲﾄﾙ枠
100
AcDbLine
 10
322.8287006091889
 20
5.222733852692044
 30
0.0
 11
322.8287006091889
 21
29.22273385269204
 31
0.0
  0
LINE
  5
5BB2
330
4DD6
100
AcDbEntity
 67
     1
  8
ﾀｲﾄﾙ枠
  6
Continuous
370
    40
100
AcDbLine
 10
339.3950364958602
 20
11.69238151963668
 30
0.0
 11
339.3950364958602
 21
12.71238151963672
 31
0.0
  0
LINE
  5
5BB3
330
4DD6
100
AcDbEntity
 67
     1
  8
ﾀｲﾄﾙ枠
  6
Continuous
370
    40
100
AcDbLine
 10
339.3950364958602
 20
12.8623815196367
 30
0.0
 11
339.3950364958602
 21
13.77238151963672
 31
0.0
  0
LINE
  5
5BB4
330
4DD6
100
AcDbEntity
 67
     1
  8
ﾀｲﾄﾙ枠
  6
Continuous
370
    40
100
AcDbLine
 10
339.8600364958602
 20
11.7923815196367
 30
0.0
 11
339.8600364958602
 21
13.52238151963672
 31
0.0
  0
LINE
  5
5BB5
330
4DD6
100
AcDbEntity
 67
     1
  8
ﾀｲﾄﾙ枠
  6
Continuous
370
    40
100
AcDbLine
 10
339.6600364958602
 20
11.7923815196367
 30
0.0
 11
339.6600364958602
 21
13.52238151963672
 31
0.0
  0
LINE
  5
5BB6
330
4DD6
100
AcDbEntity
 67
     1
  8
ﾀｲﾄﾙ枠
  6
Continuous
370
    40
100
AcDbLine
 10
337.3800364958603
 20
11.5423815196367
 30
0.0
 11
337.3800364958603
 21
11.69238151963668
 31
0.0
  0
LINE
  5
5BB7
330
4DD6
100
AcDbEntity
 67
     1
  8
ﾀｲﾄﾙ枠
  6
Continuous
370
    40
100
AcDbLine
 10
336.8600364958603
 20
12.71238151963672
 30
0.0
 11
336.8600364958603
 21
12.8623815196367
 31
0.0
  0
LINE
  5
5BB8
330
4DD6
100
AcDbEntity
 67
     1
  8
ﾀｲﾄﾙ枠
  6
Continuous
370
    40
100
AcDbLine
 10
337.3800364958603
 20
8.682381519636692
 30
0.0
 11
337.3800364958603
 21
10.65238151963671
 31
0.0
  0
LINE
  5
5BB9
330
4DD6
100
AcDbEntity
 67
     1
  8
ﾀｲﾄﾙ枠
  6
Continuous
370
    40
100
AcDbLine
 10
338.3100364958603
 20
10.50238151963668
 30
0.0
 11
338.3100364958603
 21
8.832381519636669
 31
0.0
  0
LINE
  5
5BBA
330
4DD6
100
AcDbEntity
 67
     1
  8
ﾀｲﾄﾙ枠
  6
Continuous
370
    40
100
AcDbLine
 10
337.8450364958603
 20
10.50238151963668
 30
0.0
 11
337.8450364958603
 21
8.832381519636669
 31
0.0
  0
LINE
  5
5BBB
330
4DD6
100
AcDbEntity
 67
     1
  8
ﾀｲﾄﾙ枠
  6
Continuous
370
    40
100
AcDbLine
 10
338.0450364958603
 20
10.50238151963668
 30
0.0
 11
338.0450364958603
 21
8.832381519636669
 31
0.0
  0
LINE
  5
5BBC
330
4DD6
100
AcDbEntity
 67
     1
  8
ﾀｲﾄﾙ枠
  6
Continuous
370
    40
100
AcDbLine
 10
337.6450364958602
 20
10.50238151963668
 30
0.0
 11
337.6450364958602
 21
8.832381519636669
 31
0.0
  0
LINE
  5
5BBD
330
4DD6
100
AcDbEntity
 67
     1
  8
ﾀｲﾄﾙ枠
  6
Continuous
370
    40
100
AcDbLine
 10
337.3800364958603
 20
11.69238151963668
 30
0.0
 11
339.3950364958602
 21
11.69238151963668
 31
0.0
  0
LINE
  5
5BBE
330
4DD6
100
AcDbEntity
 67
     1
  8
ﾀｲﾄﾙ枠
  6
Continuous
370
    40
100
AcDbLine
 10
339.3950364958602
 20
12.71238151963672
 30
0.0
 11
336.8600364958603
 21
12.71238151963672
 31
0.0
  0
LINE
  5
5BBF
330
4DD6
100
AcDbEntity
 67
     1
  8
ﾀｲﾄﾙ枠
  6
Continuous
370
    40
100
AcDbLine
 10
336.8600364958603
 20
12.8623815196367
 30
0.0
 11
339.3950364958602
 21
12.8623815196367
 31
0.0
  0
MTEXT
  5
5BC0
330
4DD6
100
AcDbEntity
 67
     1
  8
ﾀｲﾄﾙ枠
370
    30
100
AcDbMText
 10
324.5243714864034
 20
28.08205447989678
 30
0.0
 40
2.5
 41
11.5
 71
     1
 72
     5
  1
{\fＭＳ Ｐ明朝|b0|i0|c128|p18;製品名}
 73
     1
 44
1.0
1001
ACAD
1000
MTEXTBEGIN
1070
    73
1070
     1
1070
    44
1040
1.0
1070
    74
1070
     0
1000
MTEXTEND
1000
MTEXTBEGIN
1070
    73
1070
     1
1070
    44
1040
1.0
1070
    74
1070
     0
1000
MTEXTEND
  0
TEXT
  5
5BC1
330
4DD6
100
AcDbEntity
 67
     1
  8
0
100
AcDbText
 10
386.1234879816903
 20
21.22964592181196
 30
0.0
 40
3.5
  1
1/10, 1/1
  7
MSP明朝W1
 72
     4
 11
396.4661846109038
 21
22.87149985439623
 31
0.0
100
AcDbText
  0
LINE
  5
5BC2
330
4DD6
100
AcDbEntity
 67
     1
  8
ﾀｲﾄﾙ枠
  6
Continuous
370
    40
100
AcDbLine
 10
372.7492863788192
 20
8.682381519636692
 30
0.0
 11
372.3114061868716
 21
8.682381519636692
 31
0.0
  0
LINE
  5
5BC3
330
4DD6
100
AcDbEntity
 67
     1
  8
ﾀｲﾄﾙ枠
  6
Continuous
370
    40
100
AcDbLine
 10
372.1567863788192
 20
10.26238151963667
 30
0.0
 11
372.7492863788192
 21
8.682381519636692
 31
0.0
  0
LINE
  5
5BC4
330
4DD6
100
AcDbEntity
 67
     1
  8
ﾀｲﾄﾙ枠
  6
Continuous
370
    40
100
AcDbLine
 10
357.8600364958603
 20
10.78238151963671
 30
0.0
 11
356.0400364958602
 21
10.78238151963671
 31
0.0
  0
LINE
  5
5BC5
330
4DD6
100
AcDbEntity
 67
     1
  8
ﾀｲﾄﾙ枠
  6
Continuous
370
    40
100
AcDbLine
 10
356.0400364958602
 20
10.76238151963667
 30
0.0
 11
357.8600364958603
 21
10.76238151963667
 31
0.0
  0
LINE
  5
5BC6
330
4DD6
100
AcDbEntity
 67
     1
  8
ﾀｲﾄﾙ枠
  6
Continuous
370
    40
100
AcDbLine
 10
357.8600364958603
 20
13.12238151963668
 30
0.0
 11
355.6500364958602
 21
13.12238151963668
 31
0.0
  0
LINE
  5
5BC7
330
4DD6
100
AcDbEntity
 67
     1
  8
ﾀｲﾄﾙ枠
  6
Continuous
370
    40
100
AcDbLine
 10
357.8600364958603
 20
8.702381519636674
 30
0.0
 11
356.0400364958602
 21
8.702381519636674
 31
0.0
  0
LINE
  5
5BC8
330
4DD6
100
AcDbEntity
 67
     1
  8
ﾀｲﾄﾙ枠
  6
Continuous
370
    40
100
AcDbLine
 10
356.0400364958602
 20
9.722381519636712
 30
0.0
 11
357.6000364958602
 21
9.722381519636712
 31
0.0
  0
LINE
  5
5BC9
330
4DD6
100
AcDbEntity
 67
     1
  8
ﾀｲﾄﾙ枠
  6
Continuous
370
    40
100
AcDbLine
 10
357.6000364958602
 20
9.742381519636694
 30
0.0
 11
356.0400364958602
 21
9.742381519636694
 31
0.0
  0
LINE
  5
5BCA
330
4DD6
100
AcDbEntity
 67
     1
  8
ﾀｲﾄﾙ枠
  6
Continuous
370
    40
100
AcDbLine
 10
353.4200364958602
 20
8.682381519636692
 30
0.0
 11
357.8600364958603
 21
8.682381519636692
 31
0.0
  0
LINE
  5
5BCB
330
4DD6
100
AcDbEntity
 67
     1
  8
ﾀｲﾄﾙ枠
  6
Continuous
370
    40
100
AcDbLine
 10
352.9069193956732
 20
11.93238151963669
 30
0.0
 11
357.8600364958603
 21
11.93238151963669
 31
0.0
  0
LINE
  5
5BCC
330
4DD6
100
AcDbEntity
 67
     1
  8
ﾀｲﾄﾙ枠
  6
Continuous
370
    40
100
AcDbLine
 10
356.2495449930476
 20
11.95238151963667
 30
0.0
 11
356.8245449930476
 21
13.1023815196367
 31
0.0
  0
LINE
  5
5BCD
330
4DD6
100
AcDbEntity
 67
     1
  8
ﾀｲﾄﾙ枠
  6
Continuous
370
    40
100
AcDbLine
 10
356.8245449930476
 20
13.1023815196367
 30
0.0
 11
353.6755279986729
 21
13.1023815196367
 31
0.0
  0
LINE
  5
5BCE
330
4DD6
100
AcDbEntity
 67
     1
  8
ﾀｲﾄﾙ枠
  6
Continuous
370
    40
100
AcDbLine
 10
347.8250364958602
 20
12.58238151963666
 30
0.0
 11
350.3600364958602
 21
12.58238151963666
 31
0.0
  0
LINE
  5
5BCF
330
4DD6
100
AcDbEntity
 67
     1
  8
ﾀｲﾄﾙ枠
  6
Continuous
370
    40
100
AcDbLine
 10
350.3600364958602
 20
12.7323815196367
 30
0.0
 11
347.8250364958602
 21
12.7323815196367
 31
0.0
  0
LINE
  5
5BD0
330
4DD6
100
AcDbEntity
 67
     1
  8
ﾀｲﾄﾙ枠
  6
Continuous
370
    40
100
AcDbLine
 10
350.3600364958602
 20
9.738268192731709
 30
0.0
 11
347.8250364958602
 21
12.07826819273168
 31
0.0
  0
LINE
  5
5BD1
330
4DD6
100
AcDbEntity
 67
     1
  8
ﾀｲﾄﾙ枠
  6
Continuous
370
    40
100
AcDbLine
 10
347.8250364958602
 20
11.34337778911668
 30
0.0
 11
350.3600364958602
 21
9.003377789116711
 31
0.0
  0
LINE
  5
5BD2
330
4DD6
100
AcDbEntity
 67
     1
  8
ﾀｲﾄﾙ枠
  6
Continuous
370
    40
100
AcDbLine
 10
350.1100364958602
 20
9.601592221693351
 30
0.0
 11
347.8250364958602
 21
11.71082299092404
 31
0.0
  0
LINE
  5
5BD3
330
4DD6
100
AcDbEntity
 67
     1
  8
ﾀｲﾄﾙ枠
  6
Continuous
370
    40
100
AcDbLine
 10
347.8250364958602
 20
9.332381519636669
 30
0.0
 11
348.8000364958602
 21
9.332381519636669
 31
0.0
  0
LINE
  5
5BD4
330
4DD6
100
AcDbEntity
 67
     1
  8
ﾀｲﾄﾙ枠
  6
Continuous
370
    40
100
AcDbLine
 10
348.8000364958602
 20
9.482381519636703
 30
0.0
 11
347.8250364958602
 21
9.482381519636703
 31
0.0
  0
LINE
  5
5BD5
330
4DD6
100
AcDbEntity
 67
     1
  8
ﾀｲﾄﾙ枠
  6
Continuous
370
    40
100
AcDbLine
 10
347.8250364958602
 20
12.07826819273168
 30
0.0
 11
347.8250364958602
 21
12.58238151963666
 31
0.0
  0
LINE
  5
5BD6
330
4DD6
100
AcDbEntity
 67
     1
  8
ﾀｲﾄﾙ枠
  6
Continuous
370
    40
100
AcDbLine
 10
347.8250364958602
 20
12.7323815196367
 30
0.0
 11
347.8250364958602
 21
13.77238151963672
 31
0.0
  0
LINE
  5
5BD7
330
4DD6
100
AcDbEntity
 67
     1
  8
ﾀｲﾄﾙ枠
  6
Continuous
370
    40
100
AcDbLine
 10
347.8250364958602
 20
8.682381519636692
 30
0.0
 11
347.8250364958602
 21
9.332381519636669
 31
0.0
  0
LINE
  5
5BD8
330
4DD6
100
AcDbEntity
 67
     1
  8
ﾀｲﾄﾙ枠
  6
Continuous
370
    40
100
AcDbLine
 10
347.8250364958602
 20
9.482381519636703
 30
0.0
 11
347.8250364958602
 21
11.34337778911668
 31
0.0
  0
LINE
  5
5BD9
330
4DD6
100
AcDbEntity
 67
     1
  8
ﾀｲﾄﾙ枠
  6
Continuous
370
    40
100
AcDbLine
 10
347.3600364958603
 20
8.932381519636692
 30
0.0
 11
347.3600364958603
 21
13.52238151963672
 31
0.0
  0
LINE
  5
5BDA
330
4DD6
100
AcDbEntity
 67
     1
  8
ﾀｲﾄﾙ枠
  6
Continuous
370
    40
100
AcDbLine
 10
347.5600364958602
 20
8.932381519636692
 30
0.0
 11
347.5600364958602
 21
13.52238151963672
 31
0.0
  0
LINE
  5
5BDB
330
4DD6
100
AcDbEntity
 67
     1
  8
ﾀｲﾄﾙ枠
  6
Continuous
370
    40
100
AcDbLine
 10
347.1600364958602
 20
8.932381519636692
 30
0.0
 11
347.1600364958602
 21
13.52238151963672
 31
0.0
  0
LINE
  5
5BDC
330
4DD6
100
AcDbEntity
 67
     1
  8
ﾀｲﾄﾙ枠
  6
Continuous
370
    40
100
AcDbLine
 10
346.8950364958602
 20
13.77238151963672
 30
0.0
 11
346.8950364958602
 21
12.7323815196367
 31
0.0
  0
LINE
  5
5BDD
330
4DD6
100
AcDbEntity
 67
     1
  8
ﾀｲﾄﾙ枠
  6
Continuous
370
    40
100
AcDbLine
 10
346.8950364958602
 20
12.7323815196367
 30
0.0
 11
344.3600364958602
 21
12.7323815196367
 31
0.0
  0
LINE
  5
5BDE
330
4DD6
100
AcDbEntity
 67
     1
  8
ﾀｲﾄﾙ枠
  6
Continuous
370
    40
100
AcDbLine
 10
344.3600364958602
 20
12.7323815196367
 30
0.0
 11
344.3600364958602
 21
12.58238151963666
 31
0.0
  0
LINE
  5
5BDF
330
4DD6
100
AcDbEntity
 67
     1
  8
ﾀｲﾄﾙ枠
  6
Continuous
370
    40
100
AcDbLine
 10
344.3600364958602
 20
12.58238151963666
 30
0.0
 11
346.8950364958602
 21
12.58238151963666
 31
0.0
  0
LINE
  5
5BE0
330
4DD6
100
AcDbEntity
 67
     1
  8
ﾀｲﾄﾙ枠
  6
Continuous
370
    40
100
AcDbLine
 10
346.8950364958602
 20
12.58238151963666
 30
0.0
 11
346.8950364958602
 21
12.07826819273168
 31
0.0
  0
LINE
  5
5BE1
330
4DD6
100
AcDbEntity
 67
     1
  8
ﾀｲﾄﾙ枠
  6
Continuous
370
    40
100
AcDbLine
 10
344.3600364958602
 20
9.738268192731709
 30
0.0
 11
344.3600364958602
 21
9.003377789116711
 31
0.0
  0
LINE
  5
5BE2
330
4DD6
100
AcDbEntity
 67
     1
  8
ﾀｲﾄﾙ枠
  6
Continuous
370
    40
100
AcDbLine
 10
346.8950364958602
 20
9.482381519636703
 30
0.0
 11
345.9200364958602
 21
9.482381519636703
 31
0.0
  0
LINE
  5
5BE3
330
4DD6
100
AcDbEntity
 67
     1
  8
ﾀｲﾄﾙ枠
  6
Continuous
370
    40
100
AcDbLine
 10
345.9200364958602
 20
9.482381519636703
 30
0.0
 11
345.9200364958602
 21
9.332381519636669
 31
0.0
  0
LINE
  5
5BE4
330
4DD6
100
AcDbEntity
 67
     1
  8
ﾀｲﾄﾙ枠
  6
Continuous
370
    40
100
AcDbLine
 10
345.9200364958602
 20
9.332381519636669
 30
0.0
 11
346.8950364958602
 21
9.332381519636669
 31
0.0
  0
LINE
  5
5BE5
330
4DD6
100
AcDbEntity
 67
     1
  8
ﾀｲﾄﾙ枠
  6
Continuous
370
    40
100
AcDbLine
 10
346.8950364958602
 20
9.332381519636669
 30
0.0
 11
346.8950364958602
 21
8.682381519636692
 31
0.0
  0
LINE
  5
5BE6
330
4DD6
100
AcDbEntity
 67
     1
  8
ﾀｲﾄﾙ枠
  6
Continuous
370
    40
100
AcDbLine
 10
346.8950364958602
 20
12.07826819273168
 30
0.0
 11
344.3600364958602
 21
9.738268192731709
 31
0.0
  0
LINE
  5
5BE7
330
4DD6
100
AcDbEntity
 67
     1
  8
ﾀｲﾄﾙ枠
  6
Continuous
370
    40
100
AcDbLine
 10
344.3600364958602
 20
9.003377789116711
 30
0.0
 11
346.8950364958602
 21
11.34337778911668
 31
0.0
  0
LINE
  5
5BE8
330
4DD6
100
AcDbEntity
 67
     1
  8
ﾀｲﾄﾙ枠
  6
Continuous
370
    40
100
AcDbLine
 10
346.8950364958602
 20
11.34337778911668
 30
0.0
 11
346.8950364958602
 21
9.482381519636703
 31
0.0
  0
LINE
  5
5BE9
330
4DD6
100
AcDbEntity
 67
     1
  8
ﾀｲﾄﾙ枠
  6
Continuous
370
    40
100
AcDbLine
 10
346.8950364958602
 20
11.71082299092404
 30
0.0
 11
344.6100364958603
 21
9.601592221693351
 31
0.0
  0
LINE
  5
5BEA
330
4DD6
100
AcDbEntity
 67
     1
  8
ﾀｲﾄﾙ枠
  6
Continuous
370
    40
100
AcDbLine
 10
346.8950364958602
 20
8.682381519636692
 30
0.0
 11
347.8250364958602
 21
8.682381519636692
 31
0.0
  0
LINE
  5
5BEB
330
4DD6
100
AcDbEntity
 67
     1
  8
ﾀｲﾄﾙ枠
  6
Continuous
370
    40
100
AcDbLine
 10
347.8250364958602
 20
13.77238151963672
 30
0.0
 11
346.8950364958602
 21
13.77238151963672
 31
0.0
  0
LINE
  5
5BEC
330
4DD6
100
AcDbEntity
 67
     1
  8
ﾀｲﾄﾙ枠
  6
Continuous
370
    40
100
AcDbLine
 10
342.8600364958603
 20
12.8623815196367
 30
0.0
 11
342.8600364958603
 21
12.71238151963672
 31
0.0
  0
LINE
  5
5BED
330
4DD6
100
AcDbEntity
 67
     1
  8
ﾀｲﾄﾙ枠
  6
Continuous
370
    40
100
AcDbLine
 10
340.3250364958602
 20
11.69238151963668
 30
0.0
 11
342.3400364958603
 21
11.69238151963668
 31
0.0
  0
LINE
  5
5BEE
330
4DD6
100
AcDbEntity
 67
     1
  8
ﾀｲﾄﾙ枠
  6
Continuous
370
    40
100
AcDbLine
 10
340.3250364958602
 20
13.77238151963672
 30
0.0
 11
340.3250364958602
 21
12.8623815196367
 31
0.0
  0
LINE
  5
5BEF
330
4DD6
100
AcDbEntity
 67
     1
  8
ﾀｲﾄﾙ枠
  6
Continuous
370
    40
100
AcDbLine
 10
340.3250364958602
 20
12.71238151963672
 30
0.0
 11
340.3250364958602
 21
11.69238151963668
 31
0.0
  0
LINE
  5
5BF0
330
4DD6
100
AcDbEntity
 67
     1
  8
ﾀｲﾄﾙ枠
  6
Continuous
370
    40
100
AcDbLine
 10
340.0600364958602
 20
11.7923815196367
 30
0.0
 11
340.0600364958602
 21
13.52238151963672
 31
0.0
  0
LINE
  5
5BF1
330
4DD6
100
AcDbEntity
 67
     1
  8
ﾀｲﾄﾙ枠
  6
Continuous
370
    40
100
AcDbLine
 10
342.3400364958603
 20
11.69238151963668
 30
0.0
 11
342.3400364958603
 21
11.5423815196367
 31
0.0
  0
LINE
  5
5BF2
330
4DD6
100
AcDbEntity
 67
     1
  8
ﾀｲﾄﾙ枠
  6
Continuous
370
    40
100
AcDbLine
 10
342.3400364958603
 20
10.65238151963671
 30
0.0
 11
342.3400364958603
 21
8.682381519636692
 31
0.0
  0
LINE
  5
5BF3
330
4DD6
100
AcDbEntity
 67
     1
  8
ﾀｲﾄﾙ枠
  6
Continuous
370
    40
100
AcDbLine
 10
341.8750364958603
 20
8.832381519636669
 30
0.0
 11
341.8750364958603
 21
10.50238151963668
 31
0.0
  0
LINE
  5
5BF4
330
4DD6
100
AcDbEntity
 67
     1
  8
ﾀｲﾄﾙ枠
  6
Continuous
370
    40
100
AcDbLine
 10
341.4100364958602
 20
8.832381519636669
 30
0.0
 11
341.4100364958602
 21
10.50238151963668
 31
0.0
  0
LINE
  5
5BF5
330
4DD6
100
AcDbEntity
 67
     1
  8
ﾀｲﾄﾙ枠
  6
Continuous
370
    40
100
AcDbLine
 10
342.0750364958602
 20
8.832381519636669
 30
0.0
 11
342.0750364958602
 21
10.50238151963668
 31
0.0
  0
LINE
  5
5BF6
330
4DD6
100
AcDbEntity
 67
     1
  8
ﾀｲﾄﾙ枠
  6
Continuous
370
    40
100
AcDbLine
 10
341.6750364958602
 20
8.832381519636669
 30
0.0
 11
341.6750364958602
 21
10.50238151963668
 31
0.0
  0
LINE
  5
5BF7
330
4DD6
100
AcDbEntity
 67
     1
  8
ﾀｲﾄﾙ枠
  6
Continuous
370
    40
100
AcDbLine
 10
340.3250364958602
 20
12.8623815196367
 30
0.0
 11
342.8600364958603
 21
12.8623815196367
 31
0.0
  0
LINE
  5
5BF8
330
4DD6
100
AcDbEntity
 67
     1
  8
ﾀｲﾄﾙ枠
  6
Continuous
370
    40
100
AcDbLine
 10
342.8600364958603
 20
12.71238151963672
 30
0.0
 11
340.3250364958602
 21
12.71238151963672
 31
0.0
  0
LINE
  5
5BF9
330
4DD6
100
AcDbEntity
 67
     1
  8
ﾀｲﾄﾙ枠
  6
Continuous
370
    40
100
AcDbLine
 10
355.4500364958602
 20
13.3523815196367
 30
0.0
 11
355.4500364958602
 21
13.52238151963672
 31
0.0
  0
LINE
  5
5BFA
330
4DD6
100
AcDbEntity
 67
     1
  8
ﾀｲﾄﾙ枠
  6
Continuous
370
    40
100
AcDbLine
 10
356.0400364958602
 20
10.78238151963671
 30
0.0
 11
356.0400364958602
 21
11.1723815196367
 31
0.0
  0
LINE
  5
5BFB
330
4DD6
100
AcDbEntity
 67
     1
  8
ﾀｲﾄﾙ枠
  6
Continuous
370
    40
100
AcDbLine
 10
355.6500364958602
 20
13.12238151963668
 30
0.0
 11
355.6500364958602
 21
13.77238151963672
 31
0.0
  0
LINE
  5
5BFC
330
4DD6
100
AcDbEntity
 67
     1
  8
ﾀｲﾄﾙ枠
  6
Continuous
370
    40
100
AcDbLine
 10
356.0400364958602
 20
8.702381519636674
 30
0.0
 11
356.0400364958602
 21
9.722381519636712
 31
0.0
  0
LINE
  5
5BFD
330
4DD6
100
AcDbEntity
 67
     1
  8
ﾀｲﾄﾙ枠
  6
Continuous
370
    40
100
AcDbLine
 10
356.0400364958602
 20
9.742381519636694
 30
0.0
 11
356.0400364958602
 21
10.76238151963667
 31
0.0
  0
LINE
  5
5BFE
330
4DD6
100
AcDbEntity
 67
     1
  8
ﾀｲﾄﾙ枠
  6
Continuous
370
    40
100
AcDbLine
 10
355.6400364958602
 20
10.9223815196367
 30
0.0
 11
355.6400364958602
 21
8.932381519636692
 31
0.0
  0
LINE
  5
5BFF
330
4DD6
100
AcDbEntity
 67
     1
  8
ﾀｲﾄﾙ枠
  6
Continuous
370
    40
100
AcDbLine
 10
355.8400364958603
 20
10.9223815196367
 30
0.0
 11
355.8400364958603
 21
8.932381519636692
 31
0.0
  0
LINE
  5
5C00
330
4DD6
100
AcDbEntity
 67
     1
  8
ﾀｲﾄﾙ枠
  6
Continuous
370
    40
100
AcDbLine
 10
355.4400364958603
 20
10.9223815196367
 30
0.0
 11
355.4400364958603
 21
8.932381519636692
 31
0.0
  0
LINE
  5
5C01
330
4DD6
100
AcDbEntity
 67
     1
  8
ﾀｲﾄﾙ枠
  6
Continuous
370
    40
100
AcDbLine
 10
355.2400364958602
 20
11.1723815196367
 30
0.0
 11
355.2400364958602
 21
10.78238151963671
 31
0.0
  0
LINE
  5
5C02
330
4DD6
100
AcDbEntity
 67
     1
  8
ﾀｲﾄﾙ枠
  6
Continuous
370
    40
100
AcDbLine
 10
355.2400364958602
 20
10.78238151963671
 30
0.0
 11
354.0900364958603
 21
10.78238151963671
 31
0.0
  0
LINE
  5
5C03
330
4DD6
100
AcDbEntity
 67
     1
  8
ﾀｲﾄﾙ枠
  6
Continuous
370
    40
100
AcDbLine
 10
354.0900364958603
 20
10.78238151963671
 30
0.0
 11
354.0900364958603
 21
11.1723815196367
 31
0.0
  0
LINE
  5
5C04
330
4DD6
100
AcDbEntity
 67
     1
  8
ﾀｲﾄﾙ枠
  6
Continuous
370
    40
100
AcDbLine
 10
354.0900364958603
 20
11.1723815196367
 30
0.0
 11
353.8100364958602
 21
11.1723815196367
 31
0.0
  0
LINE
  5
5C05
330
4DD6
100
AcDbEntity
 67
     1
  8
ﾀｲﾄﾙ枠
  6
Continuous
370
    40
100
AcDbLine
 10
353.8100364958602
 20
11.1723815196367
 30
0.0
 11
353.8100364958602
 21
10.76238151963667
 31
0.0
  0
LINE
  5
5C06
330
4DD6
100
AcDbEntity
 67
     1
  8
ﾀｲﾄﾙ枠
  6
Continuous
370
    40
100
AcDbLine
 10
353.8100364958602
 20
10.76238151963667
 30
0.0
 11
355.2400364958602
 21
10.76238151963667
 31
0.0
  0
LINE
  5
5C07
330
4DD6
100
AcDbEntity
 67
     1
  8
ﾀｲﾄﾙ枠
  6
Continuous
370
    40
100
AcDbLine
 10
354.8500364958603
 20
13.77238151963672
 30
0.0
 11
354.8500364958603
 21
13.12238151963668
 31
0.0
  0
LINE
  5
5C08
330
4DD6
100
AcDbEntity
 67
     1
  8
ﾀｲﾄﾙ枠
  6
Continuous
370
    40
100
AcDbLine
 10
354.8500364958603
 20
13.12238151963668
 30
0.0
 11
352.3800364958602
 21
13.12238151963668
 31
0.0
  0
LINE
  5
5C09
330
4DD6
100
AcDbEntity
 67
     1
  8
ﾀｲﾄﾙ枠
  6
Continuous
370
    40
100
AcDbLine
 10
352.3800364958602
 20
13.12238151963668
 30
0.0
 11
352.3800364958602
 21
13.1023815196367
 31
0.0
  0
LINE
  5
5C0A
330
4DD6
100
AcDbEntity
 67
     1
  8
ﾀｲﾄﾙ枠
  6
Continuous
370
    40
100
AcDbLine
 10
352.3800364958602
 20
13.1023815196367
 30
0.0
 11
352.9215840906026
 21
13.1023815196367
 31
0.0
  0
LINE
  5
5C0B
330
4DD6
100
AcDbEntity
 67
     1
  8
ﾀｲﾄﾙ枠
  6
Continuous
370
    40
100
AcDbLine
 10
352.9215840906026
 20
13.1023815196367
 30
0.0
 11
353.6115840906026
 21
11.95238151963667
 31
0.0
  0
LINE
  5
5C0C
330
4DD6
100
AcDbEntity
 67
     1
  8
ﾀｲﾄﾙ枠
  6
Continuous
370
    40
100
AcDbLine
 10
353.6115840906026
 20
11.95238151963667
 30
0.0
 11
352.3672246220502
 21
11.95238151963667
 31
0.0
  0
LINE
  5
5C0D
330
4DD6
100
AcDbEntity
 67
     1
  8
ﾀｲﾄﾙ枠
  6
Continuous
370
    40
100
AcDbLine
 10
353.6755279986729
 20
13.1023815196367
 30
0.0
 11
354.2505279986729
 21
11.95238151963667
 31
0.0
  0
LINE
  5
5C0E
330
4DD6
100
AcDbEntity
 67
     1
  8
ﾀｲﾄﾙ枠
  6
Continuous
370
    40
100
AcDbLine
 10
355.2500364958603
 20
13.3523815196367
 30
0.0
 11
355.2500364958603
 21
13.52238151963672
 31
0.0
  0
LINE
  5
5C0F
330
4DD6
100
AcDbEntity
 67
     1
  8
ﾀｲﾄﾙ枠
  6
Continuous
370
    40
100
AcDbLine
 10
353.4250560446376
 20
12.87238151963669
 30
0.0
 11
353.8045560446375
 21
12.18238151963669
 31
0.0
  0
LINE
  5
5C10
330
4DD6
100
AcDbEntity
 67
     1
  8
ﾀｲﾄﾙ枠
  6
Continuous
370
    40
100
AcDbLine
 10
355.0500364958602
 20
13.3523815196367
 30
0.0
 11
355.0500364958602
 21
13.52238151963672
 31
0.0
  0
ARC
  5
5C11
330
4DD6
100
AcDbEntity
 67
     1
  8
ﾀｲﾄﾙ枠
  6
Continuous
370
    40
100
AcDbCircle
 10
346.8324716779769
 20
10.48539745014602
 30
0.0
 40
5.719999999999999
100
AcDbArc
 50
344.2460809455041
 51
356.987212495817
  0
ARC
  5
5C12
330
4DD6
100
AcDbEntity
 67
     1
  8
ﾀｲﾄﾙ枠
  6
Continuous
370
    40
100
AcDbCircle
 10
346.8324716779769
 20
10.48539745014602
 30
0.0
 40
5.989999999999999
100
AcDbArc
 50
342.4820645709959
 51
356.987212495817
  0
ARC
  5
5C13
330
4DD6
100
AcDbEntity
 67
     1
  8
ﾀｲﾄﾙ枠
  6
Continuous
370
    40
100
AcDbCircle
 10
346.8324716779769
 20
10.48539745014602
 30
0.0
 40
5.45
100
AcDbArc
 50
340.6809234802237
 51
356.987212495817
  0
LINE
  5
5C14
330
4DD6
100
AcDbEntity
 67
     1
  8
ﾀｲﾄﾙ枠
  6
Continuous
370
    40
100
AcDbLine
 10
355.2400364958602
 20
9.742381519636694
 30
0.0
 11
353.8100364958602
 21
9.742381519636694
 31
0.0
  0
LINE
  5
5C15
330
4DD6
100
AcDbEntity
 67
     1
  8
ﾀｲﾄﾙ枠
  6
Continuous
370
    40
100
AcDbLine
 10
353.8100364958602
 20
9.742381519636694
 30
0.0
 11
353.8100364958602
 21
9.722381519636712
 31
0.0
  0
LINE
  5
5C16
330
4DD6
100
AcDbEntity
 67
     1
  8
ﾀｲﾄﾙ枠
  6
Continuous
370
    40
100
AcDbLine
 10
353.8100364958602
 20
9.722381519636712
 30
0.0
 11
355.2400364958602
 21
9.722381519636712
 31
0.0
  0
LINE
  5
5C17
330
4DD6
100
AcDbEntity
 67
     1
  8
ﾀｲﾄﾙ枠
  6
Continuous
370
    40
100
AcDbLine
 10
355.2400364958602
 20
9.722381519636712
 30
0.0
 11
355.2400364958602
 21
8.702381519636674
 31
0.0
  0
LINE
  5
5C18
330
4DD6
100
AcDbEntity
 67
     1
  8
ﾀｲﾄﾙ枠
  6
Continuous
370
    40
100
AcDbLine
 10
355.2400364958602
 20
8.702381519636674
 30
0.0
 11
353.4200364958602
 21
8.702381519636674
 31
0.0
  0
LINE
  5
5C19
330
4DD6
100
AcDbEntity
 67
     1
  8
ﾀｲﾄﾙ枠
  6
Continuous
370
    40
100
AcDbLine
 10
353.4200364958602
 20
8.702381519636674
 30
0.0
 11
353.4200364958602
 21
8.682381519636692
 31
0.0
  0
LINE
  5
5C1A
330
4DD6
100
AcDbEntity
 67
     1
  8
ﾀｲﾄﾙ枠
  6
Continuous
370
    40
100
AcDbLine
 10
352.5446720906316
 20
8.682381519636692
 30
0.0
 11
351.9755868384933
 21
8.682381519636692
 31
0.0
  0
LINE
  5
5C1B
330
4DD6
100
AcDbEntity
 67
     1
  8
ﾀｲﾄﾙ枠
  6
Continuous
370
    40
100
AcDbLine
 10
355.2400364958602
 20
10.76238151963667
 30
0.0
 11
355.2400364958602
 21
9.742381519636694
 31
0.0
  0
LINE
  5
5C1C
330
4DD6
100
AcDbEntity
 67
     1
  8
ﾀｲﾄﾙ枠
  6
Continuous
370
    40
100
AcDbLine
 10
352.3672246220502
 20
11.95238151963667
 30
0.0
 11
352.2749388478392
 21
10.19895180962703
 31
0.0
  0
LINE
  5
5C1D
330
4DD6
100
AcDbEntity
 67
     1
  8
ﾀｲﾄﾙ枠
  6
Continuous
370
    40
100
AcDbLine
 10
352.5445656617589
 20
10.1847609246837
 30
0.0
 11
352.6244404299142
 21
11.70238151963667
 31
0.0
  0
LINE
  5
5C1E
330
4DD6
100
AcDbEntity
 67
     1
  8
ﾀｲﾄﾙ枠
  6
Continuous
370
    40
100
AcDbLine
 10
352.9069193956732
 20
11.93238151963669
 30
0.0
 11
352.8141924756786
 21
10.1705700397407
 31
0.0
  0
LINE
  5
5C1F
330
4DD6
100
AcDbEntity
 67
     1
  8
ﾀｲﾄﾙ枠
  6
Continuous
370
    40
100
AcDbLine
 10
356.0400364958602
 20
11.1723815196367
 30
0.0
 11
355.2400364958602
 21
11.1723815196367
 31
0.0
  0
LINE
  5
5C20
330
4DD6
100
AcDbEntity
 67
     1
  8
ﾀｲﾄﾙ枠
  6
Continuous
370
    40
100
AcDbLine
 10
355.6500364958602
 20
13.77238151963672
 30
0.0
 11
354.8500364958603
 21
13.77238151963672
 31
0.0
  0
LINE
  5
5C21
330
4DD6
100
AcDbEntity
 67
     1
  8
ﾀｲﾄﾙ枠
  6
Continuous
370
    40
100
AcDbLine
 10
354.2505279986729
 20
11.95238151963667
 30
0.0
 11
356.2495449930476
 21
11.95238151963667
 31
0.0
  0
LINE
  5
5C22
330
4DD6
100
AcDbEntity
 67
     1
  8
ﾀｲﾄﾙ枠
  6
Continuous
370
    40
100
AcDbLine
 10
348.8000364958602
 20
9.332381519636669
 30
0.0
 11
348.8000364958602
 21
9.482381519636703
 31
0.0
  0
LINE
  5
5C23
330
4DD6
100
AcDbEntity
 67
     1
  8
ﾀｲﾄﾙ枠
  6
Continuous
370
    40
100
AcDbLine
 10
350.3600364958602
 20
12.58238151963666
 30
0.0
 11
350.3600364958602
 21
12.7323815196367
 31
0.0
  0
LINE
  5
5C24
330
4DD6
100
AcDbEntity
 67
     1
  8
ﾀｲﾄﾙ枠
  6
Continuous
370
    40
100
AcDbLine
 10
350.3600364958602
 20
9.003377789116711
 30
0.0
 11
350.3600364958602
 21
9.738268192731709
 31
0.0
  0
LINE
  5
5C25
330
4DD6
100
AcDbEntity
 67
     1
  8
ﾀｲﾄﾙ枠
  6
Continuous
370
    40
100
AcDbLine
 10
365.3600364958602
 20
12.78738151963671
 30
0.0
 11
364.457591373377
 21
12.78738151963671
 31
0.0
  0
LINE
  5
5C26
330
4DD6
100
AcDbEntity
 67
     1
  8
ﾀｲﾄﾙ枠
  6
Continuous
370
    40
100
AcDbLine
 10
365.1347788733766
 20
13.77238151963672
 30
0.0
 11
363.7425913733766
 21
11.74738151963669
 31
0.0
  0
LINE
  5
5C27
330
4DD6
100
AcDbEntity
 67
     1
  8
ﾀｲﾄﾙ枠
  6
Continuous
370
    40
100
AcDbLine
 10
363.5973112721889
 20
11.99738151963668
 30
0.0
 11
364.6219206471889
 21
13.52238151963672
 31
0.0
  0
LINE
  5
5C28
330
4DD6
100
AcDbEntity
 67
     1
  8
ﾀｲﾄﾙ枠
  6
Continuous
370
    40
100
AcDbLine
 10
364.444999921001
 20
13.77238151963672
 30
0.0
 11
365.1347788733766
 21
13.77238151963672
 31
0.0
  0
LINE
  5
5C29
330
4DD6
100
AcDbEntity
 67
     1
  8
ﾀｲﾄﾙ枠
  6
Continuous
370
    40
100
AcDbLine
 10
365.1000364958603
 20
9.327300885769034
 30
0.0
 11
363.5948953865916
 21
10.18738151963668
 31
0.0
  0
LINE
  5
5C2A
330
4DD6
100
AcDbEntity
 67
     1
  8
ﾀｲﾄﾙ枠
  6
Continuous
370
    40
100
AcDbLine
 10
362.8250364958602
 20
10.16317643921871
 30
0.0
 11
365.1000364958603
 21
8.863176439218705
 31
0.0
  0
LINE
  5
5C2B
330
4DD6
100
AcDbEntity
 67
     1
  8
ﾀｲﾄﾙ枠
  6
Continuous
370
    40
100
AcDbLine
 10
364.8400364958603
 20
11.74738151963669
 30
0.0
 11
359.8800364958602
 21
11.74738151963669
 31
0.0
  0
LINE
  5
5C2C
330
4DD6
100
AcDbEntity
 67
     1
  8
ﾀｲﾄﾙ枠
  6
Continuous
370
    40
100
AcDbLine
 10
365.1000364958603
 20
10.18738151963668
 30
0.0
 11
362.8250364958602
 21
10.18738151963668
 31
0.0
  0
LINE
  5
5C2D
330
4DD6
100
AcDbEntity
 67
     1
  8
ﾀｲﾄﾙ枠
  6
Continuous
370
    40
100
AcDbLine
 10
363.2800364958602
 20
12.78738151963671
 30
0.0
 11
363.2800364958602
 21
13.77238151963672
 31
0.0
  0
LINE
  5
5C2E
330
4DD6
100
AcDbEntity
 67
     1
  8
ﾀｲﾄﾙ枠
  6
Continuous
370
    40
100
AcDbLine
 10
363.2800364958602
 20
13.77238151963672
 30
0.0
 11
362.8050364958602
 21
13.77238151963672
 31
0.0
  0
LINE
  5
5C2F
330
4DD6
100
AcDbEntity
 67
     1
  8
ﾀｲﾄﾙ枠
  6
Continuous
370
    40
100
AcDbLine
 10
362.8050364958602
 20
13.77238151963672
 30
0.0
 11
362.8050364958602
 21
12.78738151963671
 31
0.0
  0
LINE
  5
5C30
330
4DD6
100
AcDbEntity
 67
     1
  8
ﾀｲﾄﾙ枠
  6
Continuous
370
    40
100
AcDbLine
 10
362.8050364958602
 20
12.78738151963671
 30
0.0
 11
361.9150364958602
 21
12.78738151963671
 31
0.0
  0
LINE
  5
5C31
330
4DD6
100
AcDbEntity
 67
     1
  8
ﾀｲﾄﾙ枠
  6
Continuous
370
    40
100
AcDbLine
 10
361.9150364958602
 20
12.78738151963671
 30
0.0
 11
361.9150364958602
 21
13.77238151963672
 31
0.0
  0
LINE
  5
5C32
330
4DD6
100
AcDbEntity
 67
     1
  8
ﾀｲﾄﾙ枠
  6
Continuous
370
    40
100
AcDbLine
 10
361.9150364958602
 20
13.77238151963672
 30
0.0
 11
361.4400364958602
 21
13.77238151963672
 31
0.0
  0
LINE
  5
5C33
330
4DD6
100
AcDbEntity
 67
     1
  8
ﾀｲﾄﾙ枠
  6
Continuous
370
    40
100
AcDbLine
 10
361.4400364958602
 20
13.77238151963672
 30
0.0
 11
361.4400364958602
 21
12.78738151963671
 31
0.0
  0
LINE
  5
5C34
330
4DD6
100
AcDbEntity
 67
     1
  8
ﾀｲﾄﾙ枠
  6
Continuous
370
    40
100
AcDbLine
 10
361.4400364958602
 20
12.78738151963671
 30
0.0
 11
360.9214793207196
 21
12.78738151963671
 31
0.0
  0
LINE
  5
5C35
330
4DD6
100
AcDbEntity
 67
     1
  8
ﾀｲﾄﾙ枠
  6
Continuous
370
    40
100
AcDbLine
 10
360.2750730707195
 20
13.77238151963672
 30
0.0
 11
361.6039793207196
 21
11.74738151963669
 31
0.0
  0
LINE
  5
5C36
330
4DD6
100
AcDbEntity
 67
     1
  8
ﾀｲﾄﾙ枠
  6
Continuous
370
    40
100
AcDbLine
 10
360.2700364958602
 20
10.96738151963671
 30
0.0
 11
361.8950364958602
 21
10.96738151963671
 31
0.0
  0
LINE
  5
5C37
330
4DD6
100
AcDbEntity
 67
     1
  8
ﾀｲﾄﾙ枠
  6
Continuous
370
    40
100
AcDbLine
 10
360.0981523445319
 20
13.52238151963672
 30
0.0
 11
361.1227617195315
 21
11.99738151963668
 31
0.0
  0
LINE
  5
5C38
330
4DD6
100
AcDbEntity
 67
     1
  8
ﾀｲﾄﾙ枠
  6
Continuous
370
    40
100
AcDbLine
 10
361.8950364958602
 20
8.682381519636692
 30
0.0
 11
362.8250364958602
 21
8.682381519636692
 31
0.0
  0
LINE
  5
5C39
330
4DD6
100
AcDbEntity
 67
     1
  8
ﾀｲﾄﾙ枠
  6
Continuous
370
    40
100
AcDbLine
 10
361.8950364958602
 20
11.74738151963669
 30
0.0
 11
361.8950364958602
 21
8.682381519636692
 31
0.0
  0
LINE
  5
5C3A
330
4DD6
100
AcDbEntity
 67
     1
  8
ﾀｲﾄﾙ枠
  6
Continuous
370
    40
100
AcDbLine
 10
362.8250364958602
 20
8.682381519636692
 30
0.0
 11
362.8250364958602
 21
11.74738151963669
 31
0.0
  0
LINE
  5
5C3B
330
4DD6
100
AcDbEntity
 67
     1
  8
ﾀｲﾄﾙ枠
  6
Continuous
370
    40
100
AcDbLine
 10
362.3600364958603
 20
11.49738151963669
 30
0.0
 11
362.3600364958603
 21
8.932381519636692
 31
0.0
  0
LINE
  5
5C3C
330
4DD6
100
AcDbEntity
 67
     1
  8
ﾀｲﾄﾙ枠
  6
Continuous
370
    40
100
AcDbLine
 10
362.5600364958602
 20
11.49738151963669
 30
0.0
 11
362.5600364958602
 21
8.932381519636692
 31
0.0
  0
LINE
  5
5C3D
330
4DD6
100
AcDbEntity
 67
     1
  8
ﾀｲﾄﾙ枠
  6
Continuous
370
    40
100
AcDbLine
 10
362.1600364958602
 20
11.49738151963669
 30
0.0
 11
362.1600364958602
 21
8.932381519636692
 31
0.0
  0
LINE
  5
5C3E
330
4DD6
100
AcDbEntity
 67
     1
  8
ﾀｲﾄﾙ枠
  6
Continuous
370
    40
100
AcDbLine
 10
363.7985936710009
 20
12.78738151963671
 30
0.0
 11
363.2800364958602
 21
12.78738151963671
 31
0.0
  0
LINE
  5
5C3F
330
4DD6
100
AcDbEntity
 67
     1
  8
ﾀｲﾄﾙ枠
  6
Continuous
370
    40
100
AcDbLine
 10
363.1160936710009
 20
11.74738151963669
 30
0.0
 11
364.444999921001
 21
13.77238151963672
 31
0.0
  0
LINE
  5
5C40
330
4DD6
100
AcDbEntity
 67
     1
  8
ﾀｲﾄﾙ枠
  6
Continuous
370
    40
100
AcDbLine
 10
362.8250364958602
 20
10.96738151963671
 30
0.0
 11
364.4500364958602
 21
10.96738151963671
 31
0.0
  0
LINE
  5
5C41
330
4DD6
100
AcDbEntity
 67
     1
  8
ﾀｲﾄﾙ枠
  6
Continuous
370
    40
100
AcDbLine
 10
359.6200364958602
 20
8.863176439218705
 30
0.0
 11
359.6200364958602
 21
9.327300885769034
 31
0.0
  0
LINE
  5
5C42
330
4DD6
100
AcDbEntity
 67
     1
  8
ﾀｲﾄﾙ枠
  6
Continuous
370
    40
100
AcDbLine
 10
357.8600364958603
 20
11.95238151963667
 30
0.0
 11
356.8884889011179
 21
11.95238151963667
 31
0.0
  0
LINE
  5
5C43
330
4DD6
100
AcDbEntity
 67
     1
  8
ﾀｲﾄﾙ枠
  6
Continuous
370
    40
100
AcDbLine
 10
356.8884889011179
 20
11.95238151963667
 30
0.0
 11
357.5784889011179
 21
13.1023815196367
 31
0.0
  0
LINE
  5
5C44
330
4DD6
100
AcDbEntity
 67
     1
  8
ﾀｲﾄﾙ枠
  6
Continuous
370
    40
100
AcDbLine
 10
356.6955169470829
 20
12.18238151963669
 30
0.0
 11
357.075016947083
 21
12.87238151963669
 31
0.0
  0
LINE
  5
5C45
330
4DD6
100
AcDbEntity
 67
     1
  8
ﾀｲﾄﾙ枠
  6
Continuous
370
    40
100
AcDbLine
 10
357.8600364958603
 20
10.76238151963667
 30
0.0
 11
357.8600364958603
 21
10.78238151963671
 31
0.0
  0
LINE
  5
5C46
330
4DD6
100
AcDbEntity
 67
     1
  8
ﾀｲﾄﾙ枠
  6
Continuous
370
    40
100
AcDbLine
 10
357.8600364958603
 20
11.93238151963669
 30
0.0
 11
357.8600364958603
 21
11.95238151963667
 31
0.0
  0
LINE
  5
5C47
330
4DD6
100
AcDbEntity
 67
     1
  8
ﾀｲﾄﾙ枠
  6
Continuous
370
    40
100
AcDbLine
 10
357.5784889011179
 20
13.1023815196367
 30
0.0
 11
357.8600364958603
 21
13.1023815196367
 31
0.0
  0
LINE
  5
5C48
330
4DD6
100
AcDbEntity
 67
     1
  8
ﾀｲﾄﾙ枠
  6
Continuous
370
    40
100
AcDbLine
 10
357.8600364958603
 20
13.1023815196367
 30
0.0
 11
357.8600364958603
 21
13.12238151963668
 31
0.0
  0
LINE
  5
5C49
330
4DD6
100
AcDbEntity
 67
     1
  8
ﾀｲﾄﾙ枠
  6
Continuous
370
    40
100
AcDbLine
 10
357.8600364958603
 20
8.682381519636692
 30
0.0
 11
357.8600364958603
 21
8.702381519636674
 31
0.0
  0
LINE
  5
5C4A
330
4DD6
100
AcDbEntity
 67
     1
  8
ﾀｲﾄﾙ枠
  6
Continuous
370
    40
100
AcDbLine
 10
357.6000364958602
 20
9.722381519636712
 30
0.0
 11
357.6000364958602
 21
9.742381519636694
 31
0.0
  0
LINE
  5
5C4B
330
4DD6
100
AcDbEntity
 67
     1
  8
ﾀｲﾄﾙ枠
  6
Continuous
370
    40
100
AcDbLine
 10
359.5852941183439
 20
13.77238151963672
 30
0.0
 11
360.2750730707195
 21
13.77238151963672
 31
0.0
  0
LINE
  5
5C4C
330
4DD6
100
AcDbEntity
 67
     1
  8
ﾀｲﾄﾙ枠
  6
Continuous
370
    40
100
AcDbLine
 10
360.9774816183439
 20
11.74738151963669
 30
0.0
 11
359.5852941183439
 21
13.77238151963672
 31
0.0
  0
LINE
  5
5C4D
330
4DD6
100
AcDbEntity
 67
     1
  8
ﾀｲﾄﾙ枠
  6
Continuous
370
    40
100
AcDbLine
 10
360.2624816183439
 20
12.78738151963671
 30
0.0
 11
359.3600364958603
 21
12.78738151963671
 31
0.0
  0
LINE
  5
5C4E
330
4DD6
100
AcDbEntity
 67
     1
  8
ﾀｲﾄﾙ枠
  6
Continuous
370
    40
100
AcDbLine
 10
361.8950364958602
 20
10.16317643921871
 30
0.0
 11
359.6200364958602
 21
8.863176439218705
 31
0.0
  0
LINE
  5
5C4F
330
4DD6
100
AcDbEntity
 67
     1
  8
ﾀｲﾄﾙ枠
  6
Continuous
370
    40
100
AcDbLine
 10
359.6200364958602
 20
9.327300885769034
 30
0.0
 11
361.1251776051289
 21
10.18738151963668
 31
0.0
  0
LINE
  5
5C50
330
4DD6
100
AcDbEntity
 67
     1
  8
ﾀｲﾄﾙ枠
  6
Continuous
370
    40
100
AcDbLine
 10
361.8950364958602
 20
10.18738151963668
 30
0.0
 11
359.6200364958602
 21
10.18738151963668
 31
0.0
  0
LINE
  5
5C51
330
4DD6
100
AcDbEntity
 67
     1
  8
ﾀｲﾄﾙ枠
  6
Continuous
370
    40
100
AcDbLine
 10
368.3100364958602
 20
11.26238151963667
 30
0.0
 11
367.9200364958602
 21
11.78238151963671
 31
0.0
  0
LINE
  5
5C52
330
4DD6
100
AcDbEntity
 67
     1
  8
ﾀｲﾄﾙ枠
  6
Continuous
370
    40
100
AcDbLine
 10
367.9200364958602
 20
13.77238151963672
 30
0.0
 11
367.9200364958602
 21
12.59238151963671
 31
0.0
  0
LINE
  5
5C53
330
4DD6
100
AcDbEntity
 67
     1
  8
ﾀｲﾄﾙ枠
  6
Continuous
370
    40
100
AcDbLine
 10
367.9200364958602
 20
11.78238151963671
 30
0.0
 11
367.9200364958602
 21
8.682381519636692
 31
0.0
  0
LINE
  5
5C54
330
4DD6
100
AcDbEntity
 67
     1
  8
ﾀｲﾄﾙ枠
  6
Continuous
370
    40
100
AcDbLine
 10
369.2000364958602
 20
12.59238151963671
 30
0.0
 11
369.2000364958602
 21
13.77238151963672
 31
0.0
  0
LINE
  5
5C55
330
4DD6
100
AcDbEntity
 67
     1
  8
ﾀｲﾄﾙ枠
  6
Continuous
370
    40
100
AcDbLine
 10
369.2000364958602
 20
13.77238151963672
 30
0.0
 11
369.6100364958603
 21
13.77238151963672
 31
0.0
  0
LINE
  5
5C56
330
4DD6
100
AcDbEntity
 67
     1
  8
ﾀｲﾄﾙ枠
  6
Continuous
370
    40
100
AcDbLine
 10
369.6100364958603
 20
13.77238151963672
 30
0.0
 11
369.6100364958603
 21
12.59238151963671
 31
0.0
  0
LINE
  5
5C57
330
4DD6
100
AcDbEntity
 67
     1
  8
ﾀｲﾄﾙ枠
  6
Continuous
370
    40
100
AcDbLine
 10
370.6300364958603
 20
10.26238151963667
 30
0.0
 11
369.7545449930479
 21
10.26238151963667
 31
0.0
  0
LINE
  5
5C58
330
4DD6
100
AcDbEntity
 67
     1
  8
ﾀｲﾄﾙ枠
  6
Continuous
370
    40
100
AcDbLine
 10
370.6300364958603
 20
13.77238151963672
 30
0.0
 11
371.3000364958602
 21
13.77238151963672
 31
0.0
  0
LINE
  5
5C59
330
4DD6
100
AcDbEntity
 67
     1
  8
ﾀｲﾄﾙ枠
  6
Continuous
370
    40
100
AcDbLine
 10
368.3100364958602
 20
11.72904818630337
 30
0.0
 11
368.3100364958602
 21
11.26238151963667
 31
0.0
  0
LINE
  5
5C5A
330
4DD6
100
AcDbEntity
 67
     1
  8
ﾀｲﾄﾙ枠
  6
Continuous
370
    40
100
AcDbLine
 10
368.9645449930476
 20
8.682381519636692
 30
0.0
 11
369.4229389284353
 21
8.682381519636692
 31
0.0
  0
LINE
  5
5C5B
330
4DD6
100
AcDbEntity
 67
     1
  8
ﾀｲﾄﾙ枠
  6
Continuous
370
    40
100
AcDbLine
 10
371.3000364958602
 20
8.682381519636692
 30
0.0
 11
370.6300364958603
 21
8.682381519636692
 31
0.0
  0
LINE
  5
5C5C
330
4DD6
100
AcDbEntity
 67
     1
  8
ﾀｲﾄﾙ枠
  6
Continuous
370
    40
100
AcDbLine
 10
369.7545449930479
 20
10.26238151963667
 30
0.0
 11
368.9645449930476
 21
8.682381519636692
 31
0.0
  0
LINE
  5
5C5D
330
4DD6
100
AcDbEntity
 67
     1
  8
ﾀｲﾄﾙ枠
  6
Continuous
370
    40
100
AcDbLine
 10
369.4229389284353
 20
8.682381519636692
 30
0.0
 11
370.2129389284352
 21
10.26238151963667
 31
0.0
  0
LINE
  5
5C5E
330
4DD6
100
AcDbEntity
 67
     1
  8
ﾀｲﾄﾙ枠
  6
Continuous
370
    40
100
AcDbLine
 10
370.9650364958603
 20
8.932381519636692
 30
0.0
 11
370.9650364958603
 21
13.52238151963672
 31
0.0
  0
LINE
  5
5C5F
330
4DD6
100
AcDbEntity
 67
     1
  8
ﾀｲﾄﾙ枠
  6
Continuous
370
    40
100
AcDbLine
 10
371.3000364958602
 20
13.77238151963672
 30
0.0
 11
371.3000364958602
 21
8.682381519636692
 31
0.0
  0
LINE
  5
5C60
330
4DD6
100
AcDbEntity
 67
     1
  8
ﾀｲﾄﾙ枠
  6
Continuous
370
    40
100
AcDbLine
 10
370.6300364958603
 20
8.682381519636692
 30
0.0
 11
370.6300364958603
 21
13.77238151963672
 31
0.0
  0
LINE
  5
5C61
330
4DD6
100
AcDbEntity
 67
     1
  8
ﾀｲﾄﾙ枠
  6
Continuous
370
    40
100
AcDbLine
 10
372.3114061868716
 20
8.682381519636692
 30
0.0
 11
371.7189061868716
 21
10.26238151963667
 31
0.0
  0
LINE
  5
5C62
330
4DD6
100
AcDbEntity
 67
     1
  8
ﾀｲﾄﾙ枠
  6
Continuous
370
    40
100
AcDbLine
 10
372.4700364958603
 20
12.59238151963671
 30
0.0
 11
369.2000364958602
 21
12.59238151963671
 31
0.0
  0
LINE
  5
5C63
330
4DD6
100
AcDbEntity
 67
     1
  8
ﾀｲﾄﾙ枠
  6
Continuous
370
    40
100
AcDbLine
 10
369.2000364958602
 20
11.4223815196367
 30
0.0
 11
372.3400364958603
 21
11.4223815196367
 31
0.0
  0
LINE
  5
5C64
330
4DD6
100
AcDbEntity
 67
     1
  8
ﾀｲﾄﾙ枠
  6
Continuous
370
    40
100
AcDbLine
 10
371.3000364958602
 20
10.26238151963667
 30
0.0
 11
372.1567863788192
 21
10.26238151963667
 31
0.0
  0
LINE
  5
5C65
330
4DD6
100
AcDbEntity
 67
     1
  8
ﾀｲﾄﾙ枠
  6
Continuous
370
    40
100
AcDbLine
 10
367.3800364958602
 20
12.59238151963671
 30
0.0
 11
367.3800364958602
 21
13.77238151963672
 31
0.0
  0
LINE
  5
5C66
330
4DD6
100
AcDbEntity
 67
     1
  8
ﾀｲﾄﾙ枠
  6
Continuous
370
    40
100
AcDbLine
 10
367.3800364958602
 20
8.682381519636692
 30
0.0
 11
367.3800364958602
 21
10.67377262890505
 31
0.0
  0
LINE
  5
5C67
330
4DD6
100
AcDbEntity
 67
     1
  8
ﾀｲﾄﾙ枠
  6
Continuous
370
    40
100
AcDbLine
 10
367.6500364958602
 20
13.52238151963672
 30
0.0
 11
367.6500364958602
 21
8.932381519636692
 31
0.0
  0
LINE
  5
5C68
330
4DD6
100
AcDbEntity
 67
     1
  8
ﾀｲﾄﾙ枠
  6
Continuous
370
    40
100
AcDbLine
 10
365.1000364958603
 20
8.863176439218705
 30
0.0
 11
365.1000364958603
 21
9.327300885769034
 31
0.0
  0
LINE
  5
5C69
330
4DD6
100
AcDbEntity
 67
     1
  8
ﾀｲﾄﾙ枠
  6
Continuous
370
    40
100
AcDbLine
 10
366.8600364958602
 20
9.763772628905371
 30
0.0
 11
366.8600364958602
 21
10.98423591874501
 31
0.0
  0
LINE
  5
5C6A
330
4DD6
100
AcDbEntity
 67
     1
  8
ﾀｲﾄﾙ枠
  6
Continuous
370
    40
100
AcDbLine
 10
366.8600364958602
 20
10.98423591874501
 30
0.0
 11
367.5032947362169
 21
12.59238151963671
 31
0.0
  0
LINE
  5
5C6B
330
4DD6
100
AcDbEntity
 67
     1
  8
ﾀｲﾄﾙ枠
  6
Continuous
370
    40
100
AcDbLine
 10
367.1100364958602
 20
10.7151879752447
 30
0.0
 11
367.4416656160386
 21
11.43307707427101
 31
0.0
  0
LINE
  5
5C6C
330
4DD6
100
AcDbEntity
 67
     1
  8
ﾀｲﾄﾙ枠
  6
Continuous
370
    40
100
AcDbLine
 10
367.3800364958602
 20
10.67377262890505
 30
0.0
 11
366.8600364958602
 21
9.763772628905371
 31
0.0
  0
LINE
  5
5C6D
330
4DD6
100
AcDbEntity
 67
     1
  8
ﾀｲﾄﾙ枠
  6
Continuous
370
    40
100
AcDbLine
 10
367.6625364958603
 20
12.59238151963671
 30
0.0
 11
368.3100364958602
 21
11.72904818630337
 31
0.0
  0
LINE
  5
5C6E
330
4DD6
100
AcDbEntity
 67
     1
  8
ﾀｲﾄﾙ枠
  6
Continuous
370
    40
100
AcDbLine
 10
368.3100364958602
 20
12.59238151963671
 30
0.0
 11
366.8600364958602
 21
12.59238151963671
 31
0.0
  0
LINE
  5
5C6F
330
4DD6
100
AcDbEntity
 67
     1
  8
ﾀｲﾄﾙ枠
  6
Continuous
370
    40
100
AcDbLine
 10
367.3800364958602
 20
13.77238151963672
 30
0.0
 11
367.9200364958602
 21
13.77238151963672
 31
0.0
  0
LINE
  5
5C70
330
4DD6
100
AcDbEntity
 67
     1
  8
ﾀｲﾄﾙ枠
  6
Continuous
370
    40
100
AcDbLine
 10
367.9200364958602
 20
8.682381519636692
 30
0.0
 11
367.3800364958602
 21
8.682381519636692
 31
0.0
  0
LINE
  5
5C71
330
4DD6
100
AcDbEntity
 67
     1
  8
ﾀｲﾄﾙ枠
100
AcDbLine
 10
384.8287006091889
 20
17.22273385269204
 30
0.0
 11
384.8287006091889
 21
29.22273385269204
 31
0.0
  0
LINE
  5
5C72
330
4DD6
100
AcDbEntity
 67
     1
  8
ﾀｲﾄﾙ枠
100
AcDbLine
 10
379.8287006091888
 20
17.22273385269204
 30
0.0
 11
379.8287006091888
 21
29.22273385269204
 31
0.0
  0
LINE
  5
5C73
330
4DD6
100
AcDbEntity
 67
     1
  8
ﾀｲﾄﾙ枠
  6
Continuous
370
    40
100
AcDbLine
 10
376.2000364958602
 20
10.09018795339636
 30
0.0
 11
376.2000364958602
 21
11.68238151963669
 31
0.0
  0
LINE
  5
5C74
330
4DD6
100
AcDbEntity
 67
     1
  8
ﾀｲﾄﾙ枠
  6
Continuous
370
    40
100
AcDbLine
 10
379.9700364958603
 20
13.51238151963667
 30
0.0
 11
379.9700364958603
 21
13.36238151963669
 31
0.0
  0
LINE
  5
5C75
330
4DD6
100
AcDbEntity
 67
     1
  8
ﾀｲﾄﾙ枠
  6
Continuous
370
    40
100
AcDbLine
 10
378.4744425720786
 20
13.77238151963672
 30
0.0
 11
378.8281635023113
 21
12.6023815196367
 31
0.0
  0
LINE
  5
5C76
330
4DD6
100
AcDbEntity
 67
     1
  8
ﾀｲﾄﾙ枠
  6
Continuous
370
    40
100
AcDbLine
 10
377.9205141405723
 20
12.6023815196367
 30
0.0
 11
377.5667932103396
 21
13.77238151963672
 31
0.0
  0
LINE
  5
5C77
330
4DD6
100
AcDbEntity
 67
     1
  8
ﾀｲﾄﾙ枠
  6
Continuous
370
    40
100
AcDbLine
 10
377.5667932103396
 20
13.77238151963672
 30
0.0
 11
378.4744425720786
 21
13.77238151963672
 31
0.0
  0
LINE
  5
5C78
330
4DD6
100
AcDbEntity
 67
     1
  8
ﾀｲﾄﾙ枠
  6
Continuous
370
    40
100
AcDbLine
 10
379.4300364958603
 20
13.36238151963669
 30
0.0
 11
379.4300364958603
 21
13.51238151963667
 31
0.0
  0
LINE
  5
5C79
330
4DD6
100
AcDbEntity
 67
     1
  8
ﾀｲﾄﾙ枠
  6
Continuous
370
    40
100
AcDbLine
 10
377.3700364958603
 20
10.23058795339636
 30
0.0
 11
377.3700364958603
 21
9.287332495316377
 31
0.0
  0
LINE
  5
5C7A
330
4DD6
100
AcDbEntity
 67
     1
  8
ﾀｲﾄﾙ枠
  6
Continuous
370
    40
100
AcDbLine
 10
379.1056304196419
 20
8.682381519636692
 30
0.0
 11
377.9265606521999
 21
12.58238151963666
 31
0.0
  0
LINE
  5
5C7B
330
4DD6
100
AcDbEntity
 67
     1
  8
ﾀｲﾄﾙ枠
  6
Continuous
370
    40
100
AcDbLine
 10
378.0874003189634
 20
13.55148579706479
 30
0.0
 11
379.4926726727571
 21
8.903277242208616
 31
0.0
  0
LINE
  5
5C7C
330
4DD6
100
AcDbEntity
 67
     1
  8
ﾀｲﾄﾙ枠
  6
Continuous
370
    40
100
AcDbLine
 10
378.3181703623124
 20
13.55148579706479
 30
0.0
 11
379.7234427161062
 21
8.903277242208616
 31
0.0
  0
LINE
  5
5C7D
330
4DD6
100
AcDbEntity
 67
     1
  8
ﾀｲﾄﾙ枠
  6
Continuous
370
    40
100
AcDbLine
 10
377.8566302756143
 20
13.55148579706479
 30
0.0
 11
379.261902629408
 21
8.903277242208616
 31
0.0
  0
LINE
  5
5C7E
330
4DD6
100
AcDbEntity
 67
     1
  8
ﾀｲﾄﾙ枠
  6
Continuous
370
    40
100
AcDbLine
 10
378.8342100139392
 20
12.58238151963666
 30
0.0
 11
380.0132797813809
 21
8.682381519636692
 31
0.0
  0
LINE
  5
5C7F
330
4DD6
100
AcDbEntity
 67
     1
  8
ﾀｲﾄﾙ枠
  6
Continuous
370
    40
100
AcDbLine
 10
380.0132797813809
 20
8.682381519636692
 30
0.0
 11
379.1056304196419
 21
8.682381519636692
 31
0.0
  0
LINE
  5
5C80
330
4DD6
100
AcDbEntity
 67
     1
  8
ﾀｲﾄﾙ枠
  6
Continuous
370
    40
100
AcDbLine
 10
379.9700364958603
 20
13.36238151963669
 30
0.0
 11
379.4300364958603
 21
13.36238151963669
 31
0.0
  0
LINE
  5
5C81
330
4DD6
100
AcDbEntity
 67
     1
  8
ﾀｲﾄﾙ枠
  6
Continuous
370
    40
100
AcDbLine
 10
379.4300364958603
 20
13.51238151963667
 30
0.0
 11
379.9700364958603
 21
13.51238151963667
 31
0.0
  0
LINE
  5
5C82
330
4DD6
100
AcDbEntity
 67
     1
  8
ﾀｲﾄﾙ枠
  6
Continuous
370
    40
100
AcDbLine
 10
375.8000364958602
 20
11.43238151963669
 30
0.0
 11
375.8000364958602
 21
10.04218795339636
 31
0.0
  0
LINE
  5
5C83
330
4DD6
100
AcDbEntity
 67
     1
  8
ﾀｲﾄﾙ枠
  6
Continuous
370
    40
100
AcDbLine
 10
374.6200364958602
 20
8.737332495316366
 30
0.0
 11
374.6200364958602
 21
9.900587953396382
 31
0.0
  0
LINE
  5
5C84
330
4DD6
100
AcDbEntity
 67
     1
  8
ﾀｲﾄﾙ枠
  6
Continuous
370
    40
100
AcDbLine
 10
375.4000364958602
 20
9.994187953396362
 30
0.0
 11
375.4000364958602
 21
11.68238151963669
 31
0.0
  0
LINE
  5
5C85
330
4DD6
100
AcDbEntity
 67
     1
  8
ﾀｲﾄﾙ枠
  6
Continuous
370
    40
100
AcDbLine
 10
377.3700364958603
 20
11.68238151963669
 30
0.0
 11
374.6200364958602
 21
11.68238151963669
 31
0.0
  0
LINE
  5
5C86
330
4DD6
100
AcDbEntity
 67
     1
  8
ﾀｲﾄﾙ枠
  6
Continuous
370
    40
100
AcDbLine
 10
377.3700364958603
 20
9.287332495316377
 30
0.0
 11
374.6200364958602
 21
8.737332495316366
 31
0.0
  0
LINE
  5
5C87
330
4DD6
100
AcDbEntity
 67
     1
  8
ﾀｲﾄﾙ枠
  6
Continuous
370
    40
100
AcDbLine
 10
374.6200364958602
 20
9.900587953396382
 30
0.0
 11
377.3700364958603
 21
10.23058795339636
 31
0.0
  0
LINE
  5
5C88
330
4DD6
100
AcDbEntity
 67
     1
  8
ﾀｲﾄﾙ枠
  6
Continuous
370
    40
100
AcDbLine
 10
377.1200364958602
 20
9.718960224356351
 30
0.0
 11
374.8700364958602
 21
9.358960224356337
 31
0.0
  0
LINE
  5
5C89
330
4DD6
100
AcDbEntity
 67
     1
  8
ﾀｲﾄﾙ枠
  6
Continuous
370
    40
100
AcDbLine
 10
377.0851370699588
 20
9.937081636240463
 30
0.0
 11
374.8351370699588
 21
9.57708163624045
 31
0.0
  0
LINE
  5
5C8A
330
4DD6
100
AcDbEntity
 67
     1
  8
ﾀｲﾄﾙ枠
  6
Continuous
370
    40
100
AcDbLine
 10
377.1549359217617
 20
9.500838812472238
 30
0.0
 11
374.9049359217617
 21
9.140838812472281
 31
0.0
  0
LINE
  5
5C8B
330
4DD6
100
AcDbEntity
 67
     1
  8
ﾀｲﾄﾙ枠
  6
Continuous
370
    40
100
AcDbLine
 10
374.6200364958602
 20
12.59238151963671
 30
0.0
 11
379.9700364958603
 21
12.59238151963671
 31
0.0
  0
LINE
  5
5C8C
330
4DD6
100
AcDbEntity
 67
     1
  8
ﾀｲﾄﾙ枠
  6
Continuous
370
    40
100
AcDbLine
 10
385.5749222302246
 20
13.77238151963672
 30
0.0
 11
387.6000364958603
 21
12.640700018252
 31
0.0
  0
LINE
  5
5C8D
330
4DD6
100
AcDbEntity
 67
     1
  8
ﾀｲﾄﾙ枠
  6
Continuous
370
    40
100
AcDbLine
 10
387.6000364958603
 20
12.640700018252
 30
0.0
 11
387.6000364958603
 21
11.89189001682404
 31
0.0
  0
LINE
  5
5C8E
330
4DD6
100
AcDbEntity
 67
     1
  8
ﾀｲﾄﾙ枠
  6
Continuous
370
    40
100
AcDbLine
 10
387.6000364958603
 20
11.89189001682404
 30
0.0
 11
384.8600364958603
 21
13.26189001682405
 31
0.0
  0
LINE
  5
5C8F
330
4DD6
100
AcDbEntity
 67
     1
  8
ﾀｲﾄﾙ枠
  6
Continuous
370
    40
100
AcDbLine
 10
384.6322095000572
 20
13.52238151963672
 30
0.0
 11
385.0878634916633
 21
13.52238151963672
 31
0.0
  0
LINE
  5
5C90
330
4DD6
100
AcDbEntity
 67
     1
  8
ﾀｲﾄﾙ枠
  6
Continuous
370
    40
100
AcDbLine
 10
385.0878634916633
 20
13.52238151963672
 30
0.0
 11
387.3500364958603
 21
12.39129501753802
 31
0.0
  0
LINE
  5
5C91
330
4DD6
100
AcDbEntity
 67
     1
  8
ﾀｲﾄﾙ枠
  6
Continuous
370
    40
100
AcDbLine
 10
386.5600364958602
 20
11.62738151963668
 30
0.0
 11
386.5600364958602
 21
11.7373815196367
 31
0.0
  0
LINE
  5
5C92
330
4DD6
100
AcDbEntity
 67
     1
  8
ﾀｲﾄﾙ枠
  6
Continuous
370
    40
100
AcDbLine
 10
385.6865942486722
 20
10.76238151963667
 30
0.0
 11
387.3253442486723
 21
8.692381519636683
 31
0.0
  0
LINE
  5
5C93
330
4DD6
100
AcDbEntity
 67
     1
  8
ﾀｲﾄﾙ枠
  6
Continuous
370
    40
100
AcDbLine
 10
384.9730620763812
 20
10.77238151963672
 30
0.0
 11
386.6197287430482
 21
8.692381519636683
 31
0.0
  0
LINE
  5
5C94
330
4DD6
100
AcDbEntity
 67
     1
  8
ﾀｲﾄﾙ枠
  6
Continuous
370
    40
100
AcDbLine
 10
386.7667031625269
 20
8.952381519636674
 30
0.0
 11
385.4697134956096
 21
10.59068425679538
 31
0.0
  0
LINE
  5
5C95
330
4DD6
100
AcDbEntity
 67
     1
  8
ﾀｲﾄﾙ枠
  6
Continuous
370
    40
100
AcDbLine
 10
382.1200364958603
 20
11.89189001682404
 30
0.0
 11
382.1200364958603
 21
12.640700018252
 31
0.0
  0
LINE
  5
5C96
330
4DD6
100
AcDbEntity
 67
     1
  8
ﾀｲﾄﾙ枠
  6
Continuous
370
    40
100
AcDbLine
 10
383.1600364958602
 20
11.7373815196367
 30
0.0
 11
383.1600364958602
 21
11.62738151963668
 31
0.0
  0
LINE
  5
5C97
330
4DD6
100
AcDbEntity
 67
     1
  8
ﾀｲﾄﾙ枠
  6
Continuous
370
    40
100
AcDbLine
 10
382.1200364958603
 20
12.640700018252
 30
0.0
 11
384.145150761496
 21
13.77238151963672
 31
0.0
  0
LINE
  5
5C98
330
4DD6
100
AcDbEntity
 67
     1
  8
ﾀｲﾄﾙ枠
  6
Continuous
370
    40
100
AcDbLine
 10
382.3947287430479
 20
8.692381519636683
 30
0.0
 11
384.0334787430482
 21
10.76238151963667
 31
0.0
  0
LINE
  5
5C99
330
4DD6
100
AcDbEntity
 67
     1
  8
ﾀｲﾄﾙ枠
  6
Continuous
370
    40
100
AcDbLine
 10
384.2503594961109
 20
10.59068425679538
 30
0.0
 11
382.9533698291935
 21
8.952381519636674
 31
0.0
  0
LINE
  5
5C9A
330
4DD6
100
AcDbEntity
 67
     1
  8
ﾀｲﾄﾙ枠
  6
Continuous
370
    40
100
AcDbLine
 10
384.145150761496
 20
13.77238151963672
 30
0.0
 11
385.5749222302246
 21
13.77238151963672
 31
0.0
  0
LINE
  5
5C9B
330
4DD6
100
AcDbEntity
 67
     1
  8
ﾀｲﾄﾙ枠
  6
Continuous
370
    40
100
AcDbLine
 10
387.6000364958603
 20
10.77238151963672
 30
0.0
 11
382.1200364958603
 21
10.77238151963672
 31
0.0
  0
LINE
  5
5C9C
330
4DD6
100
AcDbEntity
 67
     1
  8
ﾀｲﾄﾙ枠
  6
Continuous
370
    40
100
AcDbLine
 10
384.8600364958603
 20
13.26189001682405
 30
0.0
 11
382.1200364958603
 21
11.89189001682404
 31
0.0
  0
LINE
  5
5C9D
330
4DD6
100
AcDbEntity
 67
     1
  8
ﾀｲﾄﾙ枠
  6
Continuous
370
    40
100
AcDbLine
 10
382.3700364958602
 20
12.39129501753802
 30
0.0
 11
384.6322095000572
 21
13.52238151963672
 31
0.0
  0
LINE
  5
5C9E
330
4DD6
100
AcDbEntity
 67
     1
  8
ﾀｲﾄﾙ枠
  6
Continuous
370
    40
100
AcDbLine
 10
386.5600364958602
 20
11.7373815196367
 30
0.0
 11
383.1600364958602
 21
11.7373815196367
 31
0.0
  0
LINE
  5
5C9F
330
4DD6
100
AcDbEntity
 67
     1
  8
ﾀｲﾄﾙ枠
  6
Continuous
370
    40
100
AcDbLine
 10
383.1600364958602
 20
11.62738151963668
 30
0.0
 11
386.5600364958602
 21
11.62738151963668
 31
0.0
  0
LINE
  5
5CA0
330
4DD6
100
AcDbEntity
 67
     1
  8
ﾀｲﾄﾙ枠
  6
Continuous
370
    40
100
AcDbLine
 10
387.3253442486723
 20
8.692381519636683
 30
0.0
 11
382.3947287430479
 21
8.692381519636683
 31
0.0
  0
LINE
  5
5CA1
330
4DD6
100
AcDbEntity
 67
     1
  8
ﾀｲﾄﾙ枠
  6
Continuous
370
    40
100
AcDbLine
 10
383.1003442486726
 20
8.692381519636683
 30
0.0
 11
384.7470109153393
 21
10.77238151963672
 31
0.0
  0
TEXT
  5
5CA2
330
4DD6
100
AcDbEntity
 67
     1
  8
ﾀｲﾄﾙ枠
100
AcDbText
 10
381.0506107215484
 20
27.36599227965833
 30
0.0
 40
2.5
  1
尺 度
 50
270.0
  7
明朝TATE
 72
     4
 11
382.3287006091888
 21
23.22273385269204
 31
0.0
100
AcDbText
  0
LINE
  5
5CA3
330
4DD6
100
AcDbEntity
 67
     1
  8
ﾀｲﾄﾙ枠
  6
Continuous
370
    40
100
AcDbLine
 10
393.3900364958602
 20
13.77238151963672
 30
0.0
 11
394.3200364958602
 21
13.77238151963672
 31
0.0
  0
LINE
  5
5CA4
330
4DD6
100
AcDbEntity
 67
     1
  8
ﾀｲﾄﾙ枠
  6
Continuous
370
    40
100
AcDbLine
 10
392.8700364958602
 20
12.07238151963667
 30
0.0
 11
395.2300364958603
 21
12.07238151963667
 31
0.0
  0
LINE
  5
5CA5
330
4DD6
100
AcDbEntity
 67
     1
  8
ﾀｲﾄﾙ枠
  6
Continuous
370
    40
100
AcDbLine
 10
395.3600364958603
 20
8.627381519636685
 30
0.0
 11
392.7400364958602
 21
8.627381519636685
 31
0.0
  0
LINE
  5
5CA6
330
4DD6
100
AcDbEntity
 67
     1
  8
ﾀｲﾄﾙ枠
  6
Continuous
370
    40
100
AcDbLine
 10
393.3900364958602
 20
8.627381519636685
 30
0.0
 11
393.3900364958602
 21
13.77238151963672
 31
0.0
  0
LINE
  5
5CA7
330
4DD6
100
AcDbEntity
 67
     1
  8
ﾀｲﾄﾙ枠
  6
Continuous
370
    40
100
AcDbLine
 10
394.3200364958602
 20
13.77238151963672
 30
0.0
 11
394.3200364958602
 21
8.627381519636685
 31
0.0
  0
LINE
  5
5CA8
330
4DD6
100
AcDbEntity
 67
     1
  8
ﾀｲﾄﾙ枠
  6
Continuous
370
    40
100
AcDbLine
 10
393.8550364958603
 20
8.877381519636685
 30
0.0
 11
393.8550364958603
 21
13.52238151963672
 31
0.0
  0
LINE
  5
5CA9
330
4DD6
100
AcDbEntity
 67
     1
  8
ﾀｲﾄﾙ枠
  6
Continuous
370
    40
100
AcDbLine
 10
394.0550364958602
 20
8.877381519636685
 30
0.0
 11
394.0550364958602
 21
13.52238151963672
 31
0.0
  0
LINE
  5
5CAA
330
4DD6
100
AcDbEntity
 67
     1
  8
ﾀｲﾄﾙ枠
  6
Continuous
370
    40
100
AcDbLine
 10
393.6550364958602
 20
8.877381519636685
 30
0.0
 11
393.6550364958602
 21
13.52238151963672
 31
0.0
  0
LINE
  5
5CAB
330
4DD6
100
AcDbEntity
 67
     1
  8
ﾀｲﾄﾙ枠
  6
Continuous
370
    40
100
AcDbLine
 10
392.2946335842559
 20
9.462381519636721
 30
0.0
 11
392.1393918372936
 21
9.462381519636721
 31
0.0
  0
LINE
  5
5CAC
330
4DD6
100
AcDbEntity
 67
     1
  8
ﾀｲﾄﾙ枠
  6
Continuous
370
    40
100
AcDbLine
 10
389.7168929675409
 20
9.462381519636721
 30
0.0
 11
389.8750068505492
 21
9.462381519636721
 31
0.0
  0
LINE
  5
5CAD
330
4DD6
100
AcDbEntity
 67
     1
  8
ﾀｲﾄﾙ枠
  6
Continuous
370
    40
100
AcDbLine
 10
390.2002263008742
 20
10.91238151963671
 30
0.0
 11
389.7168929675409
 21
9.462381519636721
 31
0.0
  0
LINE
  5
5CAE
330
4DD6
100
AcDbEntity
 67
     1
  8
ﾀｲﾄﾙ枠
  6
Continuous
370
    40
100
AcDbLine
 10
391.9800364958603
 20
12.07238151963667
 30
0.0
 11
389.8800364958603
 21
12.07238151963667
 31
0.0
  0
LINE
  5
5CAF
330
4DD6
100
AcDbEntity
 67
     1
  8
ﾀｲﾄﾙ枠
  6
Continuous
370
    40
100
AcDbLine
 10
391.9079669175893
 20
10.91238151963671
 30
0.0
 11
391.4600364958602
 21
10.91238151963671
 31
0.0
  0
LINE
  5
5CB0
330
4DD6
100
AcDbEntity
 67
     1
  8
ﾀｲﾄﾙ枠
  6
Continuous
370
    40
100
AcDbLine
 10
390.6600364958602
 20
10.91238151963671
 30
0.0
 11
390.2002263008742
 21
10.91238151963671
 31
0.0
  0
LINE
  5
5CB1
330
4DD6
100
AcDbEntity
 67
     1
  8
ﾀｲﾄﾙ枠
  6
Continuous
370
    40
100
AcDbLine
 10
390.1400364958602
 20
13.76238151963667
 30
0.0
 11
391.8500364958603
 21
13.76238151963667
 31
0.0
  0
LINE
  5
5CB2
330
4DD6
100
AcDbEntity
 67
     1
  8
ﾀｲﾄﾙ枠
  6
Continuous
370
    40
100
AcDbLine
 10
390.6600364958602
 20
8.682381519636692
 30
0.0
 11
391.4600364958602
 21
8.682381519636692
 31
0.0
  0
LINE
  5
5CB3
330
4DD6
100
AcDbEntity
 67
     1
  8
ﾀｲﾄﾙ枠
  6
Continuous
370
    40
100
AcDbLine
 10
390.6600364958602
 20
12.07238151963667
 30
0.0
 11
390.6600364958602
 21
8.682381519636692
 31
0.0
  0
LINE
  5
5CB4
330
4DD6
100
AcDbEntity
 67
     1
  8
ﾀｲﾄﾙ枠
  6
Continuous
370
    40
100
AcDbLine
 10
391.4600364958602
 20
8.682381519636692
 30
0.0
 11
391.4600364958602
 21
12.07238151963667
 31
0.0
  0
LINE
  5
5CB5
330
4DD6
100
AcDbEntity
 67
     1
  8
ﾀｲﾄﾙ枠
  6
Continuous
370
    40
100
AcDbLine
 10
391.0600364958602
 20
11.82238151963668
 30
0.0
 11
391.0600364958602
 21
8.932381519636692
 31
0.0
  0
LINE
  5
5CB6
330
4DD6
100
AcDbEntity
 67
     1
  8
ﾀｲﾄﾙ枠
  6
Continuous
370
    40
100
AcDbLine
 10
389.8750068505492
 20
9.462381519636721
 30
0.0
 11
390.3583401838826
 21
10.91238151963671
 31
0.0
  0
LINE
  5
5CB7
330
4DD6
100
AcDbEntity
 67
     1
  8
ﾀｲﾄﾙ枠
  6
Continuous
370
    40
100
AcDbLine
 10
391.2600364958602
 20
11.82238151963668
 30
0.0
 11
391.2600364958602
 21
8.932381519636692
 31
0.0
  0
LINE
  5
5CB8
330
4DD6
100
AcDbEntity
 67
     1
  8
ﾀｲﾄﾙ枠
  6
Continuous
370
    40
100
AcDbLine
 10
390.8600364958603
 20
11.82238151963668
 30
0.0
 11
390.8600364958603
 21
8.932381519636692
 31
0.0
  0
LINE
  5
5CB9
330
4DD6
100
AcDbEntity
 67
     1
  8
ﾀｲﾄﾙ枠
  6
Continuous
370
    40
100
AcDbLine
 10
392.1393918372936
 20
9.462381519636721
 30
0.0
 11
391.7527251706266
 21
10.91238151963671
 31
0.0
  0
LINE
  5
5CBA
330
4DD6
100
AcDbEntity
 67
     1
  8
ﾀｲﾄﾙ枠
  6
Continuous
370
    40
100
AcDbLine
 10
391.9079669175893
 20
10.91238151963671
 30
0.0
 11
392.2946335842559
 21
9.462381519636721
 31
0.0
  0
ENDSEC
  0
SECTION
  2
OBJECTS
  0
DICTIONARY
  5
C
330
0
100
AcDbDictionary
281
     1
  3
ACAD_GROUP
350
D
  3
ACAD_LAYOUT
350
2320
  3
ACAD_MLINESTYLE
350
1B
  3
ACAD_PLOTSETTINGS
350
2321
  3
ACAD_PLOTSTYLENAME
350
231E
  3
ACDBVARIABLEDICTIONARY
350
2CE
  3
CONTENTDICTIONARY
350
23
  0
DICTIONARY
  5
4AD3
330
2
100
AcDbDictionary
280
     1
281
     1
  3
ACAD_LAYERFILTERS
360
4AD4
  0
DICTIONARY
  5
3B7F
330
18
100
AcDbDictionary
280
     1
281
     1
  3
ACAD_LAYOUTSELFREF
360
3E97
  0
DICTIONARY
  5
4F46
330
4DD6
100
AcDbDictionary
280
     1
281
     1
  3
ACAD_LAYOUTSELFREF
360
4F47
  0
DICTIONARY
  5
D
102
{ACAD_REACTORS
330
C
102
}
330
C
100
AcDbDictionary
281
     1
  0
DICTIONARY
  5
2320
102
{ACAD_REACTORS
330
C
102
}
330
C
100
AcDbDictionary
281
     1
  3
6t
350
4F4A
  3
Model
350
2322
  0
DICTIONARY
  5
1B
102
{ACAD_REACTORS
330
C
102
}
330
C
100
AcDbDictionary
281
     1
  3
STANDARD
350
1C
  0
DICTIONARY
  5
2321
102
{ACAD_REACTORS
330
C
102
}
330
C
100
AcDbDictionary
281
     1
  0
ACDBDICTIONARYWDFLT
  5
231E
102
{ACAD_REACTORS
330
C
102
}
330
C
100
AcDbDictionary
281
     1
  3
Normal
350
231F
100
AcDbDictionaryWithDefault
340
231F
  0
DICTIONARY
  5
2CE
102
{ACAD_REACTORS
330
C
102
}
330
C
100
AcDbDictionary
281
     1
  3
DIMADEC
350
2CF
  3
DIMASSOC
350
25EB
  3
SORTENTS
350
1857
  0
DICTIONARY
  5
23
102
{ACAD_REACTORS
330
C
102
}
330
C
100
AcDbDictionary
281
     1
  0
DICTIONARY
  5
4AD4
102
{ACAD_REACTORS
330
4AD3
102
}
330
4AD3
100
AcDbDictionary
280
     1
281
     1
  3
\U+663E示所有\U+56FE\U+5C42
360
4AD5
  3
\U+9EC3色
360
4AD6
  3
1
360
4AD7
  3
1-L
360
4AD8
  3
1stFloor
360
4AD9
  3
2
360
4ADA
  3
200
360
4ADB
  3
2ndFloor
360
4ADC
  3
3
360
4ADD
  3
400
360
4ADE
  3
A
360
4ADF
  3
A-
360
4AE0
  3
A-ELEV
360
4AE1
  3
ac
360
4AE2
  3
ALL-TXT
360
4AE3
  3
ap平面圖
360
4AE4
  3
AR-TXT
360
4AE5
  3
ARCHITECTS
360
4AE6
  3
area
360
4AE7
  3
asd
360
4AE8
  3
B
360
4AE9
  3
Basci
360
4AEA
  3
base_map
360
4AEB
  3
BB
360
4AEC
  3
BLUE
360
4AED
  3
boun地籍資料
360
4AEE
  3
BROWNLINES
360
4AEF
  3
BW-TXT
360
4AF0
  3
C-
360
4AF1
  3
CEILING
360
4AF2
  3
cloud
360
4AF3
  3
co
360
4AF4
  3
co-
360
4AF5
  3
color-7
360
4AF6
  3
columns-propose
360
4AF7
  3
columns-proposed
360
4AF8
  3
Combo
360
4AF9
  3
complete-services
360
4AFA
  3
CONSTRUCTION-DOC
360
4AFB
  3
cont整地
360
4AFC
  3
Core
360
4AFD
  3
CSD
360
4AFE
  3
CSD-TXT
360
4AFF
  3
CYAN
360
4B00
  3
ｄ
360
5D0D
  3
D
360
4B02
  3
dim尺寸
360
4B03
  3
dnf
360
4B04
  3
drain
360
4B05
  3
DT
360
4B06
  3
DW-GRID
360
4B07
  3
electrical
360
4B08
  3
ELEV
360
4B09
  3
es立剖面
360
4B0A
  3
extg
360
4B0B
  3
EXTG-~
360
4B0C
  3
F.S.
360
4B0D
  3
fire
360
4B0E
  3
fireline
360
4B0F
  3
floor layout
360
4B10
  3
Freeze
360
4B11
  3
Frez
360
4B12
  3
FROOZEN
360
4B13
  3
FROZEN
360
4B14
  3
FS
360
4B15
  3
FUR
360
4B16
  3
furn\U+50A2\U+4FF1
360
4B17
  3
furniture
360
4B18
  3
GREEN
360
4B19
  3
Grid
360
4B1A
  3
Grid and Fireline
360
4B1B
  3
hatches
360
4B1C
  3
hat鋪面質感
360
4B1D
  3
hd
360
4B1E
  3
ian1
360
4B1F
  3
ian2
360
4B20
  3
ian3
360
4B21
  3
idx索引圖
360
4B22
  3
ims
360
4B23
  3
Karsten
360
4B24
  3
L-TEMP
360
4B25
  3
LANDSCAP
360
4B26
  3
LANDSCAPE
360
4B27
  3
law法規檢討
360
4B28
  3
lea
360
4B29
  3
list表格
360
4B2A
  3
MAGENTA
360
4B2B
  3
move
360
4B2C
  3
N
360
4B2D
  3
Off
360
4B2E
  3
P
360
4B2F
  3
Pen weight
360
4B30
  3
PHA
360
4B31
  3
poche
360
4B32
  3
PORT
360
4B33
  3
R
360
4B34
  3
RAIL
360
4B35
  3
RED
360
4B36
  3
S
360
4B37
  3
search
360
4B38
  3
sec
360
4B39
  3
section
360
4B3A
  3
Show all thawed Layers
360
4B3B
  3
show all thawed no xref
360
4B3C
  3
Show No xref layers
360
4B3D
  3
ｓｉｔｅ
360
4B3E
  3
Site
360
5D0E
  3
ST-UG-OL
360
4B40
  3
stair
360
4B41
  3
sta樓梯
360
4B42
  3
sym符號
360
4B43
  3
t
360
4B44
  3
test
360
4B45
  3
TEXT
360
4B46
  3
TEXT-0NLY
360
4B47
  3
TEXT-ONLY
360
4B48
  3
text文字
360
4B49
  3
TL
360
4B4A
  3
toil衛浴
360
4B4B
  3
txt
360
4B4C
  3
TXT-BW
360
4B4D
  3
unlock all layers
360
4B4E
  3
VP THAW
360
4B4F
  3
vsit景觀環境
360
4B50
  3
W
360
4B51
  3
WA
360
4B52
  3
walk-distance
360
4B53
  3
WALL
360
4B54
  3
WALL-90
360
4B55
  3
wd門窗
360
4B56
  3
WHITE
360
4B57
  3
WIN
360
4B58
  3
YELLOW
360
4B59
  3
ｚｚｚ
360
4B5A
  3
ZZZ
360
5D0F
  3
紅色
360
4B5C
  3
青色
360
4B5D
  3
白色
360
4B5E
  0
XRECORD
  5
3E97
102
{ACAD_REACTORS
330
3B7F
102
}
330
3B7F
100
AcDbXrecord
280
     1
340
18
  0
XRECORD
  5
4F47
102
{ACAD_REACTORS
330
4F46
102
}
330
4F46
100
AcDbXrecord
280
     1
340
4DD6
  0
LAYOUT
  5
4F4A
102
{ACAD_REACTORS
330
2320
102
}
330
2320
100
AcDbPlotSettings
  1

  2
Acrobat Distiller
  4
A3
  6

 40
3.174999952316284
 41
3.174999952316284
 42
3.17498779296875
 43
3.17498779296875
 44
297.0318298339843
 45
420.1583251953125
 46
0.0
 47
0.0
 48
0.0
 49
0.0
140
0.0
141
0.0
142
1.0
143
1.0
 70
   672
 72
     1
 73
     1
 74
     5
  7
monochrome.ctb
 75
     0
147
1.0
148
0.0
149
0.0
100
AcDbLayout
  1
6t
 70
     1
 71
     1
 10
-3.17498779296875
 20
-3.174999952316284
 11
416.9833374023437
 21
293.856829881668
 12
0.0
 22
0.0
 32
0.0
 14
21.8287006091889
 24
5.222733852692044
 34
0.0
 15
407.8287006091889
 25
285.222733852692
 35
0.0
146
0.0
 13
0.0
 23
0.0
 33
0.0
 16
1.0
 26
0.0
 36
0.0
 17
0.0
 27
1.0
 37
0.0
 76
     0
330
4DD6
331
4DD7
  0
LAYOUT
  5
2322
102
{ACAD_REACTORS
330
2320
102
}
330
2320
100
AcDbPlotSettings
  1

  2
\\YOSHISV\NEC MultiWriter 2000E Plus
  4

  6

 40
0.0
 41
0.0
 42
0.0
 43
0.0
 44
0.0
 45
0.0
 46
0.0
 47
0.0
 48
0.0
 49
0.0
140
0.0
141
0.0
142
1.0
143
1.0
 70
  1712
 72
     0
 73
     0
 74
     0
  7

 75
     0
147
1.0
148
0.0
149
0.0
100
AcDbLayout
  1
Model
 70
     1
 71
     0
 10
0.0
 20
0.0
 11
12.0
 21
9.0
 12
0.0
 22
0.0
 32
0.0
 14
0.0
 24
0.0
 34
0.0
 15
0.0
 25
0.0
 35
0.0
146
0.0
 13
0.0
 23
0.0
 33
0.0
 16
1.0
 26
0.0
 36
0.0
 17
0.0
 27
1.0
 37
0.0
 76
     0
330
18
  0
MLINESTYLE
  5
1C
102
{ACAD_REACTORS
330
1B
102
}
330
1B
100
AcDbMlineStyle
  2
STANDARD
 70
     0
  3

 62
   256
 51
90.0
 52
90.0
 71
     2
 49
0.5
 62
   256
  6
BYLAYER
 49
-0.5
 62
   256
  6
BYLAYER
  0
ACDBPLACEHOLDER
  5
231F
102
{ACAD_REACTORS
330
231E
102
}
330
231E
  0
DICTIONARYVAR
  5
2CF
102
{ACAD_REACTORS
330
2CE
102
}
330
2CE
100
DictionaryVariables
280
     0
  1
0
  0
DICTIONARYVAR
  5
25EB
102
{ACAD_REACTORS
330
2CE
102
}
330
2CE
100
DictionaryVariables
280
     0
  1
1
  0
DICTIONARYVAR
  5
1857
102
{ACAD_REACTORS
330
2CE
102
}
330
2CE
100
DictionaryVariables
280
     0
  1
96
  0
XRECORD
  5
4AD5
102
{ACAD_REACTORS
330
4AD4
102
}
330
4AD4
100
AcDbXrecord
280
     1
  1
\U+663E示所有\U+56FE\U+5C42
  1
\U+5899
  1
*
  1
*
 70
     0
  1
*
  1
*
  0
XRECORD
  5
4AD6
102
{ACAD_REACTORS
330
4AD4
102
}
330
4AD4
100
AcDbXrecord
280
     1
  1
\U+9EC3色
  1
*
  1
yellow*
  1
*
 70
     0
  1
*
  1
*
  0
XRECORD
  5
4AD7
102
{ACAD_REACTORS
330
4AD4
102
}
330
4AD4
100
AcDbXrecord
280
     1
  1
1
  1
*
  1
*
  1
*
 70
     1
  1
*
  1
*
  0
XRECORD
  5
4AD8
102
{ACAD_REACTORS
330
4AD4
102
}
330
4AD4
100
AcDbXrecord
280
     1
  1
1-L
  1
*
  1
*
  1
*
 70
     0
  1
*
  1
*
  0
XRECORD
  5
4AD9
102
{ACAD_REACTORS
330
4AD4
102
}
330
4AD4
100
AcDbXrecord
280
     1
  1
1stFloor
  1
*F1
  1
*
  1
*
 70
     0
  1
*
  1
*
  0
XRECORD
  5
4ADA
102
{ACAD_REACTORS
330
4AD4
102
}
330
4AD4
100
AcDbXrecord
280
     1
  1
2
  1
*
  1
*
  1
*
 70
   768
  1
*
  1
*
  0
XRECORD
  5
4ADB
102
{ACAD_REACTORS
330
4AD4
102
}
330
4AD4
100
AcDbXrecord
280
     1
  1
200
  1
*200*
  1
*
  1
*
 70
     0
  1
*
  1
*
  0
XRECORD
  5
4ADC
102
{ACAD_REACTORS
330
4AD4
102
}
330
4AD4
100
AcDbXrecord
280
     1
  1
2ndFloor
  1
*F2
  1
*
  1
*
 70
     0
  1
*
  1
*
  0
XRECORD
  5
4ADD
102
{ACAD_REACTORS
330
4AD4
102
}
330
4AD4
100
AcDbXrecord
280
     1
  1
3
  1
*
  1
*
  1
*
 70
     0
  1
*
  1
*
  0
XRECORD
  5
4ADE
102
{ACAD_REACTORS
330
4AD4
102
}
330
4AD4
100
AcDbXrecord
280
     1
  1
400
  1
*400*
  1
*
  1
*
 70
     0
  1
*
  1
*
  0
XRECORD
  5
4ADF
102
{ACAD_REACTORS
330
4AD4
102
}
330
4AD4
100
AcDbXrecord
280
     1
  1
A
  1
*SOLID*
  1
*
  1
*
 70
     0
  1
*
  1
*
  0
XRECORD
  5
4AE0
102
{ACAD_REACTORS
330
4AD4
102
}
330
4AD4
100
AcDbXrecord
280
     1
  1
A-
  1
*
  1
*
  1
*
 70
     0
  1
*
  1
*
  0
XRECORD
  5
4AE1
102
{ACAD_REACTORS
330
4AD4
102
}
330
4AD4
100
AcDbXrecord
280
     1
  1
A-ELEV
  1
A-ELEV*
  1
*
  1
*
 70
     0
  1
*
  1
*
  0
XRECORD
  5
4AE2
102
{ACAD_REACTORS
330
4AD4
102
}
330
4AD4
100
AcDbXrecord
280
     1
  1
ac
  1
*ac*
  1
*
  1
*
 70
     0
  1
*
  1
*
  0
XRECORD
  5
4AE3
102
{ACAD_REACTORS
330
4AD4
102
}
330
4AD4
100
AcDbXrecord
280
     1
  1
ALL-TXT
  1
*TXT*
  1
*
  1
*
 70
     0
  1
*
  1
*
  0
XRECORD
  5
4AE4
102
{ACAD_REACTORS
330
4AD4
102
}
330
4AD4
100
AcDbXrecord
280
     1
  1
ap平面圖
  1
ap*
  1
*
  1
*
 70
     0
  1
*
  1
*
  0
XRECORD
  5
4AE5
102
{ACAD_REACTORS
330
4AD4
102
}
330
4AD4
100
AcDbXrecord
280
     1
  1
AR-TXT
  1
*TXT-CSD
  1
*
  1
*
 70
     0
  1
*
  1
*
  0
XRECORD
  5
4AE6
102
{ACAD_REACTORS
330
4AD4
102
}
330
4AD4
100
AcDbXrecord
280
     1
  1
ARCHITECTS
  1
AR*
  1
*
  1
*
 70
     0
  1
*
  1
*
  0
XRECORD
  5
4AE7
102
{ACAD_REACTORS
330
4AD4
102
}
330
4AD4
100
AcDbXrecord
280
     1
  1
area
  1
area*
  1
*
  1
*
 70
     0
  1
*
  1
*
  0
XRECORD
  5
4AE8
102
{ACAD_REACTORS
330
4AD4
102
}
330
4AD4
100
AcDbXrecord
280
     1
  1
asd
  1
1389p00|*
  1
*
  1
*
 70
     0
  1
*
  1
*
  0
XRECORD
  5
4AE9
102
{ACAD_REACTORS
330
4AD4
102
}
330
4AD4
100
AcDbXrecord
280
     1
  1
B
  1
KK*
  1
*
  1
*
 70
     3
  1
*
  1
*
  0
XRECORD
  5
4AEA
102
{ACAD_REACTORS
330
4AD4
102
}
330
4AD4
100
AcDbXrecord
280
     1
  1
Basci
  1
*
  1
*
  1
*
 70
     0
  1
*
  1
*
  0
XRECORD
  5
4AEB
102
{ACAD_REACTORS
330
4AD4
102
}
330
4AD4
100
AcDbXrecord
280
     1
  1
base_map
  1
9*
  1
*
  1
*
 70
     0
  1
*
  1
*
  0
XRECORD
  5
4AEC
102
{ACAD_REACTORS
330
4AD4
102
}
330
4AD4
100
AcDbXrecord
280
     1
  1
BB
  1
*
  1
*
  1
*
 70
     0
  1
*
  1
*
  0
XRECORD
  5
4AED
102
{ACAD_REACTORS
330
4AD4
102
}
330
4AD4
100
AcDbXrecord
280
     1
  1
BLUE
  1
*
  1
BLUE
  1
*
 70
     0
  1
*
  1
*
  0
XRECORD
  5
4AEE
102
{ACAD_REACTORS
330
4AD4
102
}
330
4AD4
100
AcDbXrecord
280
     1
  1
boun地籍資料
  1
boun*
  1
*
  1
*
 70
     0
  1
*
  1
*
  0
XRECORD
  5
4AEF
102
{ACAD_REACTORS
330
4AD4
102
}
330
4AD4
100
AcDbXrecord
280
     1
  1
BROWNLINES
  1
*
  1
*
  1
*
 70
     0
  1
*
  1
*
  0
XRECORD
  5
4AF0
102
{ACAD_REACTORS
330
4AD4
102
}
330
4AD4
100
AcDbXrecord
280
     1
  1
BW-TXT
  1
*TXT-BW
  1
*
  1
*
 70
     0
  1
*
  1
*
  0
XRECORD
  5
4AF1
102
{ACAD_REACTORS
330
4AD4
102
}
330
4AD4
100
AcDbXrecord
280
     1
  1
C-
  1
*
  1
*
  1
*
 70
     0
  1
*
  1
*
  0
XRECORD
  5
4AF2
102
{ACAD_REACTORS
330
4AD4
102
}
330
4AD4
100
AcDbXrecord
280
     1
  1
CEILING
  1
CEILING
  1
*
  1
*
 70
     4
  1
*
  1
*
  0
XRECORD
  5
4AF3
102
{ACAD_REACTORS
330
4AD4
102
}
330
4AD4
100
AcDbXrecord
280
     1
  1
cloud
  1
*cloud*
  1
*
  1
*
 70
     0
  1
*
  1
*
  0
XRECORD
  5
4AF4
102
{ACAD_REACTORS
330
4AD4
102
}
330
4AD4
100
AcDbXrecord
280
     1
  1
co
  1
*
  1
*
  1
*
 70
     0
  1
*
  1
*
  0
XRECORD
  5
4AF5
102
{ACAD_REACTORS
330
4AD4
102
}
330
4AD4
100
AcDbXrecord
280
     1
  1
co-
  1
*
  1
*
  1
*
 70
     0
  1
*
  1
*
  0
XRECORD
  5
4AF6
102
{ACAD_REACTORS
330
4AD4
102
}
330
4AD4
100
AcDbXrecord
280
     1
  1
color-7
  1
*
  1
7
  1
*
 70
     0
  1
*
  1
*
  0
XRECORD
  5
4AF7
102
{ACAD_REACTORS
330
4AD4
102
}
330
4AD4
100
AcDbXrecord
280
     1
  1
columns-propose
  1
*propose*
  1
*
  1
*
 70
     0
  1
*
  1
*
  0
XRECORD
  5
4AF8
102
{ACAD_REACTORS
330
4AD4
102
}
330
4AD4
100
AcDbXrecord
280
     1
  1
columns-proposed
  1
*propose*
  1
*
  1
*
 70
     0
  1
*
  1
*
  0
XRECORD
  5
4AF9
102
{ACAD_REACTORS
330
4AD4
102
}
330
4AD4
100
AcDbXrecord
280
     1
  1
Combo
  1
*Fc
  1
*
  1
*
 70
     0
  1
*
  1
*
  0
XRECORD
  5
4AFA
102
{ACAD_REACTORS
330
4AD4
102
}
330
4AD4
100
AcDbXrecord
280
     1
  1
complete-services
  1
*
  1
*
  1
*
 70
    13
  1
*
  1
*
  0
XRECORD
  5
4AFB
102
{ACAD_REACTORS
330
4AD4
102
}
330
4AD4
100
AcDbXrecord
280
     1
  1
CONSTRUCTION-DOC
  1
*
  1
*
  1
*
 70
     3
  1
*
  1
*
  0
XRECORD
  5
4AFC
102
{ACAD_REACTORS
330
4AD4
102
}
330
4AD4
100
AcDbXrecord
280
     1
  1
cont整地
  1
cont*
  1
*
  1
*
 70
     0
  1
*
  1
*
  0
XRECORD
  5
4AFD
102
{ACAD_REACTORS
330
4AD4
102
}
330
4AD4
100
AcDbXrecord
280
     1
  1
Core
  1
Core*
  1
*
  1
*
 70
     0
  1
*
  1
*
  0
XRECORD
  5
4AFE
102
{ACAD_REACTORS
330
4AD4
102
}
330
4AD4
100
AcDbXrecord
280
     1
  1
CSD
  1
csd*
  1
*
  1
*
 70
     0
  1
*
  1
*
  0
XRECORD
  5
4AFF
102
{ACAD_REACTORS
330
4AD4
102
}
330
4AD4
100
AcDbXrecord
280
     1
  1
CSD-TXT
  1
*TXT-CSD
  1
*
  1
*
 70
     0
  1
*
  1
*
  0
XRECORD
  5
4B00
102
{ACAD_REACTORS
330
4AD4
102
}
330
4AD4
100
AcDbXrecord
280
     1
  1
CYAN
  1
*
  1
CYAN
  1
*
 70
     0
  1
*
  1
*
  0
XRECORD
  5
5D0D
102
{ACAD_REACTORS
330
4AD4
102
}
330
4AD4
100
AcDbXrecord
280
     1
  1
ｄ
  1
ｄ*
  1
*
  1
*
 70
     0
  1
*
  1
*
  0
XRECORD
  5
4B02
102
{ACAD_REACTORS
330
4AD4
102
}
330
4AD4
100
AcDbXrecord
280
     1
  1
D
  1
T_*$0$WALL*
  1
*
  1
*
 70
     0
  1
*
  1
*
  0
XRECORD
  5
4B03
102
{ACAD_REACTORS
330
4AD4
102
}
330
4AD4
100
AcDbXrecord
280
     1
  1
dim尺寸
  1
dim*
  1
*
  1
*
 70
     0
  1
*
  1
*
  0
XRECORD
  5
4B04
102
{ACAD_REACTORS
330
4AD4
102
}
330
4AD4
100
AcDbXrecord
280
     1
  1
dnf
  1
dnf*
  1
*
  1
*
 70
     0
  1
*
  1
*
  0
XRECORD
  5
4B05
102
{ACAD_REACTORS
330
4AD4
102
}
330
4AD4
100
AcDbXrecord
280
     1
  1
drain
  1
ar-dr*
  1
*
  1
*
 70
     0
  1
*
  1
*
  0
XRECORD
  5
4B06
102
{ACAD_REACTORS
330
4AD4
102
}
330
4AD4
100
AcDbXrecord
280
     1
  1
DT
  1
*DOOR*,*TEXT*
  1
*
  1
*
 70
     0
  1
*
  1
*
  0
XRECORD
  5
4B07
102
{ACAD_REACTORS
330
4AD4
102
}
330
4AD4
100
AcDbXrecord
280
     1
  1
DW-GRID
  1
*DW-GRID
  1
*
  1
*
 70
     0
  1
*
  1
*
  0
XRECORD
  5
4B08
102
{ACAD_REACTORS
330
4AD4
102
}
330
4AD4
100
AcDbXrecord
280
     1
  1
electrical
  1
elec*
  1
*
  1
*
 70
     0
  1
*
  1
*
  0
XRECORD
  5
4B09
102
{ACAD_REACTORS
330
4AD4
102
}
330
4AD4
100
AcDbXrecord
280
     1
  1
ELEV
  1
EL_*
  1
*
  1
*
 70
    61
  1
*
  1
*
  0
XRECORD
  5
4B0A
102
{ACAD_REACTORS
330
4AD4
102
}
330
4AD4
100
AcDbXrecord
280
     1
  1
es立剖面
  1
es*
  1
*
  1
*
 70
     0
  1
*
  1
*
  0
XRECORD
  5
4B0B
102
{ACAD_REACTORS
330
4AD4
102
}
330
4AD4
100
AcDbXrecord
280
     1
  1
extg
  1
*extg*
  1
*
  1
*
 70
     0
  1
*
  1
*
  0
XRECORD
  5
4B0C
102
{ACAD_REACTORS
330
4AD4
102
}
330
4AD4
100
AcDbXrecord
280
     1
  1
EXTG-~
  1
*
  1
*
  1
*
 70
   256
  1
*
  1
*
  0
XRECORD
  5
4B0D
102
{ACAD_REACTORS
330
4AD4
102
}
330
4AD4
100
AcDbXrecord
280
     1
  1
F.S.
  1
3-*
  1
*
  1
*
 70
     0
  1
*
  1
*
  0
XRECORD
  5
4B0E
102
{ACAD_REACTORS
330
4AD4
102
}
330
4AD4
100
AcDbXrecord
280
     1
  1
fire
  1
*fire*
  1
*
  1
*
 70
     0
  1
*
  1
*
  0
XRECORD
  5
4B0F
102
{ACAD_REACTORS
330
4AD4
102
}
330
4AD4
100
AcDbXrecord
280
     1
  1
fireline
  1
fire*
  1
*
  1
*
 70
     0
  1
*
  1
*
  0
XRECORD
  5
4B10
102
{ACAD_REACTORS
330
4AD4
102
}
330
4AD4
100
AcDbXrecord
280
     1
  1
floor layout
  1
*
  1
*
  1
*
 70
     0
  1
*
  1
*
  0
XRECORD
  5
4B11
102
{ACAD_REACTORS
330
4AD4
102
}
330
4AD4
100
AcDbXrecord
280
     1
  1
Freeze
  1
*
  1
*
  1
*
 70
     4
  1
*
  1
*
  0
XRECORD
  5
4B12
102
{ACAD_REACTORS
330
4AD4
102
}
330
4AD4
100
AcDbXrecord
280
     1
  1
Frez
  1
*Frez
  1
*
  1
*
 70
     0
  1
*
  1
*
  0
XRECORD
  5
4B13
102
{ACAD_REACTORS
330
4AD4
102
}
330
4AD4
100
AcDbXrecord
280
     1
  1
FROOZEN
  1
*
  1
*
  1
*
 70
     4
  1
*
  1
*
  0
XRECORD
  5
4B14
102
{ACAD_REACTORS
330
4AD4
102
}
330
4AD4
100
AcDbXrecord
280
     1
  1
FROZEN
  1
*
  1
*
  1
*
 70
     4
  1
*
  1
*
  0
XRECORD
  5
4B15
102
{ACAD_REACTORS
330
4AD4
102
}
330
4AD4
100
AcDbXrecord
280
     1
  1
FS
  1
3-*
  1
*
  1
*
 70
     0
  1
*
  1
*
  0
XRECORD
  5
4B16
102
{ACAD_REACTORS
330
4AD4
102
}
330
4AD4
100
AcDbXrecord
280
     1
  1
FUR
  1
*FUR*
  1
*
  1
*
 70
     0
  1
*
  1
*
  0
XRECORD
  5
4B17
102
{ACAD_REACTORS
330
4AD4
102
}
330
4AD4
100
AcDbXrecord
280
     1
  1
furn\U+50A2\U+4FF1
  1
furn*
  1
*
  1
*
 70
     0
  1
*
  1
*
  0
XRECORD
  5
4B18
102
{ACAD_REACTORS
330
4AD4
102
}
330
4AD4
100
AcDbXrecord
280
     1
  1
furniture
  1
fur*
  1
*
  1
*
 70
     0
  1
*
  1
*
  0
XRECORD
  5
4B19
102
{ACAD_REACTORS
330
4AD4
102
}
330
4AD4
100
AcDbXrecord
280
     1
  1
GREEN
  1
*
  1
GREEN
  1
*
 70
     0
  1
*
  1
*
  0
XRECORD
  5
4B1A
102
{ACAD_REACTORS
330
4AD4
102
}
330
4AD4
100
AcDbXrecord
280
     1
  1
Grid
  1
Grid*
  1
*
  1
*
 70
     0
  1
*
  1
*
  0
XRECORD
  5
4B1B
102
{ACAD_REACTORS
330
4AD4
102
}
330
4AD4
100
AcDbXrecord
280
     1
  1
Grid and Fireline
  1
grid*
  1
*
  1
*
 70
     0
  1
*
  1
*
  0
XRECORD
  5
4B1C
102
{ACAD_REACTORS
330
4AD4
102
}
330
4AD4
100
AcDbXrecord
280
     1
  1
hatches
  1
*h*
  1
*
  1
*
 70
     0
  1
*
  1
*
  0
XRECORD
  5
4B1D
102
{ACAD_REACTORS
330
4AD4
102
}
330
4AD4
100
AcDbXrecord
280
     1
  1
hat鋪面質感
  1
hat*
  1
*
  1
*
 70
     0
  1
*
  1
*
  0
XRECORD
  5
4B1E
102
{ACAD_REACTORS
330
4AD4
102
}
330
4AD4
100
AcDbXrecord
280
     1
  1
hd
  1
hd*
  1
*
  1
*
 70
     0
  1
*
  1
*
  0
XRECORD
  5
4B1F
102
{ACAD_REACTORS
330
4AD4
102
}
330
4AD4
100
AcDbXrecord
280
     1
  1
ian1
  1
*door
  1
*
  1
*
 70
     0
  1
*
  1
*
  0
XRECORD
  5
4B20
102
{ACAD_REACTORS
330
4AD4
102
}
330
4AD4
100
AcDbXrecord
280
     1
  1
ian2
  1
*w*d*
  1
*
  1
*
 70
     0
  1
*
  1
*
  0
XRECORD
  5
4B21
102
{ACAD_REACTORS
330
4AD4
102
}
330
4AD4
100
AcDbXrecord
280
     1
  1
ian3
  1
*wall*
  1
*
  1
*
 70
     0
  1
*
  1
*
  0
XRECORD
  5
4B22
102
{ACAD_REACTORS
330
4AD4
102
}
330
4AD4
100
AcDbXrecord
280
     1
  1
idx索引圖
  1
idx*
  1
*
  1
*
 70
     0
  1
*
  1
*
  0
XRECORD
  5
4B23
102
{ACAD_REACTORS
330
4AD4
102
}
330
4AD4
100
AcDbXrecord
280
     1
  1
ims
  1
ims*
  1
*
  1
*
 70
     0
  1
*
  1
*
  0
XRECORD
  5
4B24
102
{ACAD_REACTORS
330
4AD4
102
}
330
4AD4
100
AcDbXrecord
280
     1
  1
Karsten
  1
k-*
  1
*
  1
*
 70
     0
  1
*
  1
*
  0
XRECORD
  5
4B25
102
{ACAD_REACTORS
330
4AD4
102
}
330
4AD4
100
AcDbXrecord
280
     1
  1
L-TEMP
  1
*L-TEMP
  1
*
  1
*
 70
     0
  1
*
  1
*
  0
XRECORD
  5
4B26
102
{ACAD_REACTORS
330
4AD4
102
}
330
4AD4
100
AcDbXrecord
280
     1
  1
LANDSCAP
  1
L-*
  1
*
  1
*
 70
     0
  1
*
  1
*
  0
XRECORD
  5
4B27
102
{ACAD_REACTORS
330
4AD4
102
}
330
4AD4
100
AcDbXrecord
280
     1
  1
LANDSCAPE
  1
L-*
  1
*
  1
*
 70
     0
  1
*
  1
*
  0
XRECORD
  5
4B28
102
{ACAD_REACTORS
330
4AD4
102
}
330
4AD4
100
AcDbXrecord
280
     1
  1
law法規檢討
  1
law*
  1
*
  1
*
 70
     0
  1
*
  1
*
  0
XRECORD
  5
4B29
102
{ACAD_REACTORS
330
4AD4
102
}
330
4AD4
100
AcDbXrecord
280
     1
  1
lea
  1
*lea*
  1
*
  1
*
 70
     0
  1
*
  1
*
  0
XRECORD
  5
4B2A
102
{ACAD_REACTORS
330
4AD4
102
}
330
4AD4
100
AcDbXrecord
280
     1
  1
list表格
  1
list*
  1
*
  1
*
 70
     0
  1
*
  1
*
  0
XRECORD
  5
4B2B
102
{ACAD_REACTORS
330
4AD4
102
}
330
4AD4
100
AcDbXrecord
280
     1
  1
MAGENTA
  1
*
  1
MAGENTA
  1
*
 70
     0
  1
*
  1
*
  0
XRECORD
  5
4B2C
102
{ACAD_REACTORS
330
4AD4
102
}
330
4AD4
100
AcDbXrecord
280
     1
  1
move
  1
*
  1
*
  1
*
 70
     0
  1
*
  1
*
  0
XRECORD
  5
4B2D
102
{ACAD_REACTORS
330
4AD4
102
}
330
4AD4
100
AcDbXrecord
280
     1
  1
N
  1
*NON-*
  1
*
  1
*
 70
     0
  1
*
  1
*
  0
XRECORD
  5
4B2E
102
{ACAD_REACTORS
330
4AD4
102
}
330
4AD4
100
AcDbXrecord
280
     1
  1
Off
  1
*
  1
*
  1
*
 70
     3
  1
*
  1
*
  0
XRECORD
  5
4B2F
102
{ACAD_REACTORS
330
4AD4
102
}
330
4AD4
100
AcDbXrecord
280
     1
  1
P
  1
*PAR*,*WIN*,*CURB*
  1
*
  1
*
 70
     0
  1
*
  1
*
  0
XRECORD
  5
4B30
102
{ACAD_REACTORS
330
4AD4
102
}
330
4AD4
100
AcDbXrecord
280
     1
  1
Pen weight
  1
*
  1
*
  1
*
 70
     0
  1
*
  1
*
  0
XRECORD
  5
4B31
102
{ACAD_REACTORS
330
4AD4
102
}
330
4AD4
100
AcDbXrecord
280
     1
  1
PHA
  1
*PHA*
  1
*
  1
*
 70
     0
  1
*
  1
*
  0
XRECORD
  5
4B32
102
{ACAD_REACTORS
330
4AD4
102
}
330
4AD4
100
AcDbXrecord
280
     1
  1
poche
  1
*poch*
  1
*
  1
*
 70
     0
  1
*
  1
*
  0
XRECORD
  5
4B33
102
{ACAD_REACTORS
330
4AD4
102
}
330
4AD4
100
AcDbXrecord
280
     1
  1
PORT
  1
*PORT
  1
*
  1
*
 70
     0
  1
*
  1
*
  0
XRECORD
  5
4B34
102
{ACAD_REACTORS
330
4AD4
102
}
330
4AD4
100
AcDbXrecord
280
     1
  1
R
  1
*RAIL*,*VOID*
  1
*
  1
*
 70
     0
  1
*
  1
*
  0
XRECORD
  5
4B35
102
{ACAD_REACTORS
330
4AD4
102
}
330
4AD4
100
AcDbXrecord
280
     1
  1
RAIL
  1
*RAIL
  1
*
  1
*
 70
     0
  1
*
  1
*
  0
XRECORD
  5
4B36
102
{ACAD_REACTORS
330
4AD4
102
}
330
4AD4
100
AcDbXrecord
280
     1
  1
RED
  1
*
  1
RED
  1
*
 70
     0
  1
*
  1
*
  0
XRECORD
  5
4B37
102
{ACAD_REACTORS
330
4AD4
102
}
330
4AD4
100
AcDbXrecord
280
     1
  1
S
  1
*SOLID*
  1
*
  1
*
 70
     0
  1
*
  1
*
  0
XRECORD
  5
4B38
102
{ACAD_REACTORS
330
4AD4
102
}
330
4AD4
100
AcDbXrecord
280
     1
  1
search
  1
*comments*
  1
red
  1
*
 70
     0
  1
*
  1
*
  0
XRECORD
  5
4B39
102
{ACAD_REACTORS
330
4AD4
102
}
330
4AD4
100
AcDbXrecord
280
     1
  1
sec
  1
*sec*
  1
*
  1
*
 70
     0
  1
*
  1
*
  0
XRECORD
  5
4B3A
102
{ACAD_REACTORS
330
4AD4
102
}
330
4AD4
100
AcDbXrecord
280
     1
  1
section
  1
*
  1
*
  1
*
 70
     0
  1
*
  1
*
  0
XRECORD
  5
4B3B
102
{ACAD_REACTORS
330
4AD4
102
}
330
4AD4
100
AcDbXrecord
280
     1
  1
Show all thawed Layers
  1
*
  1
*
  1
*
 70
    12
  1
*
  1
*
  0
XRECORD
  5
4B3C
102
{ACAD_REACTORS
330
4AD4
102
}
330
4AD4
100
AcDbXrecord
280
     1
  1
show all thawed no xref
  1
~###*
  1
*
  1
*
 70
    12
  1
*
  1
*
  0
XRECORD
  5
4B3D
102
{ACAD_REACTORS
330
4AD4
102
}
330
4AD4
100
AcDbXrecord
280
     1
  1
Show No xref layers
  1
~####*
  1
*
  1
*
 70
     0
  1
*
  1
*
  0
XRECORD
  5
4B3E
102
{ACAD_REACTORS
330
4AD4
102
}
330
4AD4
100
AcDbXrecord
280
     1
  1
ｓｉｔｅ
  1
*
  1
*
  1
*
 70
     0
  1
*
  1
*
  0
XRECORD
  5
5D0E
102
{ACAD_REACTORS
330
4AD4
102
}
330
4AD4
100
AcDbXrecord
280
     1
  1
Site
  1
*S-*
  1
*
  1
*
 70
     0
  1
*
  1
*
  0
XRECORD
  5
4B40
102
{ACAD_REACTORS
330
4AD4
102
}
330
4AD4
100
AcDbXrecord
280
     1
  1
ST-UG-OL
  1
*ST-UG-OL
  1
*
  1
*
 70
     0
  1
*
  1
*
  0
XRECORD
  5
4B41
102
{ACAD_REACTORS
330
4AD4
102
}
330
4AD4
100
AcDbXrecord
280
     1
  1
stair
  1
*stair*
  1
*
  1
*
 70
     0
  1
*
  1
*
  0
XRECORD
  5
4B42
102
{ACAD_REACTORS
330
4AD4
102
}
330
4AD4
100
AcDbXrecord
280
     1
  1
sta樓梯
  1
sta*
  1
*
  1
*
 70
     0
  1
*
  1
*
  0
XRECORD
  5
4B43
102
{ACAD_REACTORS
330
4AD4
102
}
330
4AD4
100
AcDbXrecord
280
     1
  1
sym符號
  1
sym*
  1
*
  1
*
 70
     0
  1
*
  1
*
  0
XRECORD
  5
4B44
102
{ACAD_REACTORS
330
4AD4
102
}
330
4AD4
100
AcDbXrecord
280
     1
  1
t
  1
*
  1
*
  1
*
 70
     4
  1
*
  1
*
  0
XRECORD
  5
4B45
102
{ACAD_REACTORS
330
4AD4
102
}
330
4AD4
100
AcDbXrecord
280
     1
  1
test
  1
*
  1
*
  1
*
 70
     4
  1
*
  1
*
  0
XRECORD
  5
4B46
102
{ACAD_REACTORS
330
4AD4
102
}
330
4AD4
100
AcDbXrecord
280
     1
  1
TEXT
  1
*text*
  1
*
  1
*
 70
     0
  1
*
  1
*
  0
XRECORD
  5
4B47
102
{ACAD_REACTORS
330
4AD4
102
}
330
4AD4
100
AcDbXrecord
280
     1
  1
TEXT-0NLY
  1
*TXT*
  1
*
  1
*
 70
     0
  1
*
  1
*
  0
XRECORD
  5
4B48
102
{ACAD_REACTORS
330
4AD4
102
}
330
4AD4
100
AcDbXrecord
280
     1
  1
TEXT-ONLY
  1
*TXT*
  1
*
  1
*
 70
     0
  1
*
  1
*
  0
XRECORD
  5
4B49
102
{ACAD_REACTORS
330
4AD4
102
}
330
4AD4
100
AcDbXrecord
280
     1
  1
text文字
  1
text*
  1
*
  1
*
 70
     0
  1
*
  1
*
  0
XRECORD
  5
4B4A
102
{ACAD_REACTORS
330
4AD4
102
}
330
4AD4
100
AcDbXrecord
280
     1
  1
TL
  1
*tl*
  1
*
  1
*
 70
     0
  1
*
  1
*
  0
XRECORD
  5
4B4B
102
{ACAD_REACTORS
330
4AD4
102
}
330
4AD4
100
AcDbXrecord
280
     1
  1
toil衛浴
  1
toil*
  1
*
  1
*
 70
     0
  1
*
  1
*
  0
XRECORD
  5
4B4C
102
{ACAD_REACTORS
330
4AD4
102
}
330
4AD4
100
AcDbXrecord
280
     1
  1
txt
  1
*txt*
  1
*
  1
*
 70
     0
  1
*
  1
*
  0
XRECORD
  5
4B4D
102
{ACAD_REACTORS
330
4AD4
102
}
330
4AD4
100
AcDbXrecord
280
     1
  1
TXT-BW
  1
*-TXT-BW
  1
*
  1
*
 70
     0
  1
*
  1
*
  0
XRECORD
  5
4B4E
102
{ACAD_REACTORS
330
4AD4
102
}
330
4AD4
100
AcDbXrecord
280
     1
  1
unlock all layers
  1
*
  1
*
  1
*
 70
     0
  1
*
  1
*
  0
XRECORD
  5
4B4F
102
{ACAD_REACTORS
330
4AD4
102
}
330
4AD4
100
AcDbXrecord
280
     1
  1
VP THAW
  1
*
  1
*
  1
*
 70
    61
  1
*
  1
*
  0
XRECORD
  5
4B50
102
{ACAD_REACTORS
330
4AD4
102
}
330
4AD4
100
AcDbXrecord
280
     1
  1
vsit景觀環境
  1
vsit*
  1
*
  1
*
 70
     0
  1
*
  1
*
  0
XRECORD
  5
4B51
102
{ACAD_REACTORS
330
4AD4
102
}
330
4AD4
100
AcDbXrecord
280
     1
  1
W
  1
*WALL*
  1
*
  1
*
 70
     0
  1
*
  1
*
  0
XRECORD
  5
4B52
102
{ACAD_REACTORS
330
4AD4
102
}
330
4AD4
100
AcDbXrecord
280
     1
  1
WA
  1
*
  1
*
  1
*
 70
     0
  1
*
  1
*
  0
XRECORD
  5
4B53
102
{ACAD_REACTORS
330
4AD4
102
}
330
4AD4
100
AcDbXrecord
280
     1
  1
walk-distance
  1
*walk-distance*
  1
*
  1
*
 70
     0
  1
*
  1
*
  0
XRECORD
  5
4B54
102
{ACAD_REACTORS
330
4AD4
102
}
330
4AD4
100
AcDbXrecord
280
     1
  1
WALL
  1
*WALL
  1
*
  1
*
 70
     0
  1
*
  1
*
  0
XRECORD
  5
4B55
102
{ACAD_REACTORS
330
4AD4
102
}
330
4AD4
100
AcDbXrecord
280
     1
  1
WALL-90
  1
*WALL*
  1
*
  1
*
 70
     0
  1
*
  1
*
  0
XRECORD
  5
4B56
102
{ACAD_REACTORS
330
4AD4
102
}
330
4AD4
100
AcDbXrecord
280
     1
  1
wd門窗
  1
wd*
  1
*
  1
*
 70
     0
  1
*
  1
*
  0
XRECORD
  5
4B57
102
{ACAD_REACTORS
330
4AD4
102
}
330
4AD4
100
AcDbXrecord
280
     1
  1
WHITE
  1
*
  1
WHITE
  1
*
 70
     0
  1
*
  1
*
  0
XRECORD
  5
4B58
102
{ACAD_REACTORS
330
4AD4
102
}
330
4AD4
100
AcDbXrecord
280
     1
  1
WIN
  1
*WIN*
  1
*
  1
*
 70
     0
  1
*
  1
*
  0
XRECORD
  5
4B59
102
{ACAD_REACTORS
330
4AD4
102
}
330
4AD4
100
AcDbXrecord
280
     1
  1
YELLOW
  1
*
  1
YELLOW
  1
*
 70
     0
  1
*
  1
*
  0
XRECORD
  5
4B5A
102
{ACAD_REACTORS
330
4AD4
102
}
330
4AD4
100
AcDbXrecord
280
     1
  1
ｚｚｚ
  1
*
  1
*
  1
*
 70
     1
  1
*
  1
*
  0
XRECORD
  5
5D0F
102
{ACAD_REACTORS
330
4AD4
102
}
330
4AD4
100
AcDbXrecord
280
     1
  1
ZZZ
  1
*
  1
254
  1
*
 70
     0
  1
*
  1
*
  0
XRECORD
  5
4B5C
102
{ACAD_REACTORS
330
4AD4
102
}
330
4AD4
100
AcDbXrecord
280
     1
  1
紅色
  1
*
  1
red*
  1
*
 70
     0
  1
*
  1
*
  0
XRECORD
  5
4B5D
102
{ACAD_REACTORS
330
4AD4
102
}
330
4AD4
100
AcDbXrecord
280
     1
  1
青色
  1
*
  1
cyan*
  1
*
 70
     0
  1
*
  1
*
  0
XRECORD
  5
4B5E
102
{ACAD_REACTORS
330
4AD4
102
}
330
4AD4
100
AcDbXrecord
280
     1
  1
白色
  1
*
  1
white*
  1
*
 70
     0
  1
*
  1
*
  0
ENDSEC
  0
EOF
